
//----- song ID: what -----//
#TITLE:What Can I Say To You;
#ARTIST:HI-FIVE;
#BANNER:What Can I Say To You.png;
#BACKGROUND:What Can I Say To You-bg.png;
#CDTITLE:cdtitle.png;
#MUSIC:What Can I Say To You.ogg;
#SAMPLESTART:76.382;
#SAMPLELENGTH:15;
#DISPLAYBPM:93;
#BPMS:0=93.085;

//---------------dance-single - ----------------
#NOTES:
     dance-single:
     :
     Beginner:
     1:
     :
0000
0000
0000
0000
,
0000
0000
0000
0000
,
0000
0000
0000
0000
,
0000
0000
0000
0000
,
0000
0000
0000
0000
,
0000
0000
0000
0000
,
0010
0000
1000
1000
,
0000
0000
0001
0001
,
0000
0000
0100
0100
,
0000
0000
0010
0010
,
0000
0000
0100
0100
,
0000
0000
0001
0001
,
0000
0000
1000
1000
,
0000
0001
0000
1000
,
0000
0001
0000
1000
,
0000
0010
0000
0100
,
0000
0000
1001
1001
,
0000
0010
0000
0100
,
0000
0010
0000
0100
,
0000
0001
0000
1000
,
0000
0000
0110
0110
,
0000
0001
0000
1000
,
0000
0001
0001
0001
,
0000
1000
0000
0001
,
0000
1000
1000
1000
,
0000
0010
0000
0100
,
0000
0010
0010
0010
,
0000
0100
0000
0010
,
0000
0100
0000
0010
,
0000
0000
1000
1000
,
0000
0000
0001
0001
,
0000
1000
0000
0001
,
0000
0100
0100
0100
,
0000
0010
0000
0100
,
0000
0001
0000
1000
,
0000
0000
0010
0010
,
0000
1000
0000
0001
,
0000
0100
0100
0000
,
1001
0000
0000
0000
;

//---------------dance-single - ----------------
#NOTES:
     dance-single:
     :
     Easy:
     3:
     :
0000
0000
0000
0000
,
0000
0000
0000
0000
,
0000
0000
0000
0000
,
0000
0000
0000
0000
,
0000
0000
0000
0000
,
0000
0000
0000
0000
,
1000
0000
0001
0000
,
1000
0000
0001
0001
,
1000
0010
0100
0001
,
1000
0000
0100
0100
,
1000
0001
0100
0010
,
0100
0001
1000
0100
,
1000
0010
0001
0100
,
1000
0100
0010
0001
,
1000
0100
0010
0001
,
1000
0010
0100
0001
,
1001
0000
0000
0000
,
0001
0010
0100
1000
,
0001
0010
0100
1000
,
0001
0100
0010
1000
,
1001
0000
0100
0100
,
1001
0000
1000
0001
,
0010
0100
1000
0001
,
1001
0000
0001
1000
,
0010
0100
0001
1000
,
1001
0000
0001
1000
,
0010
1000
0100
0001
,
0010
1000
0001
0100
,
0010
0100
0001
1000
,
1001
0000
0000
1001
,
0010
1000
0001
0100
,
0001
1000
0100
0010
,
0100
1000
0010
0001
,
0100
1000
0001
0100
,
0010
1000
0100
1000
,
0001
0100
0010
0100
,
0010
1000
0001
0010
,
0001
0100
0001
1000
,
1001
0000
0000
0000
;

//---------------dance-single - ----------------
#NOTES:
     dance-single:
     :
     Medium:
     5:
     :
0000
0000
0000
0000
,
0000
0000
0000
0000
,
0000
0000
0000
0000
,
0000
0000
0000
0000
,
0000
0000
0000
0000
,
0000
0000
0000
0000
,
0001
0000
1000
0000
0001
0001
0100
0000
,
0001
0000
1000
0000
0001
1000
0100
0000
,
1000
0000
0001
0000
1000
0001
0100
0000
,
0010
0000
0100
0000
1000
1000
0100
0000
,
0010
0000
0100
0000
0001
0001
0100
0000
,
1000
0000
0010
0000
1000
0001
0100
0000
,
1000
0000
0001
0000
1000
0010
0100
0001
,
1000
0001
0010
0100
,
1000
0000
0010
0000
0100
0001
1000
0000
,
0010
0000
1000
0000
0001
0100
0010
0000
,
1000
0000
0001
0000
1000
0010
0100
0001
,
0010
0100
1000
0001
,
0010
0000
0001
0000
1000
0100
0010
0000
,
0001
0000
0100
0000
0010
1000
0100
0000
,
0010
0001
0100
0000
0001
1000
0100
1000
,
0001
1000
0001
1000
,
0010
0000
0100
0000
0010
0100
0001
0000
,
1000
0001
1000
0001
,
0010
0100
1000
0000
0010
0100
0001
0000
,
1000
0001
1000
0001
,
0010
0000
0100
0000
0010
0100
1000
0000
,
0001
0000
1000
0000
0001
1000
0010
0000
,
1000
0001
0010
0000
0001
1000
0100
1000
,
0001
0000
0100
0000
1000
1000
0100
0000
,
1000
0000
0100
0000
0001
0001
0100
0000
,
1000
0000
0100
0000
0001
1000
0100
0000
,
1000
0001
0100
0000
1000
0001
0100
0001
,
1000
0000
0100
0000
0001
0001
0100
0000
,
0001
0000
0100
0000
1000
1000
0100
0000
,
0010
0000
0001
0000
1000
1000
0100
0000
,
0010
0000
1000
0000
0001
0001
0100
0000
,
0010
0000
0100
0000
1000
0001
1000
0000
,
1001
0000
0000
0000
;

//---------------dance-single - ----------------
#NOTES:
     dance-single:
     :
     Hard:
     6:
     :
0000
0000
0000
0000
,
0000
0000
0000
0000
,
0000
0000
0000
0000
,
0000
0000
0000
0000
,
0000
0000
0000
0000
,
0000
0000
0000
0000
,
0010
0000
0100
0000
0010
1000
0100
0000
,
0010
0000
0000
0000
0100
0000
0000
0000
0010
0000
0001
0000
0100
0001
0100
0000
,
0001
0000
1000
0000
0001
1000
0100
0000
,
1000
0000
0001
0000
1000
0001
0100
0000
,
0010
0100
0001
0000
0010
0100
1000
0000
,
0010
0000
0100
0000
0001
1000
0100
0000
,
0010
0000
0000
0000
0100
0000
0000
1000
0001
0000
0100
0000
0001
1000
0001
0000
,
0000
0010
0001
0100
0000
0010
1000
0100
,
0000
1000
0001
0100
0010
1000
0100
0001
,
0100
0000
0100
0000
1000
0001
0100
0000
,
0100
0000
0010
1000
0001
0100
0010
1000
,
0000
0001
0100
0010
0000
1000
0100
0010
,
0000
0001
1000
0010
0100
0010
1000
0001
,
0010
0000
0010
0000
0010
0001
0100
0000
,
1001
0000
0000
0000
0110
0000
0000
0000
1000
0000
0001
0000
0010
0100
0010
0000
,
0001
1000
0101
1100
,
0001
0100
1000
0100
0001
1000
0100
0001
,
0100
0010
1010
0011
,
0100
0000
0100
0000
0100
0010
0100
0010
,
0100
1000
0011
1100
,
0010
1000
0100
0001
0100
1000
0001
0100
,
0000
0010
1000
0001
0100
0010
0100
0000
,
0001
0100
1000
0100
0010
1000
0100
0001
,
0100
0000
0100
0000
0100
1000
0001
1000
,
0010
0000
0000
0000
0010
0000
0000
0000
0010
0000
0000
0000
1001
0000
0000
1000
,
0001
0000
1000
0001
0000
0000
0010
0000
0100
0000
0000
0000
0010
0000
0100
0000
,
1000
0001
0010
0100
0010
0001
1000
0100
,
0000
1000
0001
0000
0000
0100
0100
0001
,
1000
0000
0000
0000
1000
0000
0000
0000
0001
0000
0100
0000
0010
0000
0000
0100
,
0010
0000
0100
0010
0000
0000
1000
0000
0001
0000
0000
0000
0100
0000
0010
0000
,
1000
0100
0001
0100
1000
0001
0100
0010
,
0000
2000
0002
0000
0000
0003
3000
0000
;

//---------------dance-double - ----------------
#NOTES:
     dance-double:
     :
     Easy:
     3:
     :
00000000
00000000
00000000
00000000
,
00000000
00000000
00000000
00000000
,
00000000
00000000
00000000
00000000
,
00000000
00000000
00000000
00000000
,
00000000
00000000
00000000
00000000
,
00000000
00000000
00000000
00000000
,
00100000
00000000
00010000
00000000
,
00001000
00000000
00000010
00000001
,
00000010
00000001
00000100
00001000
,
00010000
00000000
00100000
10000000
,
00100000
10000000
01000000
00010000
,
00001000
00000100
00001000
00010000
,
01000000
00010000
00001000
00011000
,
00100000
00010000
10000000
00100000
,
01000000
00001000
00010000
00000100
,
00001000
00000010
00000100
00000001
,
00001001
00000000
00000000
00000000
,
00000010
00000001
00000100
00001000
,
00010000
00100000
10000000
01000000
,
00010000
00001000
00010000
00100000
,
10010000
00000000
00100000
00010000
,
00001000
00000000
00000010
00001000
,
00010000
00001000
00000100
00000001
,
00001001
00000000
00000010
00001000
,
00010000
00100000
10000000
01000000
,
10010000
00000000
00100000
00100000
,
00001000
00000010
00000001
00000100
,
00001001
00000100
00000100
00001000
,
00011000
01000000
01000000
10000000
,
10010000
00000000
00000000
10010000
,
01000000
00100000
00010000
00001000
,
00000010
00000100
00001000
00001001
,
00000010
00000001
00000100
00001000
,
00010000
01000000
10000000
00100000
,
01000000
00001000
00010000
00000100
,
00001000
00000001
00000100
00000010
,
00001000
00000100
00010000
00001000
,
00100000
00010000
10000000
01000000
,
10010000
00000000
00000000
00000000
;

//---------------dance-double - ----------------
#NOTES:
     dance-double:
     :
     Medium:
     5:
     :
00000000
00000000
00000000
00000000
,
00000000
00000000
00000000
00000000
,
00000000
00000000
00000000
00000000
,
00000000
00000000
00000000
00000000
,
00000000
00000000
00000000
00000000
,
00000000
00000000
00000000
00000000
,
00010000
00000000
00001000
00000000
00010000
00001000
00000100
00000000
,
00001000
00000000
00010000
00000000
00001000
00010000
01000000
00000000
,
10000000
00000000
00100000
00000000
00010000
00001000
00000100
00000000
,
00000001
00000000
00000010
00000000
00001000
00010000
01000000
00000000
,
10000000
00000000
01000000
00000000
00010000
00001000
00000010
00000000
,
00000001
00000000
00000100
00000000
00001000
00010000
00100000
00000000
,
10000000
00000000
01000000
00000000
00010000
00001000
00000100
00000001
,
00000010
00000010
00000001
00001000
,
00000001
00000000
00000100
00000000
00001000
00010000
01000000
00000000
,
10000000
00000000
10000000
00000000
01000000
00010000
00001000
00010000
,
00100000
00000000
10000000
00000000
01000000
00010000
00001000
00010000
,
00100000
00100000
10000000
00010000
,
10000000
00000000
01000000
00000000
00010000
00001000
00000100
00000000
,
00000001
00000000
00000001
00000000
00000100
00001000
00010000
00001000
,
00000010
00000001
00000100
00000000
00001000
00010000
00100000
00010000
,
00001000
00001010
00000100
00000101
,
00001000
00000000
00000100
00010000
00001000
00000000
00100000
00000000
,
00010000
01010000
00100000
10100000
,
10000000
00010000
01000000
00000000
00001000
00010000
00000100
00000000
,
00000010
00001001
00000100
00001001
,
00000010
00000000
00000100
00000000
00001000
00010000
00100000
00000000
,
01000000
00000000
00100000
00000000
00010000
00001000
00000100
00000000
,
00000010
00001000
00000100
00000000
00000010
00000001
00000100
00001000
,
00010000
00000000
00010000
00000000
00010000
01000000
10000000
00000000
,
10000000
00000000
10000000
00000000
10000000
01000000
00010000
00000000
,
00001000
00000000
00001000
00000000
00001000
00000100
00000001
00000000
,
00000001
00000100
00001000
00000000
00000100
00000001
00000100
00001000
,
00010000
00000000
00010000
00000000
00010000
00100000
10000000
00000000
,
10000000
00000000
10000000
00000000
10000000
00100000
00010000
00000000
,
00001000
00000000
00001000
00000000
00001000
00000010
00000001
00000000
,
00000001
00000000
00000001
00000000
00000001
00000010
00001000
00000000
,
00010000
00000000
00010000
00000000
00000010
00010000
00001000
00000000
,
00011000
00000000
00000000
00000000
;

//---------------dance-double - ----------------
#NOTES:
     dance-double:
     :
     Hard:
     6:
     :
00000000
00000000
00000000
00000000
,
00000000
00000000
00000000
00000000
,
00000000
00000000
00000000
00000000
,
00000000
00000000
00000000
00000000
,
00000000
00000000
00000000
00000000
,
00000000
00000000
00000000
00000000
,
10000000
00000000
01000000
00000000
00010000
00001000
00000100
00000000
,
00000001
00000000
00000000
00000000
00000100
00000000
00000000
00000000
00001000
00000000
00010000
00000000
01000000
10000000
01000000
00000000
,
10000000
00000000
00110000
00000000
01000000
00010000
00001000
00000000
,
00000100
00000000
00001010
00000000
00000100
00001000
00010000
00000000
,
00100000
00010000
00001000
00000000
00000010
00001000
00010000
00000000
,
00100000
00000000
10000000
00000000
01000000
00010000
00001000
00000000
,
00000010
00000000
00000000
00000000
00000001
00000000
00000000
00000001
00000100
00000000
00001000
00000000
00010000
00001000
00010000
00000000
,
00000000
00000010
00001000
00000100
00000000
00000010
00000001
00000100
,
00000000
00000001
00000100
00001000
00010000
01000000
10000000
00100000
,
01000000
00000000
01000000
00000000
00100000
00010000
00001000
00000000
,
00011000
00000000
00000100
00000001
00000010
00001000
00010000
00001000
,
00000000
00100000
00010000
01000000
00000000
00100000
10000000
01000000
,
00000000
10000000
01000000
00010000
00001000
00000100
00000001
00000010
,
00000100
00000000
00000100
00000000
00000010
00001000
00010000
00000000
,
00011000
00000000
00000000
00000000
01000000
00000000
00000000
00000000
10000000
00000000
00100000
00000000
10000000
00100000
10000000
00000000
,
01000000
00010000
00001000
00000100
,
00000001
00001000
00000100
00000010
00000100
00001000
00000001
00000000
,
00000100
00001000
00010000
01000000
,
10000000
00000000
00010000
00000000
10000000
01000000
00100000
01000000
,
10000000
00010000
01000000
01000000
,
00100000
00010000
00001000
00000010
00001000
00010000
00100000
10000000
,
00000000
10000000
01000000
00010000
00001000
00000100
00000001
00000000
,
00001000
00000010
00010000
00001000
00100000
00010000
10000000
01000000
,
00100000
00000000
00100000
00000000
01000000
00010000
00001000
00000100
,
00000010
00000000
00000000
00000000
00000010
00000000
00000000
00000000
00000100
00000000
00000000
00000000
00000100
00000000
00000000
00001000
,
00010000
00000000
00001000
00010000
00000000
00000000
01000000
00000000
10000000
00000000
00000000
00000000
10000000
00000000
01000000
00000000
,
10000000
00100000
01000000
00001000
00010000
00000100
00001000
00000010
,
00000000
00000100
00000100
00000000
00000000
00000001
00000100
00001000
,
00010000
00000000
00000000
00000000
01000000
00000000
00000000
00000000
10000000
00000000
00000000
00000000
01000000
00000000
00000000
00010000
,
00001000
00000000
00010000
00001000
00000000
00000000
00000100
00000000
00000001
00000000
00000000
00000000
00001000
00000000
00000100
00000000
,
00000010
00000001
00000100
00001000
00010000
01000000
10000000
00100000
,
00000000
00020000
00002000
00000000
00000000
00003000
00030000
00000000
;
