#TITLE:That Was Then,This Is Now;
#ARTIST:HI-FIVE;
#BANNER:That Was Then,This Is Now.png;
#BACKGROUND:That Was Then,This Is Now-bg.png;
#CDTITLE:./CDTITLES/Dancing Stage EuroMIX2.PNG;
#MUSIC:That Was Then,This Is Now.mp3;
#OFFSET:-0.048;
#SAMPLESTART:79.16;
#SAMPLELENGTH:15;
#DISPLAYBPM:103;
#BPMS:0=103.13;

//---------------dance-single - ----------------
#NOTES:
     dance-single:
     :
     Beginner:
     1:
     :
0000
0000
0000
0000
,
0000
0000
0000
0000
,
0000
0000
0000
0000
,
0000
0000
0000
0000
,
0000
0000
0000
0000
,
0010
0000
0000
0000
,
0010
0000
0000
0000
,
0100
0000
0000
0000
,
0100
0000
0000
0000
,
0010
0010
0010
0010
,
0010
0000
0100
0000
,
0100
0000
1000
0000
,
1000
0000
0001
0000
,
0001
0000
0010
0010
,
0010
0000
0100
0000
,
0010
0000
0100
0000
,
0001
0000
1000
0000
,
0001
0000
1000
0000
,
0010
0000
0000
0100
,
0100
0000
0000
0001
,
0001
0000
0000
1000
,
1000
0000
0000
0010
,
0010
0000
0000
1000
,
1000
0000
0000
0001
,
0001
0000
0000
0100
,
0100
0000
0000
0010
,
0010
0000
0000
0100
,
0100
0000
0000
0001
,
0001
0000
0000
1000
,
1000
0000
0000
0010
,
0010
0000
0000
1000
,
1000
0000
0000
0001
,
0001
0000
1000
0000
,
0010
0000
0100
0000
,
0010
0000
1001
0000
,
0100
0000
1001
0000
,
1000
0000
0110
0000
,
0001
0000
0110
0000
,
0010
0000
1001
0000
,
0100
0000
1001
0000
,
1000
0000
0110
0000
,
0001
0000
0110
0000
;

//---------------dance-single - ----------------
#NOTES:
     dance-single:
     :
     Easy:
     3:
     :
0000
0000
0000
0000
,
0000
0000
0000
0000
,
0000
0000
0000
0000
,
0000
0000
0000
0000
,
0000
0000
0000
0000
,
0010
0000
0010
0000
,
1000
0100
1000
0000
,
0100
0000
0100
0000
,
0001
0100
0001
0000
,
1000
0001
1000
0001
,
0100
0100
0000
0010
,
0100
0100
0000
0001
,
0010
0010
0000
0100
,
0010
0010
0000
1000
,
0010
0001
0000
0100
,
0010
1000
0000
0100
,
0010
1000
0000
0001
,
0010
0001
0000
1000
,
1000
0010
1000
0000
,
0001
0010
0001
0000
,
1000
0001
1000
0000
,
0001
1000
0001
0000
,
1000
0100
1000
0000
,
0001
0100
0001
0000
,
1000
0001
1000
0000
,
0001
1000
0001
0000
,
1000
0100
0010
0000
,
0010
0100
1000
0000
,
1000
0001
0010
0000
,
0010
0001
1000
0000
,
0001
0100
0010
0000
,
0010
0100
0001
0000
,
0001
1000
0010
0000
,
0010
1000
0001
0000
,
0100
0010
0001
1000
,
0010
0100
0100
0000
,
0100
0010
1000
0001
,
0010
0100
0100
0000
,
1000
0010
0100
0001
,
1000
0100
0100
0000
,
0001
0010
0100
1000
,
0001
0100
0100
0000
;

//---------------dance-single - ----------------
#NOTES:
     dance-single:
     :
     Medium:
     5:
     :
0000
0000
0000
0000
,
0000
0000
0000
0000
,
0000
0000
0000
0000
,
0000
0000
0000
0000
,
0000
0000
0000
0000
,
0010
1000
0010
1000
,
0010
0001
0010
0001
,
0010
0100
0010
0100
,
1000
0100
0010
0001
,
0100
1001
0100
1001
,
1000
0000
0001
0000
1000
0100
1000
0000
,
1000
0000
0001
0000
1000
0100
1000
0000
,
0001
0000
1000
0000
0001
0100
0001
0000
,
0001
0000
1000
0000
0001
0100
0001
0000
,
1000
0000
0100
0000
1000
0010
1000
0000
,
1000
0000
0100
0000
1000
0010
1000
0000
,
0001
0000
0100
0000
0001
0010
0001
0000
,
0001
0000
0100
0000
0001
0010
0001
0000
,
1000
0000
0001
0000
1000
0100
1000
0000
,
1000
0000
0001
0000
1000
0010
1000
0000
,
1000
0000
0100
0000
1000
0001
1000
0000
,
1000
0000
0010
0000
1000
0001
1000
0000
,
0001
0000
1000
0000
0001
0100
0001
0000
,
0001
0000
1000
0000
0001
0010
0001
0000
,
0001
0000
0100
0000
0001
1000
0001
0000
,
0001
0000
0010
0000
0001
1000
0001
0000
,
0100
0000
0010
0000
1000
0100
1000
0000
,
0100
0000
0010
0000
0001
0100
0001
0000
,
0100
0000
0010
0000
1000
0001
1000
0000
,
0100
0000
0010
0000
0001
1000
0001
0000
,
0010
0000
0100
0000
1000
0010
1000
0000
,
0010
0000
0100
0000
0001
0010
0001
0000
,
0010
0000
0100
0000
1000
0001
1000
0000
,
0010
0000
0100
0000
0001
1000
0001
0000
,
1000
0000
0100
0000
0010
0001
0010
0000
,
0001
0000
0100
0000
0010
1000
0010
0000
,
0100
0000
0001
0000
1000
0010
1000
0000
,
0100
0000
1000
0000
0001
0100
0001
0000
,
1000
0000
0010
0000
0100
0001
0100
0000
,
0001
0000
0010
0000
0100
1000
0100
0000
,
0010
0000
0001
0000
1000
0100
1000
0000
,
0010
0000
1000
0000
0001
0010
0001
0000
;

//---------------dance-single - ----------------
#NOTES:
     dance-single:
     :
     Hard:
     6:
     :
0000
0000
0000
0000
,
0000
0000
0000
0000
,
0000
0000
0000
0000
,
0000
0000
0000
0000
,
0000
0000
0000
0000
,
0000
0010
0000
0000
1000
0000
0100
0000
1000
0000
0000
0000
0000
0000
0001
0000
,
0100
0000
0010
1000
0000
0000
0100
0000
,
0000
0010
0000
0000
0001
0000
0100
0000
0001
0000
0000
0000
1000
0000
0100
0000
,
0010
1100
0010
0101
,
1000
0100
0010
0001
0100
0001
0010
1000
,
0001
0100
0001
0000
1000
0100
1000
0000
,
0001
0010
0001
0000
1000
0010
1000
0000
,
0010
0001
0010
0000
0100
1000
0100
0000
,
0010
1000
0010
0000
0100
0001
0100
0000
,
0010
0000
0100
0000
0010
0000
0000
0000
0001
0000
0000
0001
0000
0000
0001
0000
,
1000
0000
0000
1000
0000
0000
1000
0000
0010
0000
0100
0000
0010
0000
0000
0000
,
1000
0000
0100
0000
1000
0000
0000
0000
0001
0000
0000
0001
0000
0000
0100
0000
,
1000
0000
0000
1000
0000
0000
0100
0000
0001
0000
0100
0000
0001
0000
0000
0000
,
1000
0100
1000
0000
1000
0010
1000
0000
,
1000
0001
1000
0000
1000
0100
1000
0000
,
0001
0100
0001
0000
0001
0010
0001
0000
,
0001
1000
0001
0000
0001
0100
0001
0000
,
0010
0100
0010
0000
0010
0001
0010
0000
,
0010
1000
0010
0000
0010
0100
0010
0000
,
0100
0010
0100
0000
0100
0001
0100
0000
,
0100
1000
0100
0000
0100
0010
0100
0000
,
1000
0100
0010
0000
0001
0100
0010
0000
,
1000
0010
0100
0000
0001
0010
0100
0000
,
1000
0100
0001
0000
0001
0100
1000
0000
,
1000
0010
0001
0000
0001
0010
1000
0000
,
1000
0001
1000
0000
0100
0010
0100
0000
,
1000
0010
0001
0000
0010
1000
0100
0000
,
1000
0100
0001
0100
0000
0000
1000
0001
,
0000
0100
0010
0000
1000
0100
0010
0000
,
0000
0100
0000
0000
1000
0000
0100
0000
0010
0000
0000
0000
0001
0000
0100
0000
,
0010
0000
1000
0100
0000
0010
0001
0010
,
0000
0100
0000
0000
0001
0000
0100
0000
0010
0000
0000
0000
1000
0000
0100
0000
,
0010
0000
0001
0100
0010
1000
0100
0000
,
0000
0010
0000
0000
1000
0000
0010
0000
0100
0000
0000
0000
0001
0000
0010
0000
,
0100
0000
1000
0010
0000
0100
0001
0100
,
0000
0010
0000
0000
0001
0000
0010
0000
0100
0000
0000
0000
1000
0000
0010
0000
,
0100
0000
0000
0000
0001
0000
0010
0000
0100
0000
1000
0000
0010
0000
0000
1000
;

//---------------dance-double - ----------------
#NOTES:
     dance-double:
     :
     Easy:
     2:
     :
00000000
00000000
00000000
00000000
,
00000000
00000000
00000000
00000000
,
00000000
00000000
00000000
00000000
,
10000000
00000000
00000000
00000000
,
10000000
00000000
00000000
00000000
,
10000000
00000000
00000000
00000000
,
00010000
00000000
00000000
00000000
,
00001000
00000000
00000000
00000000
,
00000001
00000001
00000001
00000001
,
00000001
00000000
00000000
00000000
,
00000001
00000000
00000100
00000000
,
00001000
00000000
00010000
00000000
,
00001000
00000000
00000100
00000000
,
00000001
00000000
00000100
00000000
,
00001000
00000000
00010000
00000000
,
00100000
00000000
00010000
00000000
,
00001000
00000000
00010000
00000000
,
01000000
00000000
10000000
00000000
,
01100000
00000000
10000000
00010000
,
01000000
00000000
00100000
00010000
,
00011000
00000000
00010000
00001000
,
00000100
00000000
00000001
00001000
,
00000110
00000000
00000100
00001000
,
00010000
00000000
00001000
00000100
,
00000110
00000000
00010000
00001000
,
00000100
00000000
00001000
00010000
,
00010100
00000000
00010100
00000000
,
00001000
00001000
00010000
00010000
,
01001000
00000000
01001000
00000000
,
00010000
00010000
00001000
00001000
,
00010100
00000000
00010100
00000000
,
00001000
00001000
00010000
01000000
,
00100000
00000000
10000000
00000000
,
00010000
00000000
01000000
00000000
,
00100000
00010000
00001000
00000000
,
00101000
00000000
00011000
00000000
,
00010000
01000000
10000000
00000000
,
01000000
00010000
00001000
00000000
,
00000100
00001000
00010000
00000000
,
01001000
00000000
00011000
00000000
,
00001000
00000100
00000001
00000000
,
00000001
00000100
00001000
00000000
,
00001000
00000000
00000000
00000000
;

//---------------dance-double - ----------------
#NOTES:
     dance-double:
     :
     Medium:
     5:
     :
00000000
00000000
00000000
00000000
,
00000000
00000000
00000000
00000000
,
00000000
00000000
00000000
00000000
,
00100000
00000000
00001000
00010000
,
01000000
01000000
10000000
00000000
,
01100000
00000000
10000000
01000000
,
00010000
00010000
00001000
00000000
,
00010000
00000000
00001000
00001000
,
00000100
00000001
00000010
00001000
,
00001001
00000000
00000100
00001000
,
00010000
01000000
10010000
01000000
,
00010000
01010000
10000000
01000000
,
00010000
00001000
00000010
00000001
,
00000100
00001000
00000100
00000001
,
00001100
00000010
00010000
00001000
,
00000100
00000110
00001000
00010000
,
00110000
01000000
00010000
00100000
,
01010000
00100000
01000000
10000000
,
11000000
00100000
10000000
01000000
,
00110000
01000000
00010000
00100000
,
00101000
00011000
00000100
00000001
,
00001010
00000100
00001000
00000010
,
00000101
00000010
00000001
00000100
,
00001010
00000100
00001000
00000010
,
00010010
00011000
01000000
10000000
,
00100000
10000000
01000000
01000000
,
00100000
00000000
00100000
00000000
00001000
01000000
00010000
00000000
,
10000000
01000000
00010000
01000000
,
00100000
00000000
00100000
00000000
01000000
00001000
00010000
00000000
,
00000010
00001000
00000100
00001000
,
00000010
00000000
00000010
00000000
00010000
00000100
00001000
00000000
,
00000001
00000010
00001000
00000100
,
00000010
00000001
00000100
00001000
,
00010000
00100000
10000000
01000000
,
00110000
00000000
00101000
00000000
00100000
00001000
00010000
00000000
,
00001000
00000100
00001000
00010000
,
00010100
00000000
00001100
00000000
00000010
00000001
00000100
00000000
,
00001000
00000100
00000001
00000100
,
00001010
00000000
00010010
00000000
00000010
00010000
00001000
00000000
,
00000100
00000001
00000100
00001000
,
00000110
00010000
00001000
00000100
,
00001000
00010000
01000000
10000000
,
00100000
00000000
00000000
00000000
;

//---------------dance-double - ----------------
#NOTES:
     dance-double:
     :
     Hard:
     6:
     :
00000000
00000000
00000000
00000000
,
00000000
00000000
00000000
00000000
,
00000000
00000000
00000000
00000000
,
00010000
00000000
00100000
00000000
10000000
00000000
01000000
00010000
,
00001000
00000100
00000001
00001000
,
00000100
00000000
00000010
00000000
00000001
00000000
00000001
00000001
,
00000010
00000000
00000001
00001000
00000000
00000001
00000100
00000000
,
00000010
00000000
00000010
00000000
00000100
00000000
00000100
00001000
,
00010000
01000000
10000000
00010000
,
01000000
00000000
01000000
00000000
00010000
10000000
01000000
00100000
,
00000000
10000000
00000000
01000000
00000000
00010000
00000000
01000000
,
00000000
01100000
00000000
00010000
00000000
00001000
00000100
00000001
,
00000000
00000010
00000000
00000101
00000000
00000010
00000000
00001100
,
00000000
00000010
00000000
00000101
00000000
00000010
00001000
00010000
,
00000000
00100000
00000000
01100000
00000000
01000000
00000000
00100000
,
00000000
10000000
00000000
01000000
00000000
00100000
00010000
01000000
,
00000000
01100000
00000000
00010000
00000000
01100000
00000000
10000000
,
00000000
01100000
00000000
00010000
00000000
00001000
00010000
01000000
,
10000000
00000000
11000000
00000000
00010000
00001000
00010000
01000000
,
10000000
00000000
11000000
00000000
01000000
00010000
00001000
00000100
,
00000001
00000000
00000101
00000000
00001000
00010000
00001000
00000100
,
00000001
00000000
00000101
00000000
00000001
00000100
00001000
00010000
,
01000000
00000000
01100000
00000000
00001000
00100000
00001000
01000000
,
00010000
00000000
01100000
00000000
00010000
00001000
00000100
00001000
,
00000100
00000001
00000010
00001000
,
00000100
00001000
00000010
00000000
00000010
00001000
00000100
00001000
,
00000010
00000000
00001001
00000000
00000010
00010000
00001000
00000010
,
00001000
00000000
00000110
00000000
00001000
00010000
01000000
00100000
,
00010000
00000000
10010000
00000000
01000000
00001000
00010000
01000000
,
00100000
10010000
01000000
10010000
,
00100000
00010000
00001000
00000000
01000000
00010000
00001000
00000000
,
00000100
00000001
00000010
00000010
,
00000001
00000100
00001000
00000000
00001000
00000100
00000001
00000000
,
00000001
00000010
00000001
00000100
00001000
00010000
01000000
00000000
,
00010000
00000000
01000000
00000000
10000000
00000000
10000000
10000000
,
01000000
00000000
00010000
01000000
00000000
10000000
01000000
00000000
,
00010000
00000000
00100000
00000000
10000000
00000000
01000000
00010000
,
00001000
00000110
00000001
00001000
,
00001000
00000000
00000100
00000000
00000001
00000000
00000001
00000001
,
00000100
00000000
00001000
00000100
00000000
00000001
00000100
00000000
,
00001000
00000000
00000010
00000000
00000001
00000000
00000100
00001000
,
00010000
01000000
10000000
00010000
,
01000000
00000000
00000000
00000000
;
