
//----- song ID: tell -----//
#TITLE:TELL ME, TELL ME... BABY;
#ARTIST:★NSYNC;
#BANNER:TELL ME, TELL ME...BABY.png;
#BACKGROUND:TELL ME, TELL ME...BABY-bg.png;
#CDTITLE:cdtitle.png;
#MUSIC:TELL ME, TELL ME...BABY.ogg;
#SAMPLESTART:40.408;
#SAMPLELENGTH:15;
#DISPLAYBPM:98;
#BPMS:0=98,121=100,122=98.05;

//---------------dance-single - ----------------
#NOTES:
     dance-single:
     :
     Beginner:
     1:
     :
0000
0000
0000
0000
,
0000
0000
0000
0000
,
0000
0000
0000
0000
,
0000
0000
0000
0000
,
0000
0000
0000
0000
,
0010
0000
0000
0010
,
0010
0000
0000
0100
,
0100
0000
0000
0000
,
0010
0010
0010
0000
,
0000
0001
0001
0000
,
0000
1000
1000
0000
,
0001
0000
0010
0000
,
0100
0000
0001
0001
,
0000
0000
1000
1000
,
0000
0000
0010
0010
,
0000
0000
0100
0000
,
0100
0000
0010
0000
,
0100
0100
0100
0000
,
0000
0001
0001
0000
,
1000
0000
0010
0010
,
0010
0000
1000
0000
,
0100
0000
1000
0000
,
0010
0000
0001
0000
,
0000
0100
0000
0010
,
0010
0000
0100
0100
,
0100
0000
0000
1000
,
1000
0000
0001
0000
,
0010
0010
0010
0000
,
0001
0000
0100
0000
,
0001
0000
0010
0000
,
1000
0000
0001
0001
,
0000
0000
1000
1000
,
0000
0000
0100
0100
,
0000
0000
0010
0010
,
0000
0000
0100
0000
,
0000
0000
0010
0000
;

//---------------dance-single - ----------------
#NOTES:
     dance-single:
     :
     Easy:
     2:
     :
0000
0000
0000
0000
,
0000
0000
0000
0000
,
0000
0000
0000
0000
,
0000
0000
0000
0000
,
0000
0000
0000
0000
,
0010
0100
0000
0010
,
1000
0001
0000
1000
,
0010
1000
0000
0010
,
0100
0001
0010
0100
,
0000
0010
0001
1000
,
0000
0001
0010
0001
,
0000
0010
0100
1000
,
0001
0100
0010
1000
,
1000
1000
0100
0010
,
0010
0010
0001
0100
,
0100
0100
0010
0100
,
1001
0000
0010
1000
,
0010
0000
0010
0001
,
0010
0000
1000
0001
,
1000
0001
0100
0100
,
0010
0001
1000
0000
,
0010
1000
0001
0100
,
0000
0010
0100
0010
,
0000
1000
0001
1000
,
0100
1000
0100
0000
,
0100
0001
0100
0000
,
1000
0001
1000
0001
,
0010
0010
0100
0001
,
1000
0000
0100
1000
,
0001
0010
0000
0100
,
0010
0100
1000
1000
,
0100
0000
0001
0001
,
0100
0000
0010
0010
,
1000
0000
0100
0100
,
0001
0000
1000
0000
,
0100
0000
0010
0000
,
0001
0000
0000
0000
;

//---------------dance-single - ----------------
#NOTES:
     dance-single:
     :
     Medium:
     5:
     :
0000
0000
0000
0000
,
0000
0000
0000
0000
,
0000
0000
0000
0000
,
0000
0000
0000
0000
,
0000
0000
0000
0000
,
0000
0010
1000
1000
0100
0000
0100
0000
,
0000
0010
0001
0001
0100
0000
0100
0000
,
0000
0010
1000
0001
0100
0000
0100
0000
,
0001
1000
0010
0100
0001
0000
0100
0010
,
1000
0000
0100
0000
0000
0001
1000
0100
,
0010
0000
0001
0000
0000
0100
0001
0100
,
0010
1000
0001
0100
,
0010
1000
0010
0100
0001
0000
0010
0000
,
0100
0000
1000
0000
0001
0100
0000
0010
,
1000
0100
0010
0001
,
1000
0000
0100
0100
1000
0000
0100
0000
,
1000
0000
0001
0000
1000
0100
1000
0001
,
1000
0000
0100
0000
0010
0001
0010
0100
,
1000
0000
0100
0000
1000
0010
0000
0100
,
0001
0100
0000
0000
0010
1000
0000
0001
,
1000
0010
1000
0100
1000
0000
0001
0000
,
1000
0100
0010
0001
0000
0100
0010
0000
,
0000
1000
0000
1000
0001
0100
0000
0010
,
0000
1000
0100
0000
0010
0001
0000
1000
,
0001
0100
0001
1000
0001
0000
0100
0000
,
0010
1000
0010
0100
0001
0000
0100
0000
,
0001
0010
0000
0100
1000
0100
0000
0000
,
0010
0001
0000
1000
0001
0010
0001
0100
,
0001
0000
1000
0000
0001
0100
0010
1000
,
0000
0100
0010
0000
0000
0001
0000
0001
,
1000
0100
0000
0010
0001
0000
0100
0000
,
0010
0000
1000
0100
0010
0000
0001
0000
,
1000
0000
0100
0010
0001
0000
0010
0000
,
0100
0000
1000
0010
0100
0000
0001
0000
,
1000
0000
0010
0100
0001
1000
0100
0000
,
0010
0000
0001
0100
0010
1000
0100
0000
,
0010
0000
0001
0100
0000
0000
0000
0000
;

//---------------dance-single - ----------------
#NOTES:
     dance-single:
     :
     Hard:
     7:
     :
0000
0000
0000
0000
,
0000
0000
0000
0000
,
0000
0000
0000
0000
,
0000
0000
0000
0000
,
0000
0000
0000
0000
,
0000
0100
1000
0000
0001
0000
0010
0000
0001
0000
0000
0000
0100
0000
0000
0000
,
0000
0010
1000
0000
0001
0000
0100
0000
0001
0000
0000
0000
0010
0000
0000
0000
,
0000
0100
0001
0000
1000
0000
0010
0000
1000
0000
0000
0000
0100
0000
0000
0000
,
0010
0000
0001
0000
0100
0000
0010
0000
1000
0000
1000
0100
0000
0010
0000
0010
,
0000
0000
0000
0000
0001
0000
0000
0000
0000
0100
0010
0100
0010
0000
1000
0000
,
1000
0000
0000
0000
0100
0000
0000
0000
0000
0000
0010
0001
0010
0001
0000
0100
,
0100
0000
0000
0000
1000
0000
0000
0010
1000
0000
0000
1000
0100
0000
0000
0100
,
0010
0000
0001
0000
0001
0100
0000
0010
1000
0000
1000
0000
0000
0001
0000
0001
,
0000
0000
0000
0000
0100
0000
0000
0000
0001
0000
0001
1000
0000
1000
0000
0100
,
0000
0000
0000
0000
0010
0000
0000
0000
0001
0000
0000
0000
0100
0000
0000
0010
,
0000
0000
0000
1000
0000
0100
0000
0000
0010
0000
0000
0011
0000
0000
1100
0000
,
0000
0010
0001
0000
0100
0000
0100
0000
0010
0000
1000
0010
0000
0100
0001
0000
,
0100
0000
0000
0000
0100
0000
0000
0000
0001
1000
0000
1000
0100
0000
0010
0000
,
0001
0000
0000
0000
0100
0000
0000
0000
0010
0000
1000
0001
0000
1000
0100
0000
,
1010
0000
1000
0000
0000
0000
0000
0001
0010
0000
0100
0000
0000
1000
0001
0000
,
1000
0000
0100
1000
0000
0001
0010
0000
0100
0000
0000
0000
0010
0000
0000
0000
,
0001
0100
0000
0100
0010
1000
0100
0000
0000
0000
0010
0000
0100
0000
0000
0000
,
0001
0000
1000
0000
0000
0000
0010
0100
0010
0000
1000
0000
0001
0000
0100
0000
,
0000
0000
0010
1000
0000
0001
0000
0100
0010
0000
1000
0000
0000
1000
0100
0000
,
0010
0000
0001
0010
0000
0100
1000
0000
0100
0000
0000
0000
0100
0000
0000
0000
,
1000
0001
0000
0001
0100
0000
0010
0000
1000
0000
0000
0000
0100
0000
0000
0000
,
0010
0000
0001
1000
0000
0001
0100
0000
0011
0000
0001
0000
0000
0000
0000
1000
,
0010
0000
0100
0000
0000
0001
1000
0000
0001
0000
0100
0001
0000
1000
0010
0000
,
0100
0000
0000
0000
0010
0000
0000
0000
1000
0100
0000
0100
0010
0001
0100
0000
,
0000
0000
0010
0000
0100
0000
0000
0000
1000
0000
0001
0000
0000
0000
0010
0100
,
0010
0000
0001
0000
1000
0000
0100
0000
0010
0000
0010
0001
0000
1000
0000
0100
,
0010
0000
0001
0000
0000
0001
0100
0000
0010
0000
0010
1000
0000
0001
0000
0100
,
0010
0000
1000
0000
0000
1000
0010
0000
0100
0000
0100
0001
0000
1000
0000
0010
,
0100
0000
0001
0000
0000
0001
0010
0000
0100
0000
0100
1000
0000
0001
0000
0010
,
0100
0000
1000
0000
0000
1000
0010
0000
0100
0000
0100
0010
0000
0010
1000
0000
,
1000
0000
0000
0001
0000
0001
0000
0000
1000
0000
1000
0100
0000
0100
0010
0000
,
0010
0000
0001
0000
0000
0001
0000
0000
0000
0000
0000
0000
0000
0000
0000
0000
;

//---------------dance-double - ----------------
#NOTES:
     dance-double:
     :
     Easy:
     2:
     :
00000000
00000000
00000000
00000000
,
00000000
00000000
00000000
00000000
,
00000000
00000000
00000000
00000000
,
00000000
00000000
00000000
00000000
,
00000000
00000000
00000000
00000000
,
10000000
00100000
00000000
00010000
,
00001000
00000010
00000000
00000001
,
00000001
00000100
00000000
00001000
,
00010000
00001000
00010000
00100000
,
00000000
10000000
10000000
00100000
,
00000000
00010000
00001000
00000010
,
00000000
00000001
00000001
00000010
,
00001000
00010000
00010000
00100000
,
00010000
00000000
00001000
00000100
,
00001000
00000000
00010000
01000000
,
00010000
00000000
00001000
00000010
,
00001000
00000000
00010000
00100000
,
10000000
00000000
10000000
01000000
,
00010000
00000000
00010000
00001000
,
00000100
00001000
00000100
00000001
,
00000001
00000100
00001000
00000000
,
00010000
01000000
10000000
00100000
,
00000000
00100000
00010000
00001000
,
00000000
00010000
00001000
00000000
,
00001000
00000010
00000001
00000000
,
00000001
00000100
00001000
00000000
,
00001000
00010000
01000000
00010000
,
01000000
10000000
10000000
01000000
,
00010000
00000000
00001000
00000100
,
00000001
00000010
00000000
00000010
,
00001000
00010000
00001000
00000100
,
00001000
00000000
00010000
01000000
,
00010000
00000000
00001000
00000010
,
00001000
00000000
00010000
00100000
,
00010000
00000000
00001000
00000000
,
00000010
00000000
00001000
00000000
,
00000100
00000000
00000000
00000000
;

//---------------dance-double - ----------------
#NOTES:
     dance-double:
     :
     Medium:
     4:
     :
00000000
00000000
00000000
00000000
,
00000000
00000000
00000000
00000000
,
00000000
00000000
00000000
00000000
,
00000000
00000000
00000000
00000000
,
00000000
00000000
00000000
00000000
,
00000000
00001000
00010000
00000000
00100000
00000000
00010000
00000000
,
00000000
00010000
00001000
00000000
00000010
00000000
00001000
00000000
,
00000000
00001000
00010000
00000000
01000000
00000000
00010000
00000000
,
00001000
00000000
00000100
00001000
00010000
00000000
00100000
00010000
,
00100000
00000000
10000000
00000000
00000000
10000000
01000000
00000000
,
10000000
00000000
00100000
00000000
00000000
00100000
00010000
00000000
,
00001000
00000100
00001000
00010000
,
00001000
00000100
00001000
00000000
00000010
00000000
00000001
00000000
,
00000100
00000000
00000001
00000000
00000010
00001000
00000000
00010000
,
01000000
10000000
01000000
00010000
,
00001000
00000010
00000001
00000010
,
00001000
00000000
00010000
00000000
00100000
00000000
10000000
01000000
,
10000000
00000000
01000000
00000000
00010000
00000000
00001000
00000010
,
00001000
00000000
00000010
00000000
00000001
00000100
00000000
00000000
,
00000100
00001000
00000000
00000000
00001000
00010000
00000000
00010000
,
00100000
00000000
10000000
00100000
10000000
00000000
01000000
00000000
,
00010000
00000000
00001000
00010000
00000000
00010000
01000000
00000000
,
00000000
10000000
00000000
00100000
00000000
00010000
00000000
00001000
,
00000000
00001000
00000010
00000000
00000001
00000100
00000000
00000001
,
00000010
00000000
00000001
00000100
00000001
00000000
00000100
00000000
,
00001000
00000000
00010000
00100000
00010000
00000000
00100000
00000000
,
10000000
01000000
00000000
00000000
01000000
00010000
00000000
00000000
,
00010000
00001000
00000000
00001000
00000010
00000000
00000001
00000010
,
00000001
00000000
00000100
00000000
00001000
00000000
00010000
00001000
,
00000000
00001000
00000100
00000000
00000000
00000001
00000000
00000010
,
00000000
00001000
00000000
00010000
00100000
00000000
10000000
00000000
,
01000000
00000000
10000000
00100000
10000000
00000000
01000000
00000000
,
00010000
00000000
00001000
00000100
00001000
00000000
00000010
00000000
,
00000001
00000000
00000100
00000001
00000100
00000000
00001000
00000000
,
00010000
00000000
00010000
00100000
00010000
00000000
01000000
00000000
,
10000000
00000000
00100000
00010000
00100000
00000000
10000000
00000000
,
01000000
00000000
00010000
00001000
00000000
00000000
00000000
00000000
;

//---------------dance-double - ----------------
#NOTES:
     dance-double:
     :
     Hard:
     6:
     :
00000000
00000000
00000000
00000000
,
00000000
00000000
00000000
00000000
,
00000000
00000000
00000000
00000000
,
00000000
00000000
00000000
00000000
,
00000000
00000000
00000000
00000000
,
00000000
01000000
00000000
00000000
10000000
00000000
00010000
00000000
10000000
00000000
00000000
00000000
00100000
00000000
00000000
00000000
,
00000000
00010000
00000000
00000000
00001000
00000000
00010000
00000000
00001000
00000000
00000000
00000000
00000010
00000000
00000000
00000000
,
00000000
00000001
00000000
00000000
00000100
00000000
00001000
00000000
00000100
00000000
00000000
00000000
00001000
00000000
00000000
00000000
,
00010000
00000000
00100000
00000000
00010000
00000000
00001000
00000000
00010000
00000000
00000000
00100000
00000000
10000000
00000000
10000000
,
00000000
00000000
00000000
00000000
01000000
00000000
00000000
00000000
00000000
00010000
00000000
00000000
00001000
00000000
00000010
00000000
,
00000010
00000000
00000000
00000000
00001000
00000000
00000000
00000000
00000000
00000000
00010000
00000000
00010000
00001000
00000000
00000000
,
00000010
00000000
00000000
00000000
00000001
00000000
00000000
00000001
00000100
00000000
00000000
00000000
00001000
00000000
00000000
00000000
,
00010000
00000000
00001000
00000000
00010000
00000000
00000000
00000000
00100000
00000000
10000000
00000000
00000000
10000000
00000000
01000000
,
00000000
00000000
00000000
00000000
10000000
00000000
00000000
00000000
01000000
00000000
00000000
01000000
00000000
00010000
00000000
00001000
,
00000000
00000000
00000000
00000000
00001000
00000000
00000000
00000000
00010000
00000000
00000000
00000000
00001000
00000000
00000000
00000100
,
00000000
00000000
00000000
00000100
00000000
00000001
00000000
00000000
00000100
00000000
00000000
00001000
00000000
00000000
00010000
00000000
,
00000000
00100000
00000000
00000000
00010000
00000000
00010000
00000000
00100000
00000000
00000000
10000000
00000000
00000000
01000000
00000000
,
01000000
00000000
00000000
00000000
00010000
00000000
00000000
00000000
00001000
00000000
00000000
00001000
00000010
00000000
00000010
00000000
,
00000001
00000000
00000000
00000000
00000100
00000000
00000000
00000000
00000001
00000000
00000001
00000100
00000000
00000000
00000100
00000000
,
00001000
00000000
00010000
00000000
00000000
00000000
00000000
00001000
00010000
00000000
00100000
00000000
00000000
00000000
00010000
00000000
,
01000000
00000000
00000000
10000000
00000000
00000000
00100000
00000000
00100000
00000000
00000000
00000000
00010000
00000000
00000000
00000000
,
00001000
00000100
00001000
00010000
00000000
00100000
10000000
00000000
,
10000000
00100000
00000000
00010000
00001000
00000010
00001000
00010000
,
00000000
00000000
00010000
00000000
00000000
00001000
00000000
00000000
00000100
00000000
00000001
00000000
00000000
00000000
00000001
00000000
,
00000010
00000000
00000000
00000001
00000000
00000000
00000100
00000000
00000100
00000000
00000000
00000000
00001000
00000000
00000000
00000000
,
00010000
00000000
00000000
00010000
00100000
00000000
00100000
00000000
10000000
00000000
00000000
00000000
01000000
00000000
00000000
00000000
,
10000000
00000000
10000000
01000000
00000000
00000000
01000000
00000000
00010000
00000000
00001000
00000000
00000000
00000000
00000000
00010000
,
00001000
00000000
00000010
00000000
00000000
00000000
00001000
00000000
00000100
00000000
00000000
00000001
00000000
00000000
00000010
00000000
,
00000010
00000000
00001000
00000000
00010000
01000000
00010000
00001000
,
00000000
00000010
00000001
00000000
00000001
00000010
00000000
00001000
,
00010000
00000000
00100000
00000000
00010000
00000000
00001000
00000000
00000010
00000000
00000000
00000000
00000001
00000000
00000000
00000001
,
00000000
00000000
00000100
00000000
00000000
00000100
00000000
00001000
00010000
00000000
00000000
00000000
00010000
00000000
00000000
00100000
,
00000000
00000000
00100000
00000000
00000000
10000000
00000000
10000000
01000000
00000000
00000000
00000000
01000000
00000000
00000000
00010000
,
00000000
00000000
00010000
00000000
00000000
00001000
00000000
00001000
00000010
00000000
00000000
00000000
00000010
00000000
00000000
00000001
,
00000000
00000000
00000001
00000000
00000000
00000100
00000000
00000100
00001000
00000000
00010000
00000000
00000000
00001000
00000000
00000000
,
00000100
00000000
00001000
00000000
00000000
00010000
00000000
00000000
00100000
00000000
00010000
00000000
00000000
00001000
00000000
00000000
,
00010000
00000000
00100000
00000000
00000000
10000000
00000000
00000000
00000000
00000000
00000000
00000000
00000000
00000000
00000000
00000000
;
