
//----- song ID: team -----//
#TITLE:TE AMO;
#ARTIST:ANGELA BOFILL;
#BANNER:TE AMO.png;
#BACKGROUND:TE AMO-bg.png;
#CDTITLE:cdtitle.png;
#MUSIC:TE AMO.ogg;
#SAMPLESTART:62.647;
#SAMPLELENGTH:15;
#BPMS:0=102;

//---------------dance-single - ----------------
#NOTES:
     dance-single:
     :
     Beginner:
     2:
     :
0000
0000
0000
0000
,
0000
0000
0000
0000
,
0000
0000
0000
0000
,
0010
0000
1000
0000
,
0001
0000
0100
0000
,
1001
0000
0010
0000
,
0100
0000
0010
0000
,
1001
0000
0010
0000
,
0100
0000
0010
0000
,
1001
0000
0010
0000
,
0100
0000
0010
0000
,
1001
0000
0110
0000
,
0010
0000
0000
0000
,
1001
0000
0010
0000
,
0001
0000
1000
0000
,
0100
0000
0001
0000
,
1000
0000
0100
0000
,
0100
0000
0001
0000
,
1000
0000
0001
0000
,
0010
0000
0100
0000
,
0001
0001
0001
0000
,
0010
0000
0100
0000
,
0001
0001
0001
0000
,
1001
0000
1000
0000
,
0100
0000
0100
0000
,
0001
0000
1000
0000
,
0001
0000
0000
0000
,
1001
0000
1000
0000
,
0001
0001
0001
0000
,
1001
0000
1000
0000
,
0001
0001
0001
0000
,
1001
0000
0100
0000
,
0010
0010
0010
0000
,
0110
0000
0110
0000
,
1001
0000
0000
0000
,
0010
0010
0010
0000
,
0100
0100
0100
0000
,
0001
0001
0001
0000
,
1000
0000
0000
0000
,
1001
0000
0000
0000
;

//---------------dance-single - ----------------
#NOTES:
     dance-single:
     :
     Easy:
     3:
     :
0000
0000
0000
0000
,
0000
0000
0000
0000
,
0000
0000
0000
0000
,
0010
0100
1000
0001
,
0010
0100
0000
0000
,
1001
0100
0010
0100
,
0010
0100
0001
1000
,
1001
0100
0010
0100
,
0010
0100
0001
1000
,
1001
0100
0010
0100
,
0010
0100
0001
1000
,
1001
0000
0010
0000
,
1000
0000
0000
0010
,
1001
0000
0010
1000
,
0001
1000
0001
1000
,
0110
0000
0001
0010
,
1000
0000
0100
0010
,
0100
0000
0001
1000
,
0010
0100
0010
0100
,
1001
0000
0001
1000
,
0010
0100
1000
0001
,
1001
0000
0001
1000
,
0010
0100
1000
0001
,
1001
0000
0110
0000
,
0001
1000
0001
1000
,
0001
0000
0100
0000
,
0001
0000
0010
0000
,
1001
0000
1000
0000
,
0010
0100
1000
0000
,
0110
0000
1000
0001
,
0010
0100
1000
0000
,
1001
0000
0100
0100
,
0001
1000
0000
0001
,
1001
0000
0100
0000
,
1000
0000
0000
0011
,
1001
0000
0010
0100
,
1000
0010
0100
0000
,
1001
0000
0010
0100
,
1000
0010
0100
0000
,
1000
0000
0000
0000
;

//---------------dance-single - ----------------
#NOTES:
     dance-single:
     :
     Medium:
     5:
     :
0000
0000
0000
0000
,
0000
0000
0000
0000
,
0000
0000
0000
0000
,
0010
1000
0100
0001
,
0010
0000
1000
0000
0010
0010
0000
0000
,
1001
0100
0010
0100
,
0010
0100
0001
1000
,
1001
0100
0001
0100
,
1000
0010
0100
1000
,
1001
0000
0100
0000
0010
0100
0010
0000
,
0100
0010
0001
1000
,
1001
0000
0000
0100
0000
0000
0000
0001
,
0000
0000
0000
0000
0000
1000
0001
1000
,
1001
0000
0010
1000
,
0010
0100
1000
0000
0010
0100
1000
0000
,
0010
0000
0001
0010
,
1000
0001
1000
0100
0000
0010
0000
0001
,
0000
0000
1000
0001
,
1000
0001
1000
0001
0000
0100
0000
0000
,
0000
0010
0001
0010
0001
1000
0100
1000
,
0000
0001
0000
0001
0000
0010
0000
1100
,
0000
0010
0001
0010
0001
0010
0001
0000
,
0000
1000
0000
0001
0000
1000
0000
0001
,
1001
0000
0110
0000
,
0010
0100
0010
0100
0000
0000
0000
0011
,
0000
0000
0000
0100
0000
0000
0000
0000
,
1000
0000
0000
0100
0000
0110
0000
1001
,
0000
0001
0001
0001
1000
1000
1000
1000
,
0010
0100
0010
0100
0000
0001
0000
0000
,
0000
1000
0001
1000
0001
1000
0001
1000
,
0010
0100
0010
0100
0000
0001
0000
1000
,
0000
0001
1000
0010
0100
0001
1000
0010
,
0100
0010
0100
0010
0000
1000
0000
1001
,
0000
0000
0000
0100
0000
0000
0000
0010
,
0000
0000
0000
0000
0000
0011
0000
0000
,
0000
0010
0001
1000
0100
0000
0000
0010
,
0001
1000
0100
0000
0000
0100
0000
0110
,
0000
0001
1000
0010
0100
0000
0000
0001
,
1000
0010
0100
0000
0000
0001
1000
0010
;

//---------------dance-single - ----------------
#NOTES:
     dance-single:
     :
     Hard:
     6:
     :
0000
0000
0000
0000
,
0000
0000
0000
0000
,
0000
0000
0000
0000
,
1000
0100
0010
0000
0001
0100
0010
0000
,
1000
0100
0010
0000
0000
0100
0000
0000
,
1000
0001
1000
0100
0010
0001
0010
0100
,
1000
0100
0010
0001
0000
0100
0000
0010
,
0000
0001
1000
0100
0010
0001
1000
0001
,
1000
0100
0010
0001
0000
0100
0000
0010
,
0000
0001
0010
0100
1000
0100
0010
0001
,
1000
0001
1000
0001
0000
0000
0100
0001
,
0000
0000
0100
0010
0000
0000
0001
1000
,
0000
0000
0000
0000
0000
0100
0000
0000
,
0010
0100
0001
1000
0010
0100
0001
1000
,
0010
0100
0001
1000
0000
0001
0000
0100
,
0010
0100
0001
1000
0010
0100
0001
1000
,
0010
0100
0001
1000
0000
0100
0000
0100
,
0000
1001
1000
0001
1000
0010
0100
0001
,
1000
0010
0100
0001
0000
1000
0000
0000
,
0000
1001
1000
0001
1000
0010
0100
0001
,
1000
0010
0000
0100
0000
1000
0000
0100
,
0000
1001
1000
0001
1000
0010
0100
0001
,
1000
0010
0100
0001
1000
0010
0100
0001
,
1000
0000
0000
0001
0100
0001
0000
0000
,
0010
0100
0001
1000
0000
0010
0100
0010
,
0000
0000
0000
1000
0000
0000
0000
0000
,
0001
0000
0000
0100
0000
0001
1000
0001
,
0000
1000
0100
0010
0001
0010
0100
1000
,
0100
1000
0001
0010
0000
0100
0000
0000
,
0000
1000
0100
0010
0001
0010
0100
1000
,
0100
0110
0001
1000
0000
0100
0000
0010
,
0000
0001
0010
0100
1000
0100
0010
0001
,
0010
0100
1000
0100
0000
0010
0000
0100
,
0000
0000
0000
1000
0000
0000
0000
0100
,
0000
0000
0000
0000
0000
1010
0000
0000
,
0000
0010
1000
0001
0100
0000
0000
0010
,
1000
0001
0100
0000
0000
0001
1000
0001
,
0000
0001
0010
0100
1000
0000
0000
0001
,
0010
0100
1000
0000
0000
0010
1000
0001
;

//---------------dance-double - ----------------
#NOTES:
     dance-double:
     :
     Easy:
     2:
     :
00000000
00000000
00000000
00000000
,
00000000
00000000
00000000
00000000
,
00000000
00000000
00000000
00000000
,
01000000
00000000
00010000
00000000
,
00000100
00000000
00000100
00000000
,
00000100
00000000
00010000
00001000
,
00010000
00001000
00000000
00000000
,
00100000
00000000
10000000
01000000
,
00100000
00010000
00000000
00000000
,
00011000
00000000
00000010
00000100
,
00000010
00000100
00000000
00000000
,
00010000
00000000
00001000
00000000
,
01000000
00000000
00000000
00000000
,
00011000
00000000
10000000
00010000
,
10000000
00010000
00000000
00000000
,
00000100
00000000
00001000
00100000
,
00001000
00000000
00000000
01000000
,
01000000
00000000
00100000
00000000
,
00001000
00000000
00010000
00000000
,
00000000
00001000
00010000
00000000
,
01000000
10000000
00010000
00000000
,
00000000
00010000
00001000
00000000
,
00000010
00000001
00001000
00000000
,
00010000
00000000
00100000
00000000
,
10000000
01000000
00010000
00000000
,
00001000
00000000
00001000
00000000
,
00000010
00000000
00010000
00000000
,
00001010
00000000
00010000
00000000
,
00010000
00000000
00100000
00000000
,
00000000
00001000
00100000
10000000
,
00010000
00000000
00000000
00000000
,
00001000
00000000
00001000
00010000
,
00000000
00000000
00000100
00010000
,
00000100
00000000
00010000
00000000
,
01000000
00000000
00000000
00000000
,
00011000
00000000
00100000
00000000
,
00001000
01000000
00000000
00000000
,
00010000
00000000
00000000
00000000
,
00001000
01000000
00000000
00000000
,
00000100
00000000
00000000
00000000
;

//---------------dance-double - ----------------
#NOTES:
     dance-double:
     :
     Medium:
     4:
     :
00000000
00000000
00000000
00000000
,
00000000
00000000
00000000
00000000
,
00000000
00000000
00000000
00000000
,
10000000
00100000
01000000
00010000
,
00000010
00000000
00000100
00000000
00000000
00001000
00000000
00000000
,
00100000
00000000
10000000
01000000
,
00100000
00010000
00000010
00000100
,
00001000
00000000
00100000
01000000
,
10000000
00010000
00100000
00001000
,
00000100
00000000
00000010
00000100
,
00001000
00000001
00001000
00000000
,
00100000
00000000
00000000
01000000
00000000
00000000
00000000
00010000
,
00000000
00000000
00000000
00000000
00000000
00010000
00000000
00000000
,
00001100
00000000
00000001
00000010
,
00000100
00010000
01000000
00100000
,
00001000
00000000
00001000
00000100
,
00000001
00000000
00000100
00000100
00000000
00001000
00000000
00001000
,
00000000
00000000
00100000
01000000
,
10000000
00000000
00010000
00000000
00000000
01000000
00000000
00000000
,
00000000
00000000
00000100
00000000
00001000
00000000
00000000
00000010
,
00000010
00000010
00000000
00001000
00000000
00000100
00000000
00001000
,
00000000
00000000
00010000
00000000
01000000
00000000
00000000
00010000
,
00010000
00010000
00000000
00100000
00000000
00001000
00000000
00100000
,
00000000
00000000
00000000
00000010
00000010
00000000
00000000
00000000
,
00001000
00000100
00010000
00010000
,
00100000
00000000
00000000
00010000
00000000
00000000
00000000
00000000
,
00000010
00000000
00000000
00010000
00000000
00100000
00000000
00000000
,
00011000
00000000
00010000
10000000
,
01000000
00000000
00000000
00000000
00000000
00001000
00000000
00000000
,
00000000
00000010
00000001
00000100
,
00000000
00001000
00010000
00100000
,
01000000
00000000
00001000
00000100
,
00000001
00000010
00000100
00000000
,
00110000
00000000
00000000
10000000
00000000
00000000
00000000
00010000
,
00000000
00000000
00000000
00000000
00000000
00010100
00000000
00000000
,
00000000
00000010
00000010
00000000
00000001
00000000
00000000
00001000
,
00001000
00000000
00010000
00000000
00000000
00001000
00000000
00001000
,
00000000
00100000
00100000
00000000
00010000
00000000
00000000
01000000
,
01000000
00000000
00010000
00000000
00000000
00100000
00000000
00001000
;

//---------------dance-double - ----------------
#NOTES:
     dance-double:
     :
     Hard:
     6:
     :
00000000
00000000
00000000
00000000
,
00000000
00000000
00000000
00000000
,
00000000
00000000
00000000
00000000
,
10000000
01000000
00100000
00000000
00001000
00010000
00001000
00000000
,
01000000
00000000
00010000
00000000
00000000
00001000
00000000
00000000
,
00001010
00000000
00000000
00000000
00010000
00100000
01000000
00000000
,
10000000
01000000
00100000
00010000
00000000
01000000
00000000
00100000
,
00000000
00000000
00000000
00000000
00001000
00000100
00000010
00000000
,
00000001
00000010
00000100
00001000
00000000
00000100
00000000
00010000
,
00011000
00000000
00000000
00000000
00010000
00100000
01000000
00000000
,
10000000
01000000
00100000
00010000
00000000
00000000
01000000
00010000
,
00000000
00000000
00000000
00001100
00000000
00000000
00000000
00001100
,
00000000
00000000
00000000
00000000
00000000
00101000
00000000
00000000
,
01100000
00000000
00000000
00000000
10000000
01000000
00100000
00000000
,
00001000
00010000
00000100
00000010
00000000
00000001
00000000
00000100
,
00000000
00000000
00000000
00000000
00000001
00000010
00000100
00000000
,
00010000
00001000
00100000
01000000
00000000
10000000
00000000
01000000
,
00000000
00000000
00000000
00000000
10000000
01000000
00100000
00000000
,
00001000
00010000
00000100
00000010
00000000
00000001
00000000
00000000
,
00000000
00000010
00000100
00000010
00001000
00000010
00001000
00000000
,
00000000
00001000
00000000
00000000
00000000
00010000
00001000
00010000
,
00000000
01000000
00100000
01000000
00010000
01000000
00010000
00000000
,
00000000
00001000
00010000
00000100
00000000
00000010
00000001
00000010
,
00000000
00000000
00000000
00000100
00000100
00000000
00000000
00000000
,
00010000
00001000
01000000
00100000
00000000
10000000
01000000
00100000
,
00000000
00000000
00000000
00001000
00000000
00000000
00000000
00000000
,
00000100
00000000
00000000
00001001
00000000
00000100
00000000
00011000
,
00000000
00001000
00010000
01000000
00100000
01000000
00100000
00000000
,
00010000
10000000
00010000
01000000
00000000
00001000
00000000
00000000
,
00000000
00010000
00001000
00000100
00000010
00000100
00000010
00000000
,
00001000
00000100
00010000
00010000
00000000
00001000
00000000
00100000
,
00000000
00001000
00010000
00001000
00000100
00000010
00000100
00000000
,
00000000
00000000
00010000
00001000
00000000
00100000
00000000
10010000
,
00000000
00000000
00000000
01100000
00000000
00000000
00000000
00110000
,
00000000
00000000
00000000
00000000
00001000
00011000
00000000
00000000
,
00001010
00000000
00000000
00001000
00000010
00000000
00000000
00010000
,
00001000
00010000
00100000
00000000
00000000
10000000
00010000
10000000
,
00000000
00001000
00010000
00000100
00000010
00000000
00000000
00000100
,
00000010
00000100
00010000
00000000
00000000
00001000
00010000
00000100
;
