#TITLE:STOMP;
#ARTIST:STEPS;
#BANNER:STOMP.png;
#BACKGROUND:STOMP-bg.png;
#CDTITLE:./CDTITLES/Dancing Stage EuroMIX2.PNG;
#MUSIC:STOMP.mp3;
#OFFSET:-0.048;
#SAMPLESTART:70.13;
#SAMPLELENGTH:15;
#DISPLAYBPM:130;
#BPMS:0=130.02;

//---------------dance-single - ----------------
#NOTES:
     dance-single:
     :
     Beginner:
     1:
     :
0000
0000
0000
0000
,
0000
0000
0000
0000
,
0000
0000
0000
0000
,
0010
0000
0000
0000
,
1000
0000
0000
0000
,
0001
0000
0000
0000
,
0010
0000
0000
0000
,
0010
0000
0100
0000
,
0100
0000
0000
0000
,
0100
0000
0001
0000
,
0001
0000
0000
0000
,
0001
0000
1000
0000
,
1000
0000
0000
0000
,
1000
0000
0001
0000
,
1000
0000
0000
0000
,
0001
0000
0000
0000
,
0100
0000
0000
0000
,
0001
0000
0000
0000
,
1000
0000
0000
0000
,
0001
0000
0000
0000
,
0010
0000
0000
0000
,
0001
0000
0000
0000
,
0010
0000
1000
0000
,
0010
0000
0001
0000
,
0100
0000
1000
0000
,
0100
0000
0010
0000
,
0100
0000
1000
0000
,
0100
0000
0001
0000
,
0010
0000
1000
0000
,
0010
0000
0100
0000
,
0010
0000
1001
0000
,
0100
0000
1001
0000
,
1000
0000
1001
0000
,
0001
0000
1001
0000
,
0010
0000
0110
0000
,
0100
0000
0110
0000
,
1000
0000
0110
0000
,
0001
0000
0110
0000
,
0000
0100
0000
1000
,
1000
0000
0010
0000
,
1001
0000
0000
0100
,
0000
0100
0100
0000
,
0000
0010
0000
0001
,
0001
0000
0100
0000
,
1001
0000
0000
0010
,
0000
0010
0010
0000
,
1001
0000
0000
0000
;

//---------------dance-single - ----------------
#NOTES:
     dance-single:
     :
     Easy:
     3:
     :
0000
0000
0000
0000
,
0000
0000
0000
0000
,
0000
0000
0000
0000
,
1001
0000
0000
0110
,
0100
0000
0010
0000
,
0010
0001
1000
0100
,
0010
0010
0000
0100
,
1000
1000
0000
0001
,
0100
0100
0000
0010
,
1000
1000
0001
0001
,
0010
0010
0000
0100
,
0001
0001
0000
1000
,
0100
0100
0000
0010
,
0001
0001
1000
1000
,
0000
0001
0100
0001
,
0000
0001
1000
0001
,
0000
0001
0010
0001
,
0000
0001
1000
0001
,
0000
0001
0100
0010
,
0000
1000
0100
0010
,
0001
0000
1000
1000
,
0000
0001
0100
0100
,
0000
1000
0100
1000
,
0000
1000
0001
1000
,
0000
1000
0010
1000
,
0000
1000
0001
1000
,
0000
1000
0100
0010
,
0000
0001
0100
0010
,
1000
0000
0001
0001
,
0000
1000
0100
0100
,
0010
0010
0000
0001
,
1000
1000
0000
0010
,
0100
0100
0000
0001
,
1000
0001
0100
0100
,
0010
0010
0000
1000
,
0001
0001
0000
0010
,
0100
0100
0010
0010
,
0001
0000
1000
1001
,
0000
1000
0100
0010
,
0011
0000
1000
1000
,
0001
0000
0100
0010
,
1000
0001
0000
0110
,
0000
0001
0100
0010
,
1010
0000
0001
0001
,
1000
0000
0100
0010
,
0001
1000
0000
0110
,
1001
0000
0000
0000
;

//---------------dance-single - ----------------
#NOTES:
     dance-single:
     :
     Medium:
     5:
     :
0000
0000
0000
0000
,
0000
0000
0000
0000
,
0000
0000
0000
0000
,
1001
0000
0000
1100
0000
0000
0101
0000
,
0010
0010
0010
0010
,
1000
0100
0001
0100
,
0010
0000
1000
0100
0000
0000
0010
0000
,
0001
0000
1000
0100
1000
0000
0001
0000
,
0010
0000
0001
0100
0000
1000
0100
0000
,
1000
0010
0100
0001
,
0010
0000
0001
0100
0000
0000
0010
0000
,
1000
0000
0001
0100
0001
0000
1000
0000
,
0010
0000
1000
0100
0000
0001
0100
0000
,
0001
0010
0100
1000
,
0000
1000
0000
1000
0000
0001
0100
0001
,
0000
0001
0000
0001
0000
1000
0100
1000
,
0010
0000
0000
1000
0000
0100
0000
0010
,
0000
0001
0000
1000
0000
0010
1000
0010
,
0000
0100
0000
0100
0000
0010
0001
0010
,
0000
0001
0000
0001
0000
1000
0100
1000
,
0010
0000
0000
1000
0000
0100
0000
0010
,
0000
0000
0001
0100
0000
0010
1000
0100
,
0000
0001
0000
0001
0000
1000
0100
1000
,
0000
1000
0000
1000
0000
0001
0100
0001
,
0010
0000
0000
0001
0000
0100
0000
0010
,
0000
1000
0000
0001
0000
0010
0001
0010
,
0000
0100
0000
0100
0000
0010
1000
0010
,
0000
1000
0000
1000
0000
0001
0100
0001
,
0010
0000
0000
0001
0000
0100
0000
0010
,
0000
0000
1000
0100
0000
0010
0001
0100
,
1000
1100
0001
0101
,
0010
1000
0010
0000
0100
0000
0011
0000
,
0100
0100
0010
0010
,
1000
0100
1000
0000
0010
0000
0101
0000
,
1000
1010
0001
0011
,
0100
1000
0100
0000
0010
0000
0101
0000
,
0010
0010
0100
0100
,
1000
0010
1000
0000
0100
0000
0010
0001
,
0000
1000
0100
1000
0000
0010
0100
0000
,
0001
0001
1000
1000
,
0100
0000
0100
0000
1010
0000
0010
0001
,
1000
1100
0001
0101
,
0000
0001
0100
0001
0000
0010
0100
0000
,
1000
1000
0001
0001
,
0100
0000
0100
0000
0011
0000
0010
1000
,
0001
0101
1000
1100
,
1001
0000
0000
0000
;

//---------------dance-single - ----------------
#NOTES:
     dance-single:
     :
     Hard:
     7:
     :
0000
0000
0000
0000
,
0000
0000
0000
0000
,
0000
0000
0000
0000
,
0010
0000
0001
0100
0000
1000
0100
0000
,
1000
0001
1000
0001
,
0010
0000
0100
0000
0010
0100
1000
0001
,
0010
0001
0010
0100
0000
0100
1000
0000
,
1000
0100
0000
0100
0010
0001
0010
0000
,
0001
0100
0010
1000
0000
0100
0010
0000
,
0001
0000
0100
0000
0010
1000
0010
0000
,
0100
1000
0100
0010
0000
0010
0001
0000
,
0001
0010
0000
0010
0100
1000
0100
0000
,
1000
0010
0100
0001
0000
0010
0100
0000
,
1000
0000
0010
0000
0100
0001
0100
0010
,
0000
1000
0100
1000
0000
0001
0100
0001
,
0000
1000
0100
0010
0000
0001
0100
0010
,
1000
0000
0100
0010
0000
0001
0000
0100
,
0000
0010
0000
0010
0000
1000
0100
1000
,
0000
1000
0100
0001
0000
0001
0100
1000
,
0000
1000
0010
0001
0000
0001
0010
1000
,
0001
0000
0100
0010
0000
1000
0000
0100
,
0000
0000
0100
0000
0010
0000
0001
0000
0100
0000
0000
0010
1000
0000
0010
0000
,
0000
0001
0100
0001
0000
1000
0100
1000
,
0000
0001
0100
0010
0000
1000
0100
0010
,
0001
0000
0100
0010
0000
1000
0000
0100
,
0000
0010
0000
0010
0000
0001
0100
0001
,
0000
0001
0100
1000
0000
1000
0100
0001
,
0000
0001
0010
1000
0000
1000
0010
0001
,
1000
0000
0100
0010
0000
0001
0000
0100
,
0000
0000
0100
0000
0010
0000
1000
0000
0100
0000
0000
0010
0001
0000
0010
0000
,
0001
0000
0000
1000
0100
0000
0010
0000
0001
0000
0000
1000
0010
0000
0100
0000
,
0001
0100
0010
0000
1000
0100
0010
0001
,
1000
0000
0000
0001
0100
0000
0010
0000
1000
0000
0000
0001
0010
0000
0100
0000
,
1000
0000
0000
0100
0010
0000
0001
0000
1000
0000
0010
0000
0100
0000
0001
0000
,
1000
0000
0010
0000
0001
0000
0010
0000
0000
0000
0000
1000
0100
0000
0010
0000
,
0001
0000
0100
0000
1000
0000
0100
0000
0000
0000
0000
0001
0010
0000
0001
0000
,
1000
0000
0000
0100
0010
0000
0001
0000
0010
0000
0100
0000
1000
0000
0010
0000
,
0001
0000
0000
0010
1000
0000
0000
1000
0001
0000
0100
0000
0010
0000
1000
0000
,
0000
1000
0100
0010
0000
0001
0100
0010
,
1000
0000
0000
0001
0100
0000
0010
0000
1000
0100
0000
0010
0000
0000
0001
0000
,
1000
0000
0000
0100
0010
0000
0100
0000
0000
0000
0010
0000
0001
0000
0010
0000
,
1100
1001
0101
0110
,
0000
0001
0100
0010
0000
1000
0100
0010
,
0001
0000
0000
1000
0100
0000
0010
0000
0001
0100
0000
0010
0000
0000
1000
0000
,
0001
0000
0000
0100
0010
0000
0100
0000
0000
0000
0010
0000
1000
0000
0010
0000
,
0101
1001
1100
0110
,
1001
0000
0000
0000
;

//---------------dance-double - ----------------
#NOTES:
     dance-double:
     :
     Easy:
     3:
     :
00000000
00000000
00000000
00000000
,
00000000
00000000
00000000
00000000
,
00000000
00000000
00000000
00000000
,
00000000
00000000
00000000
00000000
,
00010000
00000000
00010000
00000000
,
00001000
00000000
00001000
00000000
,
00010000
00000000
00010000
00000000
,
00100000
00000000
00100000
00000000
,
00010000
00000000
00010000
00000000
,
00001000
00001000
00010000
00010000
,
00001000
00000000
00001000
00000000
,
00000010
00000000
00000010
00000000
,
00001000
00000000
00001000
00000000
,
00010000
00010000
00001000
00001000
,
00010000
00000000
01000000
00000000
,
10000000
00000000
00100000
00000000
,
00010000
00000000
00001000
00000000
,
00000100
00000000
00000001
00000000
,
00000100
00000000
00001000
00000000
,
00010000
00000000
00100000
00000000
,
10000000
00000000
01000000
00000000
,
00010000
00000000
00001000
00000000
,
00000010
00000000
00001000
00000000
,
00010000
00000000
00010010
00000000
,
00011000
00000000
00010100
00000000
,
00010000
00000000
00001000
00000000
,
00010000
00000000
01000000
00000000
,
10000000
00000000
01000000
00000000
,
00010000
00000000
00001000
00000000
,
00000100
00000000
00000001
00000000
,
00000001
00000001
00000000
00000110
,
00001000
00001000
00000000
00011000
,
01000000
01000000
00000000
01100000
,
10000000
10000000
00000000
10010000
,
10000000
10000000
00000000
01100000
,
00010000
00010000
00000000
00011000
,
00000100
00000100
00000000
00000110
,
00001000
00000000
00010000
00000000
,
00010010
00010010
00011000
00011000
,
00010000
00000000
00001000
00000000
,
00010000
00000000
01000000
00000000
,
00010000
00000000
00001000
00000000
,
00101000
00101000
00011000
00011000
,
00001000
00000000
00010000
00000000
,
00001000
00000000
00000100
00000000
,
00000001
00000001
00000010
00001000
,
00000100
00000100
00000000
00000000
;

//---------------dance-double - ----------------
#NOTES:
     dance-double:
     :
     Medium:
     5:
     :
00000000
00000000
00000000
00000000
,
00000000
00000000
00000000
00000000
,
00000000
00000000
00000000
00000000
,
00000000
00000000
00000000
00000000
,
10000000
01000000
00100000
00010000
,
00101000
00011000
00010100
00001100
,
00000010
00000001
00000100
00000000
00001000
00000000
00010000
00000000
,
01000000
10000000
00100000
00000000
01000000
00010000
00100000
00000000
,
11000000
01010000
00100000
00101000
,
00010000
01000000
10000000
00100000
,
00100000
10000000
01000000
00000000
00010000
00000000
00001000
00000000
,
00000100
00000001
00000010
00000000
00000100
00001000
00000010
00000000
,
00000101
00001100
00000010
00010010
,
00001000
00000100
00000001
00000010
,
00000011
00000100
00000010
00001000
,
00010000
01000000
10000000
00100000
,
01000000
00010000
00100000
00000000
01100000
00000000
00010000
00000000
,
00001000
00010000
01000000
10000000
,
01100000
10000000
01000000
00010000
,
00001000
00010100
00001000
00000100
,
00001000
00000100
00000010
00000000
00000001
00000100
00000010
00000000
,
00001001
00000010
00000001
00001001
,
00000101
00000100
00001000
00010000
,
00100000
00010000
00001000
00000000
00000100
00000000
00001000
00000000
,
00010000
01000000
10000000
00100000
,
01010000
10000000
00100000
01010000
,
10000000
10000000
01000000
01000000
,
00010000
00010000
00001000
00000100
,
00000001
00000100
00000010
00000000
00001000
00000000
00000100
00000000
,
00001000
00000100
00000010
00000000
00000100
00000000
00001000
00000000
,
00010100
00000100
00001000
00000010
,
00010010
00000010
00001000
00000100
,
00000010
00000010
00001000
00001000
,
00010000
00010000
00100000
00100000
,
00100000
10000000
01000000
01000000
,
00100000
00100000
00010000
01000000
,
10000000
01000000
00010000
00001000
,
00000100
00000001
00000010
00000010
,
00000100
00001001
00000100
00000001
,
00001000
00000100
00000100
00000000
00000001
00000100
00000100
00000000
,
00001000
00010000
01000000
10000000
,
00100000
00010000
01000000
00000000
11000000
00000000
00010000
00000000
,
01000000
10010000
01000000
10000000
,
00010000
01000000
01000000
00000000
10000000
01000000
01000000
00000000
,
00010000
00001000
00000100
00000001
,
00000010
00000001
00000100
00000100
,
00001000
00001000
00000000
00000000
;

//---------------dance-double - ----------------
#NOTES:
     dance-double:
     :
     Hard:
     6:
     :
00000000
00000000
00000000
00000000
,
00000000
00000000
00000000
00000000
,
00000000
00000000
00000000
00000000
,
00000000
00000000
00000000
00000000
,
00000001
00000001
00000100
00000100
,
00001000
00010000
01000000
00100000
00010000
10000000
01000000
00000000
,
01000000
00100000
00001000
00010000
00000000
01000000
00010000
00000000
,
00010000
01000000
10000000
00000000
10000000
01000000
00010000
00000000
,
00010000
00001000
00001000
00000000
00001000
00000100
00001000
00000000
,
00000101
00001010
00010010
00001010
,
00000100
00000010
00010000
00001000
00000000
00000100
00001000
00000000
,
00001000
00000100
00000001
00000000
00000001
00000100
00001000
00000000
,
00001000
00010000
00010000
00000000
00010000
01000000
00010000
00000000
,
10000000
01000000
01000000
00000000
00010000
01000000
01000000
00000000
,
00100000
00001000
00010000
00000000
01000000
00000000
10000000
00000000
,
01100000
00010000
00001000
00000110
,
00000100
00001000
00010000
00000000
01000000
00010000
00001000
00000000
,
00010000
01100000
10000000
00100000
,
10000000
01000000
10000000
00000000
00010000
01000000
00010000
00000000
,
10000000
00100000
00010000
00001000
,
00000010
00000000
00001000
00000000
00000010
00001000
00010000
00000000
,
00000010
00001000
00010000
00000000
00001000
00000100
00000001
00000000
,
00000010
00000000
00001000
00000000
00000010
00010000
00001000
00000000
,
00000100
00001000
00010000
00000000
00000010
00010000
00001000
00000000
,
00010000
01000000
10000000
01000000
,
00010000
01000000
00100000
00000000
00001000
01000000
00010000
00000000
,
00100000
00001000
00010000
01000000
,
00010000
00001000
00000100
00000010
,
00010000
00000010
00001000
00000000
00000100
00001000
00000100
00000000
,
00010000
00000100
00001000
00000000
00000010
00001000
00000010
00000000
,
00000001
00000101
00001000
00001100
,
00000010
00000000
00010010
00000000
00001000
00000100
00000001
00000000
,
00000110
00000000
00000001
00000000
00000010
00001000
00010000
00000000
,
00100000
00010000
00001000
00000000
00001000
01000000
00010000
00000000
,
00100000
00010000
01000000
00010000
00000000
00001000
00010000
00000000
,
00000010
00001000
00000100
00001000
00000000
00010000
00001000
00000000
,
00001000
00000100
00000001
00000110
,
00000101
00001000
00000001
00001100
,
00000010
00000001
00000100
00000000
00001000
00000000
00010000
00000000
,
00001000
00000100
00001000
00000000
00010000
01000000
00010000
00000000
,
01100000
00000000
10000000
00000000
00010000
01000000
10000000
00000000
,
00100000
00010000
01000000
00001000
00100000
00010000
01000000
00000000
,
00100000
10000000
01000000
00000000
00010000
00000000
00001000
00000000
,
00010000
01000000
00010000
00000000
00001000
00000100
00001000
00000000
,
00000110
00000000
00001010
00000000
00000100
00010000
00001000
00000000
,
00010000
00000000
01100000
00000000
00010000
00001000
00000100
00000000
,
00000101
00000100
00000000
00000000
;
