#TITLE:I WANT YOU TO WANT ME;
#ARTIST:SOLID HARMONIE;
#BANNER:I WANT YOU TO WANT ME.png;
#BACKGROUND:I WANT YOU TO WANT ME-bg.png;
#CDTITLE:./CDTITLES/Dancing Stage EuroMIX2.PNG;
#MUSIC:I WANT YOU TO WANT ME.mp3;
#OFFSET:-0.052;
#SAMPLESTART:57.41;
#SAMPLELENGTH:15;
#BPMS:0=104;

//---------------dance-single - ----------------
#NOTES:
     dance-single:
     :
     Beginner:
     1:
     :
0000
0000
0000
0000
,
0000
0000
0000
0000
,
0000
0000
0000
0000
,
0000
0000
0000
0000
,
0000
0000
0000
0000
,
0010
0000
0000
0000
,
0100
0000
0000
0000
,
0001
0000
0000
0000
,
1000
0000
0000
0000
,
0001
0000
0000
0000
,
1000
0000
0000
0000
,
0010
0000
0000
0000
,
0100
0000
0000
0000
,
0001
0000
0000
0000
,
1000
0000
0000
0000
,
0010
0000
0000
0000
,
0100
0000
0000
0000
,
0010
0000
0000
0000
,
0100
0000
0000
0000
,
0001
0000
0000
0000
,
1000
0000
0000
0000
,
0001
0000
0001
0000
,
1000
0000
1000
0000
,
0001
0000
0001
0000
,
1000
0000
1000
0000
,
0010
0000
0000
0000
,
0100
0000
0000
0000
,
0001
0000
0001
0000
,
1000
0000
1000
0000
,
0001
0000
0000
0000
,
1000
0000
0000
0000
,
0010
0000
0010
0000
,
0100
0000
0100
0000
,
0001
0001
0001
0000
,
1000
1000
1000
0000
,
0010
0010
0010
0000
,
0100
0100
0100
0000
,
0001
0000
0001
0000
,
1000
0000
1000
0000
,
0001
0000
0000
0000
,
1000
0000
0000
0000
,
1001
0000
0000
0000
;

//---------------dance-single - ----------------
#NOTES:
     dance-single:
     :
     Easy:
     2:
     :
0000
0000
0000
0000
,
0000
0000
0000
0000
,
0000
0000
0000
0000
,
0000
0000
0000
0000
,
0000
0000
0000
0000
,
0010
0000
0000
0000
,
0100
0000
0000
0000
,
0001
0000
0000
0000
,
1000
0000
0000
0000
,
0001
0000
1000
0000
,
0010
0000
0100
0000
,
0001
0000
1000
0000
,
0010
0000
0100
0000
,
0001
0001
0001
0000
,
1000
1000
1000
0000
,
0001
0001
0001
0000
,
1000
1000
1000
0000
,
0001
0010
0010
0000
,
1000
0010
0010
0000
,
0001
0100
0100
0000
,
1000
0100
0100
0000
,
0000
0001
0000
1000
,
0000
0001
0000
1000
,
0000
0010
0000
0100
,
1001
0000
0000
0000
,
0010
1000
0001
0100
,
0001
0010
0100
1000
,
0100
0010
1000
0001
,
1000
0100
0010
0001
,
1001
0000
0000
1001
,
0110
0000
0000
0110
,
1001
0000
0000
1001
,
0110
0000
0000
0110
,
1001
0100
0100
0100
,
1001
0010
0010
0010
,
1001
0100
1001
0010
,
1001
0110
1001
0110
,
1001
0000
0000
1001
,
0110
0000
0000
0110
,
1001
0000
0000
0000
,
1001
0000
0110
0000
,
1001
0000
0000
0000
;

//---------------dance-single - ----------------
#NOTES:
     dance-single:
     :
     Medium:
     5:
     :
0000
0000
0000
0000
,
0000
0000
0000
0000
,
0000
0000
0000
0000
,
0000
0000
0000
0000
,
0000
0000
0000
0000
,
0010
0000
0000
0000
,
0100
0000
0000
0000
,
0001
0000
0000
0000
,
1000
0000
0000
0000
,
0001
1000
0001
0000
0000
0000
0100
0010
,
0100
0000
0110
1001
,
1000
0001
1000
0000
0000
0000
0010
0100
,
0010
0000
0110
1001
,
0001
0000
0100
0000
0001
1000
0100
0000
,
1000
0000
0100
0000
1000
0001
0100
0000
,
0010
0000
0100
0000
0010
1000
0100
0000
,
0010
0000
0100
0000
0010
0001
0100
0000
,
0001
0000
1000
0000
0100
1000
0010
0000
,
1000
0000
0001
0000
0100
0001
0010
0000
,
1001
0000
0000
1001
,
0110
0000
1100
0101
,
1001
0000
0100
0000
0001
0100
1000
0000
,
0110
0000
0001
0000
1000
0100
0001
0000
,
1010
0000
0100
0000
0001
1000
0100
0000
,
0011
0000
0100
0000
1000
0001
0100
0000
,
1001
0100
0001
1000
,
0110
1000
0100
0001
,
1010
0100
0010
1000
,
0101
0010
1000
0100
,
1001
0000
1000
1000
,
0110
0000
0010
0010
,
1100
0000
0100
0100
,
0011
0000
0001
0001
,
1001
0100
0010
0100
,
1001
0010
0100
0010
,
0101
0010
1100
0010
,
1100
0011
1010
0101
,
1001
0000
0100
0000
1000
0100
0001
0000
,
1001
0000
0100
0000
0001
0100
1000
0000
,
1001
0000
0000
0000
,
0011
0000
1010
0000
,
1001
0000
0000
0000
;

//---------------dance-single - ----------------
#NOTES:
     dance-single:
     :
     Hard:
     6:
     :
0000
0000
0000
0000
,
0000
0000
0000
0000
,
0000
0000
0000
0000
,
0000
0000
0000
0000
,
0000
0000
0000
0000
,
2002
0000
0000
3003
,
0200
0000
0000
0300
,
2002
0000
0000
3003
,
0020
0000
0000
0030
,
0001
1000
0001
0000
1001
0000
0010
0100
,
0010
0000
0110
0000
1000
0001
0100
0010
,
1000
0100
1000
0000
1001
0000
0010
0001
,
0010
0000
0110
0000
1000
0001
0100
0010
,
1000
1000
0001
0001
0000
0110
0000
0110
,
0010
0010
0100
0100
0000
1001
0000
1001
,
1000
1000
0001
0001
0000
0110
0000
0110
,
0100
0100
0010
0010
0001
1000
0010
0100
,
0001
1000
0100
0001
0000
0100
0000
1001
,
1000
0001
0100
1000
0000
0100
0000
1001
,
1000
0100
0001
0100
1000
0001
0100
1000
,
0100
0100
0100
0100
,
1001
0000
0100
0000
1000
0010
1000
0000
,
1000
0100
1000
0000
0001
0100
0001
0000
,
1001
0000
0100
0000
0001
0010
0001
0000
,
0001
0100
0001
0100
0000
1001
0000
0110
,
1000
0001
1100
0101
,
0001
1000
0011
1010
,
1001
0000
1000
0001
0010
0100
1000
0000
,
1001
1010
0101
0110
,
1001
0000
0000
0000
0100
0000
0000
0000
0001
0000
0000
0001
0000
0000
0001
0000
,
0100
0010
1000
0001
,
1001
0000
0000
0000
0100
0000
0000
0000
1000
0000
0000
1000
0000
0000
1000
0000
,
0020
0000
0000
0130
,
1000
0001
0100
0010
0100
0001
1000
0000
,
0001
0100
0010
1000
0010
0100
0001
0000
,
1000
0010
1000
0000
0001
0100
0001
0000
,
1010
0101
0011
1100
,
1001
0000
0000
0000
0100
0000
0000
0000
0010
0000
0000
0010
0000
0000
0010
0000
,
0001
1100
0001
1100
,
2002
0000
0000
3003
,
2200
3300
0202
0303
,
2002
0000
0000
0000
,
3003
0000
0000
0000
;

//---------------dance-double - ----------------
#NOTES:
     dance-double:
     :
     Easy:
     2:
     :
00000000
00000000
00000000
00000000
,
00000000
00000000
00000000
00000000
,
00000000
00000000
00000000
00000000
,
00000000
00000000
00000000
00000000
,
00000000
00000000
00000000
00000000
,
00000001
00000000
00000000
00000000
,
00001000
00000000
00000000
00000000
,
00010000
00000000
00000000
00000000
,
10000000
00000000
00000000
00000000
,
00100000
00000000
10000000
00000000
,
01000000
00000000
00010000
00000000
,
00001000
00000000
00000100
00000000
,
00000001
00000000
00000010
00000000
,
00000001
00000000
00000100
00000100
,
00001000
00000000
01000000
01000000
,
00010000
00000000
00100000
00100000
,
10000000
00000000
00000000
10010000
,
10000000
00000000
01000000
01000000
,
00010000
00000000
00000100
00000100
,
00001000
00000000
00000010
00000010
,
00000001
00000000
00000000
00001001
,
00011000
00000000
00000010
00000010
,
00010000
00001000
00010000
00001000
,
00011000
00000000
00100000
00100000
,
00001000
00010000
00011000
00000000
,
00011000
00000010
00001000
00000100
,
00001001
00000010
00000001
00000100
,
00001000
00010000
00001000
00000100
,
00001000
00010000
00100000
01000000
,
10010000
00000000
00000000
10010000
,
00101000
00000000
00000000
00101000
,
00010010
00000000
00000000
00010010
,
00101000
00000000
00000000
00101000
,
00011000
00100000
00010000
01000000
,
10010000
00100000
10000000
01000000
,
00010000
00001000
00010000
00100000
,
00010000
00001000
00000100
00000010
,
00001001
00000000
00000000
00001001
,
00010010
00000000
00000000
00010010
,
00101000
00000000
00000000
00000000
,
00010100
00000000
01001000
00000000
,
00011000
00000000
00000000
00000000
;

//---------------dance-double - ----------------
#NOTES:
     dance-double:
     :
     Medium:
     4:
     :
00000000
00000000
00000000
00000000
,
00000000
00000000
00000000
00000000
,
00000000
00000000
00000000
00000000
,
00000000
00000000
00000000
00000000
,
00000000
00000000
00000000
00000000
,
00000010
00000000
00000001
00000000
,
00000100
00000000
00001000
00000000
,
00010000
00000000
01000000
00000000
,
10000000
00000000
00100000
00000000
,
10000000
00010000
10000000
00000000
00000000
00000000
00010000
10000000
,
00010000
00000000
00101000
00010010
,
00001000
00000001
00001000
00000000
00000000
00000000
00000001
00001000
,
00000001
00000000
00010100
01001000
,
00100000
00010000
00001000
00000010
,
00000001
00001000
00000100
00001001
,
00000010
00001000
00010000
00100000
,
10000000
00010000
01000000
10010000
,
01000000
00010000
00001000
00000100
,
00000001
00001000
00000100
00000011
,
00000100
00001000
00010000
01000000
,
10000000
01000000
00010000
00000000
00001000
00000000
00100000
00000000
,
00011000
00000010
00001000
00000100
,
00000101
00000010
00000100
00001000
,
00011000
00100000
00010000
01000000
,
11000000
00100000
01000000
00010000
,
00100000
10000000
01000000
00000000
00010000
00000000
00001000
00000000
,
00000010
00000001
00000100
00000000
00001000
00000000
00010000
00000000
,
00000010
00001000
00100000
00010000
,
00010100
00011000
01001000
00011000
,
00000010
00001000
00000001
00000100
,
00001000
00010000
00100000
10010000
,
00100000
00010000
10000000
01000000
,
00010000
00001000
00000010
00001001
,
00000010
00000001
00000100
00000000
00001000
00000000
00011000
00000000
,
00100000
10000000
01000000
00000000
00010000
00000000
00011000
00000000
,
00100000
00010000
00000010
00001000
,
01001000
00011000
00010100
00011000
,
00000010
00000000
00001000
00000000
00000001
00000100
00001000
00000000
,
00010000
00000000
01000000
00000000
10000000
00010000
00100000
00000000
,
00011000
00000000
00000000
00000000
,
00010100
00000000
01001000
00000000
,
00011000
00000000
00000000
00000000
;

//---------------dance-double - ----------------
#NOTES:
     dance-double:
     :
     Hard:
     6:
     :
00000000
00000000
00000000
00000000
,
00000000
00000000
00000000
00000000
,
00000000
00000000
00000000
00000000
,
00000000
00000000
00000000
00000000
,
00000000
00000000
00000000
00000000
,
00000200
00000000
00000000
00000300
,
00002000
00000000
00000000
00003000
,
00020000
00000000
00000000
00030000
,
02000000
00000000
00000000
03000000
,
00100000
00010000
10000000
00000000
00011000
00000000
00000010
00001000
,
00000001
00000000
00000101
00000000
00000010
00000001
00000100
00001000
,
00010000
01000000
10000000
00000000
00110000
00000000
01000000
00100000
,
00010000
00000000
00011000
00000000
00000100
00001000
00000001
00000100
,
00000001
00000100
00001000
00010000
00000000
00100000
00000000
00100000
,
10000000
01000000
00010000
00001000
00000000
00000010
00000000
00000010
,
00000001
00001000
00000010
00000100
00001000
00010000
01000000
10000000
,
00100000
01000000
00100000
10000000
01000000
00010000
00001000
00010000
,
00000010
00001000
00000001
00000100
00000000
00001000
00010000
00001000
,
00100000
00010000
10000000
01000000
00000000
00010000
00001000
00010000
,
00000010
00000000
00001000
00000000
00000001
00000000
00000100
00001000
,
00010000
01000000
10000000
00010000
00000000
01001000
00000000
00011000
,
00000000
00000101
00001010
00010100
,
00001000
00100000
01000000
10010000
,
00000000
10100000
01010000
00101000
,
00010000
00000100
00000010
00001001
,
00000010
00000001
00000100
00001000
00000000
00010000
00000000
10010000
,
00100000
10000000
01000000
00010000
00001000
00000000
00001001
00000000
,
00000000
00000000
00000010
00001000
00000100
00010000
00001000
01000000
,
00010000
00100000
01000000
10000000
,
10010000
00000000
00000000
00000000
01000000
00000000
00000000
00000000
00010000
00000000
00000000
00001000
00000000
00000000
00000100
00000000
,
00000010
00000100
00000010
00000100
,
00001001
00000000
00000000
00000000
00000100
00000000
00000000
00000000
00001000
00000000
00000000
00010000
00000000
00000000
01000000
00000000
,
00100000
01000000
00100000
10010000
,
00100000
10000000
01000000
00010000
00000000
00001000
00000000
00000101
,
00000010
00000001
00000100
00001000
00010000
00000000
11000000
00000000
,
00000000
00000000
00100000
00010000
01000000
00001000
00010000
00000010
,
00001000
00000100
00000010
00000001
,
00001001
00000000
00000000
00000000
00000010
00000000
00000000
00000000
00001000
00000000
00000000
00010000
00000000
00000000
00100000
00000000
,
01000000
00100000
01000000
00100000
,
22000000
00000000
00000000
33000000
,
00202000
00303000
00020020
00030030
,
00000202
00000000
00000000
00000000
,
00000303
00000000
00000000
00000000
;
