#TITLE:CARIBBEAN QUEEN;
#ARTIST:BILLY OCEAN;
#BANNER:CARIBBEAN QUEEN.png;
#BACKGROUND:CARIBBEAN QUEEN-bg.png;
#CDTITLE:./CDTITLES/Dancing Stage EuroMIX2.PNG;
#MUSIC:CARIBBEAN QUEEN.mp3;
#OFFSET:-0.068;
#SAMPLESTART:76.46;
#SAMPLELENGTH:15;
#DISPLAYBPM:115;
#BPMS:0=114.57;

//---------------dance-single - ----------------
#NOTES:
     dance-single:
     :
     Beginner:
     2:
     :
0000
0000
0000
0000
,
0000
0000
0000
0000
,
0000
0000
0000
0000
,
0000
0000
0000
0000
,
0000
0000
0000
0000
,
0001
0000
0001
0000
,
1000
0000
1000
0000
,
0001
0000
0001
0000
,
0001
0000
0001
0000
,
0001
0000
0100
0000
,
1000
0000
0100
0000
,
0001
0000
1000
0000
,
0010
0000
0100
0000
,
0010
0000
0010
0000
,
0100
0000
0100
0000
,
0001
0000
0001
0000
,
1000
0000
1000
0000
,
0100
0000
1000
0000
,
0001
0000
0100
0000
,
0100
0000
0000
0100
,
0100
0000
0000
0100
,
0100
0000
1000
0000
,
1000
0000
1000
0000
,
0100
0000
0010
0000
,
0001
0000
0100
0000
,
0001
0000
0001
0000
,
1000
0000
1000
0000
,
0001
0000
1000
0000
,
0010
0000
0001
0000
,
0100
0000
0001
0000
,
0100
0000
0000
1000
,
1000
0000
0000
0000
,
0001
0000
0000
1000
,
1000
0000
0000
0001
,
0000
0000
0000
0100
,
0100
0000
0000
0001
,
0001
0000
0000
1000
,
1000
0000
0000
1000
,
0000
0010
0000
0001
,
0000
0100
0000
1000
,
0000
0100
0000
0001
,
0000
0010
0000
1000
,
0000
0001
0000
0100
,
0100
0000
0000
1000
,
1000
0000
0000
0010
,
0010
0000
0000
0000
;

//---------------dance-single - ----------------
#NOTES:
     dance-single:
     :
     Easy:
     3:
     :
0000
0000
0000
0000
,
0000
0000
0000
0000
,
0000
0000
0000
0000
,
0000
0000
0000
0000
,
0000
0000
0000
0000
,
0001
0000
0001
0000
,
1000
0000
1000
0000
,
0001
1000
0001
1000
,
0001
1000
0001
1000
,
0000
0001
0000
0100
,
0000
1000
0000
0100
,
0000
0001
0000
1000
,
0000
0010
0000
0100
,
0000
0010
0000
0010
,
0000
0100
0000
0100
,
0000
0001
0000
0001
,
0000
1000
0000
1000
,
0000
0100
0000
1000
,
0000
0001
0000
0100
,
0000
1000
0000
0100
,
1000
0010
0100
0000
,
0001
0000
0001
0000
,
1000
0000
1000
0000
,
0100
1000
0010
0000
,
0001
1000
0100
0000
,
0001
0000
0001
0000
,
1000
0000
1000
0000
,
0001
0100
1000
0000
,
0010
1000
0001
0000
,
0100
0000
0000
0001
,
0100
0000
0000
1000
,
0100
0000
0000
0100
,
0001
0000
1000
0001
,
1000
0000
0000
0001
,
0010
0000
0000
0100
,
0001
0000
0000
0010
,
0001
0000
1000
0010
,
1001
0100
0000
1000
,
0000
0010
0000
0001
,
0000
0100
0000
1000
,
0000
0100
0000
0001
,
0000
0010
0000
1000
,
0010
0010
0001
0000
,
0001
0000
0000
0010
,
1000
0000
0000
0100
,
0010
0000
0000
0000
;

//---------------dance-single - ----------------
#NOTES:
     dance-single:
     :
     Medium:
     5:
     :
0000
0000
0000
0000
,
0000
0000
0000
0000
,
0000
0000
0000
0000
,
0000
0000
0000
0000
,
0000
0000
0000
0000
,
0001
0000
0000
0100
0000
0000
0001
0000
,
1000
1000
0000
0001
0001
0000
0100
0000
,
1000
1000
1000
1000
,
1000
1000
1000
1000
,
1000
0000
0000
0001
0000
0000
0100
0000
,
0100
0000
0000
0001
0000
0000
0010
0000
,
0010
0000
0000
0100
0000
0000
1000
0000
,
1000
0000
0000
0001
0000
0000
0010
0000
,
0010
0000
0000
0100
0000
1000
1000
0000
,
1000
0000
0000
0001
0000
0100
0100
0000
,
1000
1000
0000
0001
0000
0000
0000
0000
,
1000
1000
0000
0010
0000
0100
0100
0000
,
0100
0000
0000
0001
0000
0000
1000
0000
,
1000
0000
0000
0100
0000
0000
0010
0000
,
0001
0001
0000
0100
0000
0000
0000
0000
,
1000
1000
0000
0010
0000
0001
0001
0000
,
1000
0000
0000
1000
0000
1000
1000
0000
,
0001
0000
0000
0001
0000
0001
0001
0000
,
0100
0100
0000
1000
0000
0000
0000
0000
,
0010
0010
0000
0001
0000
0100
0100
0000
,
0001
0000
0000
1000
0000
0000
0100
0000
,
1000
0000
0000
0001
0000
0000
0100
0000
,
0001
0001
0000
1000
0000
0000
0000
0000
,
0010
0010
0000
0100
0000
0000
1000
0001
,
0100
0000
0000
0010
0000
1000
0001
0000
,
0100
0000
0100
1000
0001
0010
0100
0001
,
0000
0010
0000
0100
,
0001
0000
0000
0010
1000
0100
0001
0100
,
1000
0000
0000
0010
0000
0000
1000
0000
,
0100
0000
0000
0001
0000
0000
0010
0000
,
1000
0001
0000
0100
0000
0001
0100
0000
,
1000
0100
0000
0010
0001
1000
0100
0000
,
1001
0000
0010
0100
0000
0000
0001
1000
,
0000
0000
0100
0000
0000
0000
1000
0001
,
0000
0000
0010
0000
0000
0000
0001
0100
,
0000
0000
0010
0000
0000
0000
1000
0010
,
0000
0100
0000
0001
,
0100
0100
1000
0100
,
1000
0001
0000
0010
0000
1000
0100
0000
,
0001
0100
0000
1000
0000
0000
0010
0001
,
0100
0000
0000
0000
;

//---------------dance-single - ----------------
#NOTES:
     dance-single:
     :
     Hard:
     7:
     :
0000
0000
0000
0000
,
0000
0000
0000
0000
,
0000
0000
0000
0000
,
0000
0000
0000
0000
,
0000
0000
0000
0000
,
0010
1000
0100
0000
0001
0000
0100
0000
,
1000
0000
0100
0000
0010
0001
0100
0000
,
0001
1000
0100
0000
1000
1000
1000
0000
,
0010
0000
0001
0000
1000
0000
0000
0000
0001
0000
0000
1000
0100
0000
0000
0000
,
1000
0001
0100
0000
0100
0100
0100
0000
,
0001
0000
0010
0000
0100
1000
0001
0000
,
0010
0000
0100
0000
0001
0001
0001
0000
,
1000
0000
0000
0000
1000
0000
0000
0000
1000
0000
0010
0100
0010
0000
0000
0000
,
0001
0000
1000
0000
0010
0100
0001
0000
,
1000
0000
0100
0000
0010
0001
1000
0100
,
1000
0000
1000
0000
0010
0100
0001
0000
,
1000
0000
0001
0000
1000
0010
0100
1000
,
0001
0000
0010
0000
1000
1000
0100
0000
,
0010
0000
0001
0000
1000
0010
0100
1000
,
0100
0000
0001
0000
0100
0100
0100
0000
,
0010
0000
0000
0000
0100
0000
0000
0000
0001
0000
1000
0001
1000
0000
0000
0000
,
0100
0000
0010
0000
0001
1000
0100
0000
,
0001
0000
0000
0000
0100
0000
0000
0000
1000
0000
0100
0000
0010
0100
0010
0000
,
0001
0000
0100
0000
1000
1000
1000
0000
,
0010
0000
0001
0000
0001
0100
0010
0100
,
1000
0000
1000
0000
0010
0001
1000
0000
,
1000
0000
0001
0000
0100
1000
0100
0010
,
0001
0000
1000
0000
0001
1000
0001
0000
,
0010
0000
0000
0000
0100
0000
0000
0000
0001
0000
1000
0100
1000
0000
0001
0000
,
0010
0100
1000
0000
0010
0100
1000
0000
,
0001
0000
0010
0000
1000
1000
1000
0000
,
0001
0100
0001
0000
0010
1000
0100
0000
,
1000
0000
0100
0000
0010
0001
1000
0100
,
0010
1000
0001
0000
0010
0100
1000
0000
,
0001
0000
0010
0000
0100
0001
0010
0000
,
0100
1000
0010
0000
0100
0100
0100
0000
,
0001
0000
0100
0000
1000
1000
0100
0000
,
0010
0000
0000
1000
0100
0000
1000
0000
0010
0000
0100
0000
0001
0000
0000
0000
,
1000
0000
0000
0001
0100
0000
0010
0000
1000
0000
0100
0000
0010
0000
1000
0000
,
0001
0000
0000
0010
0100
0000
1000
0000
0010
0000
0100
0000
0001
0000
0000
0000
,
0010
0000
0000
0100
1000
0000
0001
0000
1000
0000
0100
0000
0000
0000
0010
0000
,
0001
0100
1000
0000
0001
0010
0001
0000
,
0000
0010
0100
1000
0000
0010
1000
0100
,
0001
0000
0000
1000
0010
0000
0000
0000
0001
0000
0010
0000
0100
0000
0000
0000
,
1000
0000
0001
0000
0100
0000
1000
0000
0010
0000
1000
0100
1000
0000
0000
0000
,
0001
0000
0000
0000
;

//---------------dance-double - ----------------
#NOTES:
     dance-double:
     :
     Easy:
     2:
     :
00000000
00000000
00000000
00000000
,
00000000
00000000
00000000
00000000
,
00000000
00000000
00000000
00000000
,
00000000
00000000
00000000
00000000
,
00000000
00000000
00000000
00000000
,
00010000
00000000
00001000
00000000
,
01000000
00000000
00010000
00000000
,
00100000
00001000
00010000
00001000
,
00000100
00000001
00000010
00000010
,
00000000
00000001
00000000
00000100
,
00000000
00001000
00000000
00010000
,
00000000
00010000
00000000
01000000
,
00000000
01000000
00000000
10000000
,
00100000
00010000
00001000
00010000
,
00000000
00000100
00000000
00001000
,
00000000
00000010
00000100
00000001
,
00000000
00000001
00000100
00001000
,
00000000
00010000
00000000
01000000
,
00000000
00010000
00000000
00001000
,
00000000
00001000
00000100
00000001
,
00000000
00001000
00010000
01000000
,
00010000
00000000
00001000
00000000
,
00000100
00000000
00000010
00000000
,
00010000
00000000
01000000
00000000
,
00001000
00010000
00000010
00000000
,
00000100
00000000
00000100
00000000
,
00001000
00000000
00010000
00000000
,
00001000
00010000
01000000
10000000
,
10000000
01000000
00010000
00001000
,
00010000
00000000
00000000
00000000
,
00000001
00000000
00000000
00000000
,
00001000
00000000
00000000
00000000
,
10000000
00000000
00000000
00000000
,
01000000
00000000
00010000
00000000
,
00001000
00000000
00000100
00000000
,
00010000
00001000
00000100
00000001
,
00000001
00000100
00001000
00010000
,
00010000
00000000
00001000
00000000
,
00100000
00000000
01000000
00000000
,
00010000
00000000
00001000
00000000
,
00000100
00000000
00000001
00000000
,
00000010
00000000
00001000
00000000
,
00100000
00001000
00010000
00000000
,
00001000
00000000
00000000
00010000
,
00001000
00000000
00000000
00000010
,
00000100
00000000
00000000
00000000
;

//---------------dance-double - ----------------
#NOTES:
     dance-double:
     :
     Medium:
     4:
     :
00000000
00000000
00000000
00000000
,
00000000
00000000
00000000
00000000
,
00000000
00000000
00000000
00000000
,
00000000
00000000
00000000
00000000
,
00000000
00000000
00000000
00000000
,
00011000
00000000
00000000
00000100
00000000
00000000
00000000
00000000
,
00000001
00000000
00000100
00000000
00000000
00000100
00001000
00000000
,
00001000
00010000
00100000
10000000
,
01000000
00010000
00001000
00000100
,
00000001
00000000
00000000
00000100
00000000
00000000
00000000
00000000
,
00001000
00010000
01000000
01000000
,
10000000
00000000
00000000
01000000
00000000
00000000
00000000
00000000
,
00010000
00001000
00000100
00000001
,
00000100
00000001
00000010
00001000
,
00010000
00100000
10000000
01000000
,
10000000
01000000
00010000
01000000
,
10000000
00000000
01000000
00000000
00010000
00001000
00000100
00000000
,
00001000
00010000
01000000
10000000
,
00100000
00010000
00001000
00000100
,
00000001
00000100
00001000
00000100
,
00010000
00000000
00001000
00000000
00001000
00010000
01000000
00000000
,
10000000
00000000
00000000
00100000
00000000
00000000
00010000
00000000
,
00001000
00000000
00000000
00000010
00000000
00000000
00000001
00000000
,
00000001
00000010
00000100
00000000
00010000
00000000
00001000
00000000
,
00001000
00100000
00010000
00000000
00001000
00000000
00010000
00000000
,
00001000
00000010
00000001
00000100
,
00001000
00010000
01000000
10000000
,
10000000
00100000
00010000
00000000
00010000
00000000
01000000
00000000
,
00010000
00001000
00010000
00000000
00000010
00000000
00000100
00000000
,
00000001
00000000
00000000
00000100
00000000
00000000
00000000
00000000
,
00001000
00000000
00000000
01000000
00000000
00000000
00000000
00000000
,
00010000
10000000
01000000
00010000
,
00010000
00001000
00000100
00000010
,
00001000
00000010
00000001
00000100
,
00001000
00010000
00100000
01000000
,
00100000
00100000
00010000
00000000
00001000
00000000
00000100
00000000
,
00000010
00000010
00001000
00000000
00010000
00000000
01000000
00000000
,
10010000
00000000
00010000
01000000
00000000
00000000
00001000
00010000
,
00000000
00000000
00000010
00000100
00000000
00000000
00000001
00000001
,
00000000
00000000
00000010
00001000
00000000
00000000
00010000
00001000
,
00000000
00000000
00100000
01000000
00000000
00000000
10000000
00100000
,
00000000
00000000
00001000
00010000
00000000
00000000
00000100
00001000
,
00000001
00000100
00001000
00010000
,
01000000
01000000
00010000
00001000
,
00010000
00000000
00000010
00000000
00000100
00000000
00001000
00010000
,
00001000
00000000
00000000
00000000
;

//---------------dance-double - ----------------
#NOTES:
     dance-double:
     :
     Hard:
     6:
     :
00000000
00000000
00000000
00000000
,
00000000
00000000
00000000
00000000
,
00000000
00000000
00000000
00000000
,
00000000
00000000
00000000
00000000
,
00000000
00000000
00000000
00000000
,
00001000
00010000
00001000
00000000
00100000
00000000
01000000
00000000
,
10000000
00000000
01000000
00000000
00100000
00010000
01000000
00000000
,
00001000
00010000
00000100
00000000
00000010
00000001
00000100
00000000
,
00000010
00010000
00001000
00000000
00100000
00000000
01000000
00000000
,
10000000
00100000
01000000
00000000
00001000
00010000
01000000
00000000
,
00010000
00000000
00010000
00000000
00001000
00000100
00000010
00000000
,
00000001
00000000
00000001
00000000
00000010
00000100
00001000
00000000
,
00010000
00000000
00001000
00000000
00100000
01000000
10000000
00000000
,
00100000
00000000
00001000
00000000
00010000
00001000
00010000
00000000
,
00000100
00000000
00000010
00000000
00000001
00000100
00000010
00000000
,
00001000
00000000
00001000
00000000
00000100
00010000
00001000
00000000
,
01000000
00000000
01000000
00000000
10000000
01000000
00100000
00000000
,
00001000
00000000
00010000
00000000
00000010
00001000
00000100
00000000
,
00000001
00000000
00000100
00000000
00000010
00001000
00000001
00000000
,
00000100
00000000
00000100
00000000
00001000
00010000
01000000
00000000
,
10000000
00000000
10000000
00000000
01000000
00100000
00001000
00000000
,
00000010
00000000
00000100
00000000
00001000
00010000
00001000
00000000
,
01000000
00000000
00100000
00000000
10000000
01000000
00010000
00000000
,
00001000
00000000
00001000
00000000
00000100
00000010
00001000
00000000
,
00010000
00000000
00010000
00000000
00001000
00010000
00100000
00000000
,
10000000
00000000
01000000
00000000
00001000
00100000
00010000
00000000
,
00010000
00000000
00001000
00000000
00000010
00001000
00000001
00000000
,
00000100
00000000
00000100
00000000
00001000
00100000
01000000
00000000
,
00010000
00000000
00010000
00000000
00001000
00010000
00000100
00000000
,
00000010
00000001
00000100
00000000
00001000
00010000
00000100
00000000
,
00001000
00000000
00001000
00000000
00001000
00010000
01000000
00000000
,
10000000
00100000
01000000
00000000
00001000
00100000
00010000
00000000
,
00001000
00000000
00001000
00000000
00000100
00000010
00000001
00000000
,
00000001
00000010
00000100
00000000
00000100
00010000
00001000
00000000
,
00001000
00000000
00001000
00000000
00010000
00100000
01000000
00000000
,
10000000
00100000
00010000
00000000
01000000
00001000
00010000
00000000
,
00010000
00000000
00010000
00000000
00000010
00001000
00000100
00000000
,
00000001
00000000
00000010
00000100
00000000
00010000
00001000
00000000
,
00100000
00000000
01000000
10000000
00000000
00100000
01000000
00000000
,
00010000
00000000
00001000
00010000
00000000
00000100
00000010
00000000
,
00001000
00000000
00010000
00001000
00000100
00000010
00000000
00000010
,
00010000
00001000
00010000
00000000
01000000
00100000
00010000
00000000
,
00000000
10000000
00100000
01000000
00000000
00010000
00100000
01000000
,
00010000
00000000
00001000
00001000
00000000
00000100
00000010
00001000
,
00000100
00000000
00010000
00010000
00000000
00001000
00010000
01000000
,
10000000
00000000
00000000
00000000
;
