
//----- song ID: byeb -----//
#TITLE:BYE BYE BYE;
#ARTIST:★NSYNC;
#BANNER:BYE BYE BYE.png;
#BACKGROUND:BYE BYE BYE-bg.png;
#CDTITLE:cdtitle.png;
#MUSIC:BYE BYE BYE.ogg;
#SAMPLESTART:58.063;
#SAMPLELENGTH:15;
#DISPLAYBPM:86;
#BPMS:0=86.285;

//---------------dance-single - ----------------
#NOTES:
     dance-single:
     :
     Beginner:
     2:
     :
0000
0000
0000
0000
,
0000
0000
0000
0000
,
0000
0000
0000
0000
,
0000
0000
0000
0000
,
1000
1000
1000
1000
,
0000
0001
0001
0001
,
0001
0000
0010
0010
,
0010
0010
0000
0100
,
0100
0100
0100
0000
,
0110
0110
0110
0110
,
0000
1001
1001
1001
,
1001
0000
1000
0000
,
1000
0000
1000
0000
,
1000
0000
0001
0000
,
0001
0000
0001
0000
,
0001
0000
0010
0000
,
0010
0000
0010
0000
,
0010
0000
0100
0000
,
0100
0000
0100
0000
,
0100
0000
0110
0000
,
0110
0000
0110
0000
,
0110
0000
1001
0000
,
1001
0000
1001
0000
,
1001
0000
0000
0000
,
0000
0000
0000
0010
,
0010
0010
0000
1000
,
1000
1000
0000
0001
,
0001
0001
0000
0100
,
0100
0100
0000
1001
,
0000
1001
0000
1001
,
0000
0110
0000
0110
,
0000
0110
0000
0000
,
1001
0000
0110
0110
,
0110
0000
0000
0000
;

//---------------dance-single - ----------------
#NOTES:
     dance-single:
     :
     Easy:
     2:
     :
0000
0000
0000
0000
,
0000
0000
0000
0000
,
0000
0000
0000
0000
,
0000
0000
0000
0000
,
1001
0000
0000
0001
,
0100
0100
0000
0000
,
0001
0001
0000
0000
,
1000
1000
0000
0000
,
0010
0010
0000
1000
,
1001
0000
0001
0100
,
0001
1000
0010
1000
,
0001
0000
0001
0000
,
0010
0100
0010
1000
,
0001
0000
1000
0100
,
1000
0010
0100
0001
,
1000
0000
1000
0000
,
0010
0010
1000
0001
,
0100
0000
0100
0000
,
0001
0000
1000
1001
,
0100
0000
0100
0000
,
0010
0000
0010
0110
,
1001
0000
0000
0100
,
1001
0000
0000
0100
,
0001
0100
0001
0000
,
1000
0000
1000
1001
,
0110
0000
0100
0100
,
0001
0000
1000
1000
,
0010
1000
0001
0100
,
0010
0000
0010
1001
,
1001
0100
0001
0001
,
1000
1000
0010
0100
,
0001
0000
0001
0000
,
0100
0000
0100
0010
,
1001
0000
0000
0000
;

//---------------dance-single - ----------------
#NOTES:
     dance-single:
     :
     Medium:
     4:
     :
0000
0000
0000
0000
,
0000
0000
0000
0000
,
0000
0000
0000
0000
,
0000
0000
0000
0000
,
1001
0000
0000
0000
0000
0000
0100
0010
,
1000
0000
0001
0001
,
1000
0010
0100
0000
0001
0000
0001
0000
,
0010
0001
1000
0000
0100
0000
0100
0000
,
1000
0001
1000
0010
0100
0000
1001
0000
,
1001
0000
0000
0000
0000
0000
1000
1000
,
0010
0000
0100
0000
0000
0000
0001
0001
,
1000
0000
0100
0000
1000
0000
0010
0100
,
0010
1000
0001
0100
,
0010
0000
1000
0000
0010
0100
0001
0100
,
0010
0000
1000
0000
0001
0100
0010
0100
,
0001
1000
0100
0010
,
0001
0000
1000
0000
0010
0100
0010
1000
,
0001
0002
0003
1000
,
1000
2000
3000
0010
,
0100
0000
0010
0100
0010
0000
1000
0000
,
0001
0000
0001
0100
0001
0000
1000
0010
,
0100
0010
1000
0000
1000
0000
1000
0000
,
0001
0000
0010
0100
1000
0000
0001
0000
,
0100
0100
0001
0000
1000
0010
1000
0010
,
0100
0100
0001
0000
1000
1000
0010
0100
,
0002
0000
0000
0003
,
0200
0000
0000
0300
,
0001
0000
1000
0001
0100
0000
0010
0000
,
1000
0000
1001
0000
0010
0000
0110
0100
,
0001
0010
0001
0000
1000
0010
1000
0000
,
0001
0100
0010
1000
0001
0000
1000
0000
,
0001
0001
0100
0000
0010
1000
0010
1000
,
0100
0100
1000
0000
0001
0001
0100
0010
,
1000
0000
0000
0000
;

//---------------dance-single - ----------------
#NOTES:
     dance-single:
     :
     Hard:
     6:
     :
0000
0000
0000
0000
,
0000
0000
0000
0000
,
0000
0000
0000
0000
,
0000
0000
0000
0000
,
2000
0000
0000
0000
3001
0001
0010
0001
,
0100
0001
2000
0000
0000
0000
3000
0000
,
0010
0100
0002
0000
0000
0000
1003
0001
,
0100
0010
0200
0000
0000
0000
0300
0000
,
0001
0000
0010
0000
0000
0001
0000
0000
0001
0000
0000
0000
1001
0000
0000
0000
,
0100
0000
0010
0000
1000
0000
0010
0000
0100
0000
0000
0001
0100
0000
0001
0000
,
0001
0000
1000
0000
0010
0010
0100
0010
,
1000
1000
0001
0000
0100
0100
0010
1000
,
0001
0100
0010
0100
0001
0100
0010
0100
,
0001
0000
1000
0000
0010
0000
1000
0000
0001
0000
0000
0010
0001
0000
0010
0000
,
0001
0000
0100
0000
0010
0010
1000
0010
,
0100
0100
0001
0000
1000
1000
0010
0100
,
0001
1000
0010
1000
0001
1000
0010
1000
,
1000
0010
0100
0000
1000
0010
0100
0010
,
1000
0000
1000
0000
0001
0000
0000
1000
0010
0000
0100
0000
0001
0000
1000
0000
,
0010
0100
0010
1000
1000
0001
0001
0100
,
0001
1000
0001
0000
1000
0001
1000
0001
,
0100
0110
0101
0001
1000
1000
1000
0000
,
0010
1010
0110
0100
0001
0001
0001
0000
,
1000
0010
0100
0000
1000
0010
0100
0010
,
1000
1000
1000
0000
0001
0001
0001
0001
,
0100
0110
0101
0001
1000
0100
1000
0000
,
0010
1010
0110
0100
0001
1000
0001
0000
,
0200
0010
0301
0000
0020
1000
0130
0010
,
0100
0110
0110
0000
1001
1001
1001
1001
,
1001
1000
0001
0100
0010
0100
0001
0000
,
1000
0010
0100
0001
1000
0100
1000
0000
,
0001
0101
0110
0000
0010
1001
0101
0001
,
1000
0010
0100
0000
1000
0010
0100
0001
,
1000
0000
0000
0000
;

//---------------dance-double - ----------------
#NOTES:
     dance-double:
     :
     Easy:
     1:
     :
00000000
00000000
00000000
00000000
,
00000000
00000000
00000000
00000000
,
00000000
00000000
00000000
00000000
,
00000000
00000000
00000000
00000000
,
00001000
00000000
00000000
00000000
,
01000000
00000000
00000000
00000000
,
00010000
00000000
00000000
00000000
,
10000000
00000000
00000000
00000000
,
01000000
00000000
00000000
01000000
,
00001000
00000000
00000000
00000000
,
00000010
00000000
00000000
00000000
,
00000001
00000000
00000000
00000000
,
00001000
00000000
00000010
00000000
,
00010000
00000000
00000000
00000000
,
00100000
00000000
00000000
00000000
,
10000000
00000000
00000000
00000000
,
01000000
00000000
00100000
00000000
,
00001000
00000000
00000000
00000000
,
00000001
00000000
00000000
00000000
,
00010000
00000000
00000000
00000000
,
10000000
00000000
00000000
01000000
,
00001000
00000000
00000000
00000000
,
00000001
00000000
00000000
00000000
,
00000100
00000000
00000010
00000000
,
00010000
00000000
01000000
00000000
,
10000000
00000000
00100000
00000000
,
01000000
00000000
00010000
00000000
,
00100000
00000000
00100000
00000000
,
00001000
00000000
00010000
00000010
,
00000100
00000000
00000001
00000000
,
00001000
00000000
00000100
00000000
,
00010000
00000000
00010000
00000000
,
00000010
00000000
00010000
00000100
,
00011000
00000000
00000000
00000000
;

//---------------dance-double - ----------------
#NOTES:
     dance-double:
     :
     Medium:
     4:
     :
00000000
00000000
00000000
00000000
,
00000000
00000000
00000000
00000000
,
00000000
00000000
00000000
00000000
,
00000000
00000000
00000000
00000000
,
00010100
00000000
00000000
00010000
,
00000100
00000100
00000100
00000000
00000000
00000000
00000000
00000000
,
00010000
00010000
00000000
00000000
00000000
00000000
01000000
00100000
,
00100000
00100000
01000000
00000000
00000000
00000000
00000000
00000000
,
10000000
10000000
00000000
00000000
00000000
00000000
00000100
00000000
,
00001100
00000000
00000001
00000000
00000100
00000000
00000100
00000010
,
00010000
00010000
00001000
01000000
,
01000000
00100000
10000000
00000000
00010000
00000000
00010000
00000000
,
01000000
00000000
00001000
00000000
00010000
00000000
00000010
00000010
,
00000100
00000100
00000001
00000000
00001000
00000000
00000010
00000000
,
00010000
00010000
00000100
00000000
00010000
00000000
00100000
00000000
,
01000000
01000000
00010000
00000000
10000000
00000000
00100000
00000000
,
01000000
00010000
00100000
00001000
,
00000100
00000200
00000000
00000301
,
00001000
00000001
00000010
00000100
,
00010000
00020000
00000000
00031000
,
00001000
01000000
00001000
00000000
01000000
00010000
01000000
00010000
,
10000000
01000000
10000000
00000000
00000000
00000000
00000000
00000000
,
00001000
00000100
00001000
00000000
00000000
00000000
00000000
00000000
,
00000010
00000001
00000010
00000000
00000000
00000000
00000000
00000000
,
00010000
00010000
00010000
00000000
00000000
00000000
00010000
10000000
,
00100000
00100000
01000000
00000000
00020000
00000000
00030000
00000000
,
01000000
01000000
00001000
00000000
00002000
00000000
00003000
00000000
,
00010000
00010000
00000010
00000000
00000100
00000000
00000001
00000000
,
00001000
00000100
00000001
00000000
00001000
00000001
00001000
00000001
,
00000100
00000010
00000010
00000000
00010000
00010000
00010000
00000000
,
00001000
01000000
00001000
01000000
00100000
00100000
00100000
00000000
,
10000000
10000000
00010000
00000000
02000000
00000000
03001000
00000000
,
00010000
00000010
00001000
00000000
00000100
00001000
00000001
00000010
,
00000100
00000000
00000000
00000000
;

//---------------dance-double - ----------------
#NOTES:
     dance-double:
     :
     Hard:
     6:
     :
00000000
00000000
00000000
00000000
,
00000000
00000000
00000000
00000000
,
00000000
00000000
00000000
00000000
,
00000000
00000000
00000000
00000000
,
00000001
00000000
00000000
00000000
00000001
00000100
00010000
00010000
,
01000000
01000000
00000000
00000000
00100000
00000000
10000000
00000000
,
00010000
00010000
00000000
00000000
01000000
00000000
00001000
00010000
,
00010000
00001000
00000000
00000000
00000000
00000000
00000100
00000000
,
00000001
00000001
00000000
00000000
00000000
00000000
00002000
00000000
,
00003100
00000000
00000100
00000000
00010100
00000100
00010000
00011000
,
01000000
00000000
01000000
00000000
01000000
01100000
10000000
11000000
,
01000000
00000000
00100000
00000000
00001000
00010000
00001000
00000100
,
00000010
00000000
00001000
00000000
00000010
00000010
00000100
00000001
,
00001000
00001000
00002000
00000000
00000100
00000000
00003100
00000100
,
00010000
00010000
00002000
00000000
01000000
00000000
01003000
01000000
,
00100000
10000000
00100000
01000000
01000000
00000000
01000000
00000000
,
00001000
00000000
00000100
00000000
00000010
00000000
00001000
00000001
,
00001001
00000000
00001100
00000000
00010100
00000000
00001000
01000000
,
00100000
00000000
00100000
10000000
00010000
00000000
00010000
01000000
,
10010000
10000000
00100000
00000000
01000000
00000000
01000000
00001000
,
00010000
00010000
00010000
00000000
00010000
00000000
00010000
00000010
,
00000100
00000010
00002000
00000000
00000001
00000000
00003001
00000000
,
00000100
00000010
00010000
00001000
01000000
00000000
01000000
00000000
,
00100000
00000000
00000000
00000000
00100000
01000000
00100000
10000000
,
00010000
00010000
00010000
00000000
01000000
00000000
01000000
00001000
,
01001000
00001000
00020000
00000000
00000100
00000000
00030100
00000000
,
00001000
00000010
00000100
00000001
00001000
00001000
00001000
00000000
,
00000010
00000010
00000100
00000000
00000001
00000001
00001000
00000010
,
00010000
00001000
00010000
00000000
00001000
01001000
00101000
00100000
,
00020000
10000000
10000000
00000000
10000000
00000000
10030000
00000000
,
02000000
00100000
00100000
00000000
10000000
00000000
13000000
00000000
,
00100000
00000000
01000000
00000000
00001000
00000000
00010000
00000010
,
00000100
00000100
00000100
00000000
00000001
00000001
00000001
00001000
,
00000100
00000000
00000000
00000000
;
