#TITLE:AARON'S PARTY/COME GET IT;
#ARTIST:AARON CARTER;
#BANNER:AARON'S PARTY COME GET IT.png;
#BACKGROUND:AARON'S PARTY COME GET IT-bg.png;
#CDTITLE:./CDTITLES/Dancing Stage EuroMIX2.PNG;
#MUSIC:AARON'S PARTY COME GET IT.mp3;
#OFFSET:-0.048;
#SAMPLESTART:55.36;
#SAMPLELENGTH:15;
#DISPLAYBPM:117;
#BPMS:0=117;

//---------------dance-single - ----------------
#NOTES:
     dance-single:
     :
     Beginner:
     1:
     :
0000
0000
0000
0000
,
0000
0000
0000
0000
,
0000
0000
0000
0000
,
0000
0000
0000
0000
,
0010
0000
0000
0000
,
0100
0000
0000
0000
,
0010
0000
0000
0000
,
0100
0000
0000
0000
,
0001
0000
0000
0000
,
1000
0000
0000
0000
,
0001
0000
0000
0000
,
1000
0000
0000
0000
,
0010
0000
0010
0000
,
0001
0000
0001
0000
,
1000
0000
1000
0000
,
0100
0000
0100
0000
,
0010
0000
0000
0000
,
0100
0000
0000
0000
,
0010
0000
0001
0000
,
0010
0000
1000
0000
,
0100
0000
0001
0000
,
0100
0000
1000
0000
,
0010
0010
0000
0000
,
0100
0100
0000
0000
,
0001
0001
0000
0000
,
1000
1000
0000
0000
,
0010
0000
0000
0100
,
0100
0000
0000
0001
,
0001
0000
0000
1000
,
1000
0000
0001
0000
,
0010
0000
0000
0001
,
0001
0000
0000
0010
,
0010
0000
0000
1000
,
1000
0000
0001
0000
,
0010
0000
1000
0000
,
0001
0000
0100
0000
,
0010
0000
1000
0000
,
0001
0000
0100
0000
,
0010
0010
0000
1000
,
1000
1000
0000
0001
,
0001
0001
0000
0100
,
0100
0100
0000
0010
;

//---------------dance-single - ----------------
#NOTES:
     dance-single:
     :
     Easy:
     2:
     :
0000
0000
0000
0000
,
0000
0000
0000
0000
,
0000
0000
0000
0000
,
0000
0000
0000
0000
,
1000
0000
0001
0000
,
0010
0000
0001
1000
,
0001
0000
1000
0000
,
0010
0000
0001
1000
,
0010
0000
0100
0000
,
0001
0000
1000
0100
,
0010
0000
0001
0000
,
1000
0000
0100
0000
,
0010
0100
1000
0000
,
0001
0000
0100
0000
,
0010
1000
0001
0000
,
0100
0000
0010
0000
,
1000
0000
0001
0100
,
0001
0000
1000
0000
,
0100
0000
0010
0000
,
0001
0100
0010
0000
,
1000
0000
0100
0000
,
0010
0000
0110
0000
,
0001
1000
0000
0100
,
0010
0000
0001
0000
,
1000
0000
0100
0000
,
1000
0000
0001
1000
,
0100
0010
0000
1001
,
0100
0000
0100
1001
,
0010
0100
0000
1001
,
0010
0010
0000
1001
,
1000
0001
0000
0110
,
1000
0000
1000
0110
,
0001
1000
0000
0110
,
0001
0001
0000
0110
,
0100
0100
0000
0010
,
1000
1000
0000
0010
,
0010
0010
0000
0100
,
0000
0110
0000
1001
,
0100
0100
0000
0001
,
1000
1000
0000
0010
,
0010
0010
0000
1000
,
0000
0110
0000
1001
;

//---------------dance-single - ----------------
#NOTES:
     dance-single:
     :
     Medium:
     5:
     :
0000
0000
0000
0000
,
0000
0000
0000
0000
,
0000
0000
0000
0000
,
0000
0000
0000
0000
,
1000
0000
0010
0000
0100
0001
1000
0000
,
0100
0000
0010
0000
0001
1000
0100
0000
,
0010
0000
0001
0000
0100
0010
1000
0000
,
0010
0100
0001
1100
,
0010
0000
0100
0000
0010
0001
0100
0000
,
0010
0000
0100
0000
0010
1000
0100
0000
,
0010
0000
0100
0000
1000
0001
1000
0000
,
0010
1100
0010
0101
,
0100
1000
0100
0001
,
0010
1000
0010
0001
,
0001
0100
0001
0010
,
1000
0100
1000
0010
,
0110
0000
0010
0000
,
1001
0000
0100
0000
,
0010
0000
0001
0000
1000
0100
1000
0000
,
0010
0000
1000
0000
0001
0100
0001
0000
,
0100
0000
0001
0000
1000
0010
1000
0000
,
0100
1100
0101
0000
,
0100
0000
1001
0000
1000
0001
1000
0000
,
0010
0100
0010
0100
,
0001
0100
0010
1000
,
1001
0000
0000
0000
0010
0100
0010
0000
,
0010
0000
0001
0000
1000
0100
1000
0000
,
0010
0000
1000
0000
0001
0100
0001
0000
,
0100
0000
0001
0000
1000
0010
1000
0000
,
0100
0000
1000
0000
0001
0010
0001
0000
,
0001
0000
0010
0000
1000
0100
1000
0000
,
1000
0000
0010
0000
0001
0100
0001
0000
,
0001
0000
0100
0000
1000
0010
1000
0000
,
1000
0000
0100
0000
0001
0010
0001
0000
,
0001
1000
0001
0000
0010
0000
0010
0000
,
1000
0001
1000
0000
0100
0000
0100
0000
,
0010
0100
0010
0000
0001
0000
0001
0000
,
0100
0010
0100
0000
1000
0000
1000
0000
,
0001
1000
0001
0000
0010
0000
0110
0000
,
1000
0001
1000
0000
0100
0000
0110
0000
,
0010
0100
0010
0000
0001
0000
1001
0000
,
0100
0010
0100
0000
1000
0000
1001
0000
;

//---------------dance-single - ----------------
#NOTES:
     dance-single:
     :
     Hard:
     8:
     :
0000
0000
0000
0000
,
0000
0000
0000
0000
,
0000
0000
0000
0000
,
0000
0000
0000
0000
,
0000
0000
0000
0000
,
0100
0000
0000
0000
1000
0000
0000
0000
0010
0000
0100
0001
0000
0000
0000
0000
,
0100
0000
0001
0000
1000
0100
0010
0000
,
0100
0000
0000
0000
0010
0000
0000
0000
1000
0000
0100
0010
0000
0000
0000
0000
,
0100
0000
0010
0000
0001
0100
0010
1000
,
0100
0000
0000
0000
0010
0000
0000
0000
0001
0000
1000
0001
0000
0000
0000
0000
,
0010
0000
0100
0000
1000
0010
0100
0000
,
0001
0000
0010
0000
0100
1000
0001
0000
,
0100
0001
0101
0000
1000
0100
1100
0000
,
0010
0000
1000
0000
0100
0010
0001
0000
,
0100
0000
0000
0000
0001
0000
0000
0000
0010
0000
0100
1000
0000
0000
0000
0000
,
0001
0000
0000
0000
0100
0000
0000
0000
0010
0000
0010
1000
0000
0000
0001
0000
,
0010
0000
0100
0000
1000
0001
1000
0100
,
0010
0000
0010
0000
0100
0010
0001
0100
,
0010
0000
0000
0000
0010
0000
0000
0000
0100
0010
0000
1000
0000
0000
0000
0000
,
0001
0000
0000
0000
0100
0000
0000
0000
0010
0000
0010
1000
0000
0000
0100
0000
,
1000
0000
0100
0000
0010
0001
0010
0100
,
1000
0000
0000
0000
0001
0000
0000
0000
0010
0000
0010
0100
0000
0000
1000
0000
,
0001
0100
0001
0000
1000
0010
1000
0000
0001
0000
0001
0100
0000
0000
0010
0000
,
1000
0001
1000
0000
0100
0000
0000
0000
0010
0000
0010
0001
0000
0000
0000
0000
,
0001
0000
0000
0000
0100
0000
0000
0000
0010
0000
0010
1000
0000
0000
0000
0000
,
0100
0010
0100
0000
1000
0000
0000
0000
0001
0000
0001
1000
0000
0000
0000
0000
,
0110
0000
0000
0000
1000
1001
0001
1001
,
1000
0100
0000
0000
0010
0000
0000
0000
0001
0000
1000
0000
1000
0100
0000
0000
,
0010
0000
0001
0000
0010
0000
0000
0000
0100
0000
0010
0000
0010
0001
0000
0000
,
0010
0001
0000
0000
1000
0000
0000
0000
0100
0000
0010
0000
0010
0001
0000
0000
,
1000
0000
0100
0000
1000
0000
0000
0000
0010
0000
0100
0000
0100
0001
0000
0000
,
1000
0100
0000
0000
0010
0000
0000
0000
0001
0000
1000
0000
1000
0010
0000
0000
,
0100
0000
0001
0000
0100
0000
0000
0000
0010
0000
1000
0000
1000
0100
0000
0000
,
0010
0100
0010
0000
0001
0000
0000
0000
1000
0000
0010
0000
0010
0100
0000
0000
,
0001
0010
0001
0000
1000
0100
1000
0000
,
0010
1000
0100
0010
0000
0001
0000
0001
,
0100
0010
1000
0001
0000
0010
0000
0010
,
0100
1000
0001
0010
0000
0100
0010
0000
,
0001
0100
0010
1000
0100
0010
0001
0100
,
0010
1000
0100
0010
0000
0100
0000
0100
,
0010
0001
1000
0100
0000
0001
0000
0001
,
0100
0010
1000
0100
0000
0010
0001
0000
,
0100
0000
0010
0000
1000
0100
0000
0000
0010
0000
0001
0000
1000
0100
0000
0000
;

//---------------dance-double - ----------------
#NOTES:
     dance-double:
     :
     Easy:
     1:
     :
00000000
00000000
00000000
00000000
,
00000000
00000000
00000000
00000000
,
00000000
00000000
00000000
00000000
,
00000000
00000000
00000000
00000000
,
00100000
00000000
10000000
00000000
,
01000000
00000000
00010000
00000000
,
00001000
00000000
00000010
00000000
,
00000001
00000000
00000100
00000000
,
00000010
00000000
00000001
00000000
,
00000100
00000000
00001000
00000000
,
00010000
00000000
00100000
00000000
,
10000000
00000000
01000000
00000000
,
10000000
10000000
00000000
00000000
,
01000000
00000000
01000000
00000000
,
00010000
00010000
00000000
00000000
,
00001000
00000000
00001000
00000000
,
00000010
00000000
00000000
00000000
,
00000001
00000000
00000000
00000000
,
00000100
00000000
00001000
00000000
,
00010000
00000000
01000000
00000000
,
10000000
00000000
00100000
00000000
,
10010000
00000000
00000000
00000000
,
00100000
10000000
00000000
00000000
,
01000000
00000000
00010000
00000000
,
00001000
00000000
00000010
00000000
,
00000001
00000000
00000100
00000000
,
00001000
00000000
00000000
00010000
,
00100000
00000000
00000000
00001000
,
00000100
00000000
00000000
00010000
,
00000000
00100000
00000000
00010000
,
00000000
00000000
00000000
00001000
,
00000010
00000000
00000000
00010000
,
01000000
00000000
00000000
00001000
,
00000000
00000010
00000000
00000000
,
00000010
00000001
00000000
00000000
,
00000001
00000100
00000000
00000000
,
00000100
00001000
00000000
00010000
,
00000000
00100000
00000000
00000000
,
10000000
01000000
00000000
00000000
,
01000000
00010000
00000000
00000000
,
00010000
00001000
00000000
00000010
,
00000000
00000001
00000000
00000000
;

//---------------dance-double - ----------------
#NOTES:
     dance-double:
     :
     Medium:
     4:
     :
00000000
00000000
00000000
00000000
,
00000000
00000000
00000000
00000000
,
00000000
00000000
00000000
00000000
,
00000000
00000000
00000000
00000000
,
10000000
01000000
00010000
01000000
,
00010000
00001000
00000010
00000001
,
00000001
00000100
00001000
00000100
,
00001000
00000000
00010000
00000000
00100000
10000000
00100000
00000000
,
10000000
00100000
00010000
00100000
,
00010000
00001000
00000100
00000001
,
00000001
00000010
00001000
00000010
,
00001000
00000000
00010000
00000000
01000000
10000000
01000000
00000000
,
10000000
00100000
00010000
00001000
,
00000100
00000001
00000010
00001000
,
00010000
01000000
10000000
00100000
,
10000000
01000000
00010000
00001000
,
00000010
00000000
00000001
00000000
,
00000100
00000000
00001000
00000000
,
00010000
00100000
00010000
00001000
,
00010000
01000000
00010000
00001000
,
00001000
00000010
00001000
00010000
,
00001000
00000100
00001000
00000000
,
00010000
00100000
00010000
00000000
00100000
00000000
10000000
00000000
,
01000000
00010000
00001000
00000010
,
00000001
00000100
00001000
00010000
,
00100000
00000000
00000000
00000000
10000000
01000000
10000000
00000000
,
01000000
00000000
01000000
00000000
00000000
00010000
00001000
00000000
,
00000010
00000000
00000010
00000000
00000000
00000001
00000100
00000000
,
00001000
00000000
00001000
00000000
00000000
00010000
00100000
00000000
,
00000000
10000000
00010000
00000000
00000000
10000000
01000000
00000000
,
00010000
00000000
00001000
00000000
00000000
00001000
00000010
00000000
,
00001000
00000000
00010000
00000000
00000000
00010000
00100000
00000000
,
00010000
00000000
00001000
00000000
00000000
00001000
00000100
00000000
,
00001000
00000001
00001000
00000000
00000000
00000001
00000010
00000000
,
00000001
00000100
00001000
00010000
,
00100000
10000000
01000000
00010000
,
00001000
00000100
00000001
00000010
,
00001000
00000000
00010000
00000000
00100000
00000000
10000000
01000000
,
10000000
01000000
00010000
00001000
,
00000100
00000001
00000100
00001000
,
00010000
00100000
10000000
00100000
,
00010000
00001000
00010000
00001000
;

//---------------dance-double - ----------------
#NOTES:
     dance-double:
     :
     Hard:
     6:
     :
00000000
00000000
00000000
00000000
,
00000000
00000000
00000000
00000000
,
00000000
00000000
00000000
00000000
,
00000000
00000000
00000000
00000000
,
00100000
10000000
01000000
00010000
,
00001000
00000000
00000010
00000000
00000001
00000100
00000001
00000000
,
00000010
00000000
00000001
00000000
00000100
00001000
00000100
00000000
,
00001000
00000000
00010000
00000000
00001000
00000100
00001000
00010000
,
01000000
10000000
00100000
00010000
,
00001000
00000000
00000100
00000000
00000001
00000010
00000001
00000000
,
00000100
00000000
00000001
00000000
00000010
00001000
00000010
00000000
,
00001000
00000000
00010000
00000000
00001000
00000010
00001000
00010000
,
00100000
00000000
10000000
00000000
00010000
10000000
01000000
00000000
,
00010000
00000000
00001000
00000000
00000010
00000001
00001000
00000000
,
00000001
00000000
00000100
00000000
00001000
00010000
00001000
00000000
,
00010000
00000000
00100000
00000000
10000000
00010000
10000000
00000000
,
01000000
00000000
10000000
00000000
00010000
10000000
00100000
00000000
,
00010000
00000000
00001000
00000000
00000100
00000001
00001000
00000000
,
00000001
00000000
00000010
00000000
00001000
00010000
00001000
00000000
,
00010000
00000000
01000000
00000000
10000000
00010000
10000000
00000000
,
00100000
00000000
00010000
00000000
00001000
00010000
00001000
00000000
,
00010000
00001000
00010000
00001000
00000100
00000000
00000001
00000000
,
00000010
00000001
00000010
00000000
00000001
00000100
00000001
00000000
,
00000100
00001000
00000100
00000000
00001000
00010000
00001000
00000000
,
00010000
00100000
00010000
00000000
00100000
10000000
00100000
00000000
,
10010000
00000000
00000000
00000000
10000000
01000000
10000000
00010000
,
10000000
00000000
01000000
00000000
00010000
00001000
00010000
00000000
,
00001000
00000000
00001000
00000000
00000100
00000001
00000100
00000000
,
00000010
00000000
00000010
00000000
00001000
00010000
00001000
00000000
,
00000000
00100000
10000000
00000000
00000000
10000000
00100000
00000000
,
10000000
01000000
10000000
00000000
00010000
00100000
00010000
00000000
,
00100000
00001000
00100000
00000000
00001000
00010000
00001000
00000000
,
00000100
00010000
00000100
00000000
00001000
00000100
00001000
00000000
,
00000001
00000010
00000001
00000000
00000100
00000001
00000100
00000000
,
00000001
00000100
00001000
00000100
00001000
00000000
00010000
00000000
,
00010000
00100000
10000000
00100000
10000000
00000000
01000000
00000000
,
01000000
00010000
00001000
00010000
00001000
00000000
00000010
00000000
,
00000001
00000000
00000100
00000000
00001000
00000000
00010000
00100000
,
10000000
01000000
00010000
01000000
00010000
00000000
00001000
00000000
,
00001000
00000010
00000001
00000010
00000001
00000000
00000100
00000000
,
00000100
00001000
00010000
00001000
00010000
00000000
00100000
00000000
,
10000000
01000000
00010000
00001000
;
