#TITLE:5, 6, 7, 8;
#ARTIST:STEPS;
#BANNER:5, 6, 7, 8.png;
#BACKGROUND:5, 6, 7, 8-bg.png;
#CDTITLE:./CDTITLES/Dancing Stage EuroMIX2.PNG;
#MUSIC:5, 6, 7, 8.mp3;
#OFFSET:-0.056;
#SAMPLESTART:70.1;
#SAMPLELENGTH:15;
#DISPLAYBPM:140;
#BPMS:0=140.03;

//---------------dance-single - ----------------
#NOTES:
     dance-single:
     :
     Beginner:
     3:
     :
0000
0000
0000
0000
,
0000
0000
0000
0000
,
0000
0000
0000
0000
,
0000
0000
0000
0000
,
0000
0000
0000
0000
,
1001
1001
1001
0000
,
1001
1001
1001
0000
,
1000
0000
0001
0000
,
1000
0000
0001
0000
,
0001
0000
0001
0000
,
1000
0000
1000
0000
,
1001
0000
1001
0000
,
0010
0000
0100
0000
,
0001
0000
0001
0000
,
1000
0000
1000
0000
,
0001
0000
1000
0000
,
0001
0000
0100
0000
,
1001
1001
1001
0000
,
1001
1001
1001
0000
,
1000
0000
0001
0000
,
1000
0000
0001
0000
,
0001
0000
0001
0000
,
1000
0000
1000
0000
,
1001
0000
1001
0000
,
0010
0000
0100
0000
,
0001
0000
0001
0000
,
0010
0000
0100
0000
,
1001
0000
1001
0000
,
1001
0000
1001
0000
,
0001
0000
1000
0000
,
1001
0000
0100
0000
,
1000
0000
0001
0000
,
1001
0000
0010
0000
,
1001
1001
1001
0000
,
1001
1001
1001
0000
,
1000
0000
0001
0000
,
1000
0000
0001
0000
,
0001
0000
0001
0000
,
1000
0000
1000
0000
,
1001
0000
1001
0000
,
0010
0000
0100
0000
,
1001
1001
1001
0000
,
1001
1001
1001
0000
,
1000
0000
0001
0000
,
1000
0000
0001
0000
,
0001
0000
0001
0000
,
1000
0000
1000
0000
,
1001
0000
1001
0000
,
0010
0000
0100
0000
,
1001
1001
1001
0000
,
1001
1001
1001
0000
,
1000
0000
0001
0000
,
1000
0000
0001
0000
,
0001
0000
0001
0000
,
1000
0000
1000
0000
,
1001
0000
1001
0000
,
0010
0000
0100
0000
;

//---------------dance-single - ----------------
#NOTES:
     dance-single:
     :
     Easy:
     3:
     :
0000
0000
0000
0000
,
0000
0000
0000
0000
,
0000
0000
0000
0000
,
0000
0000
0000
0000
,
0000
0000
0000
0000
,
1001
1001
1001
0000
,
1001
1001
1001
0000
,
1000
0000
0001
0000
,
1000
0000
0001
0000
,
0001
0000
0001
0000
,
1000
0000
1000
0000
,
1001
0000
1001
0000
,
0010
1000
0100
0001
,
0001
0100
0001
0100
,
1000
0100
1000
0100
,
0001
0100
1000
0100
,
0001
1000
0100
1001
,
1001
1001
1001
0000
,
1001
1001
1001
0000
,
1000
0000
0001
0000
,
1000
0000
0001
0000
,
0001
0000
0001
0000
,
1000
0000
1000
0000
,
1001
0000
1001
0000
,
0010
1000
0100
0001
,
0001
0100
0001
0100
,
0010
1000
0100
0001
,
1001
0000
1001
0000
,
1001
0000
1001
0000
,
0001
0001
1000
1000
,
1001
0110
0000
1001
,
1000
1000
0001
0001
,
1001
0110
0000
1001
,
1001
1001
1001
0000
,
1001
1001
1001
0000
,
1000
0000
0001
0000
,
1000
0000
0001
0000
,
0001
0000
0001
0000
,
1000
0000
1000
0000
,
1001
0000
1001
0000
,
0010
1000
0100
0001
,
1001
1001
1001
0000
,
1001
1001
1001
0000
,
1000
0000
0001
0000
,
1000
0000
0001
0000
,
0001
0000
0001
0000
,
1000
0000
1000
0000
,
1001
0000
1001
0000
,
0010
1000
0100
0001
,
1001
1001
1001
0000
,
1001
1001
1001
0000
,
1000
0000
0001
0000
,
1000
0000
0001
0000
,
0001
0000
0001
0000
,
1000
0000
1000
0000
,
1001
0000
1001
0000
,
0010
1000
0100
0001
;

//---------------dance-single - ----------------
#NOTES:
     dance-single:
     :
     Medium:
     4:
     :
0000
0000
0000
0000
,
0000
0000
0000
0000
,
0000
0000
0000
0000
,
0000
0000
0000
0000
,
0000
0000
0000
0000
,
1001
1001
1001
0000
,
1001
1001
1001
0000
,
1000
0000
0001
0000
,
1000
0000
0001
0000
,
0001
0100
0001
0100
,
1000
0100
1000
0100
,
1001
0001
1001
1000
,
0010
1000
0100
0001
,
0001
0100
0001
0100
,
1000
0100
1000
0100
,
0001
0100
1000
0100
,
0001
1000
0100
1001
,
1001
1001
1001
0000
,
1001
1001
1001
0000
,
1000
0000
0001
0000
,
1000
0000
0001
0000
,
0001
0100
0001
0100
,
1000
0100
1000
0100
,
1001
0001
1001
1000
,
0010
1000
0100
0001
,
0001
0100
0001
0100
,
0010
1000
0100
0001
,
1001
0000
1001
0000
,
1001
0000
1001
0000
,
0001
1000
0001
0000
1000
0001
1000
0000
,
1001
0110
0000
1001
,
1000
0001
1000
0000
0001
1000
0001
0000
,
1001
0110
0000
1001
,
1001
1001
1001
0000
,
1001
1001
1001
0000
,
1000
0000
0001
0000
,
1000
0000
0001
0000
,
0001
0100
0001
0100
,
1000
0100
1000
0100
,
1001
0001
1001
1000
,
0010
1000
0100
0001
,
1001
1001
1001
0000
,
1001
1001
1001
0000
,
1000
0000
0001
0000
,
1000
0000
0001
0000
,
0001
0100
0001
0100
,
1000
0100
1000
0100
,
1001
0001
1001
1000
,
0010
1000
0100
0001
,
1001
1001
1001
0000
,
1001
1001
1001
0000
,
1000
0000
0001
0000
,
1000
0000
0001
0000
,
0001
0100
0001
0100
,
1000
0100
1000
0100
,
1001
0001
1001
1000
,
0010
1000
0100
0001
;

//---------------dance-single - ----------------
#NOTES:
     dance-single:
     :
     Hard:
     6:
     :
0000
0000
0000
0000
,
0000
0000
0000
0000
,
0000
0000
0000
0000
,
0000
0000
0000
0000
,
0000
0000
0000
0000
,
0001
0000
1000
0000
0010
1000
0000
0001
,
0000
0010
0100
1000
0001
0100
0001
0000
,
1000
0100
0010
0000
0001
1000
0000
0010
,
0100
0000
0001
1000
0100
0000
0000
1000
,
0010
0100
0001
0000
0010
0100
1000
0000
,
0001
0010
0100
1000
0010
0100
0001
0000
,
0010
1001
0100
1001
,
0010
1000
0100
1001
,
0010
0000
1000
0000
0100
0000
0000
0000
0001
0000
0000
0001
0000
0000
0001
0000
,
1000
0000
0100
0000
1000
0000
0000
0000
0010
0000
0000
0010
0000
0000
0010
0000
,
0100
0000
0001
0000
0100
0000
0000
0000
1000
0000
0000
1000
0000
0000
1000
0000
,
0001
0010
1000
0100
,
0001
0000
1000
0000
0010
1000
0000
0001
,
0000
0010
0100
1000
0001
0100
0001
0000
,
1000
0100
0010
0000
0001
1000
0000
0010
,
0100
0000
0001
1000
0100
0000
0000
1000
,
0010
0100
0001
0000
0010
0100
1000
0000
,
0001
0010
0100
1000
0010
0100
0001
0000
,
0010
1001
0100
1001
,
0010
1000
0100
1001
,
0001
0000
0000
0001
1000
0000
0000
0000
0001
0000
0100
0000
0000
0000
0000
0000
,
1000
0000
0000
1000
0001
0000
0000
0000
1000
0000
0100
0000
0000
0000
0000
0000
,
0001
0000
0000
0001
0100
0000
0000
0000
0100
0000
0010
0000
0000
0000
0000
0000
,
1000
0000
0000
1000
0100
0000
0000
0000
0100
0000
0010
0000
0100
0000
1000
0000
,
0001
0000
0000
1000
0100
0000
0000
0000
0100
0000
0010
0000
0000
0000
0000
0000
,
1000
0000
0000
0001
0100
0000
0000
0000
0100
0000
0010
0000
0000
0000
0000
0000
,
0010
0000
0000
0100
0001
0000
0000
0000
0001
0000
0010
0000
0100
0000
1000
0000
,
0001
0000
0001
1000
0100
0000
1001
0000
,
0001
0000
0001
0000
0001
1000
0100
0000
,
0001
1000
0100
0000
0010
0000
1001
0000
,
0010
0000
0101
0000
0010
1000
0100
0000
,
0010
0000
1100
0000
0001
0100
0001
0000
,
0001
1000
0010
0100
,
0010
0000
0110
0000
1000
0100
1000
0000
,
0001
0010
0001
0000
1000
0010
0100
0000
,
0001
0010
0001
0010
0001
0100
0001
0000
,
0001
0000
1000
0000
0010
1000
0000
0001
,
0000
0010
0100
1000
0001
0100
0001
0000
,
1000
0100
0010
0000
0001
1000
0000
0010
,
0100
0000
0001
1000
0100
0000
0000
1000
,
0010
0100
0001
0000
0010
0100
1000
0000
,
0001
0010
0100
1000
0010
0100
0001
0000
,
0010
1001
0100
1001
,
0010
1000
0100
1001
,
0001
0000
1000
0000
0010
1000
0000
0001
,
0000
0010
0100
1000
0001
0100
0001
0000
,
1000
0100
0010
0000
0001
1000
0000
0010
,
0100
0000
0001
1000
0100
0000
0000
1000
,
0010
0100
0001
0000
0010
0100
1000
0000
,
0001
0010
0100
1000
0010
0100
0001
0000
,
0010
1001
0100
1001
,
0010
1000
0100
1001
;

//---------------dance-double - ----------------
#NOTES:
     dance-double:
     :
     Easy:
     3:
     :
00000000
00000000
00000000
00000000
,
00000000
00000000
00000000
00000000
,
00000000
00000000
00000000
00000000
,
00000000
00000000
00000000
00000000
,
00000000
00000000
00000000
00000000
,
00010000
00000000
00001000
00000000
,
00000010
00000000
00000100
00000000
,
00001000
00000000
00010000
00000000
,
00100000
00000000
01000000
00000000
,
00010000
00010000
00001000
00001000
,
00000100
00000000
00001000
00000000
,
00010000
00001000
00010000
00001000
,
00010000
00100000
10000000
01000000
,
00010000
00010000
00001000
00000100
,
00001000
00001000
00010000
01000000
,
00100000
00010000
00001000
00010000
,
00000010
00001000
00010000
00001000
,
00010000
00000000
00001000
00000000
,
00000010
00000000
00000100
00000000
,
00001000
00000000
00010000
00000000
,
00100000
00000000
01000000
00000000
,
00010000
00010000
00001000
00001000
,
00000100
00000000
00001000
00000000
,
00010000
00001000
00010000
00001000
,
00010000
00100000
10000000
01000000
,
00001000
00000000
00010000
00000000
,
00000010
00000000
00000100
00000000
,
00010000
00000000
00001000
00000000
,
00100000
00000000
01000000
00000000
,
00010000
00001000
00010000
00000000
,
00001000
00010000
00001000
00000000
,
00000100
00000000
00001100
00000000
,
00010000
00001000
00010000
00011000
,
00010000
00000000
00001000
00000000
,
00000010
00000000
00000100
00000000
,
00001000
00000000
00010000
00000000
,
00100000
00000000
01000000
00000000
,
00010000
00010000
00001000
00001000
,
00000100
00000000
00001000
00000000
,
00010000
00101000
00010000
00001000
,
00010000
00100000
10000000
01000000
,
00010000
00000000
00001000
00000000
,
00000010
00000000
00000100
00000000
,
00001000
00000000
00010000
00000000
,
00100000
00000000
01000000
00000000
,
00010000
00010000
00001000
00001000
,
00000100
00000000
00001000
00000000
,
00010000
00001000
00010000
00001000
,
00010000
00100000
10000000
01000000
,
00010000
00000000
00001000
00000000
,
00000010
00000000
00000100
00000000
,
00001000
00000000
00010000
00000000
,
00100000
00000000
01000000
00000000
,
00010000
00010000
00001000
00001000
,
00000100
00000000
00001000
00000000
,
00010000
00001000
00010000
00001000
,
00010000
00100000
10000000
01000000
;

//---------------dance-double - ----------------
#NOTES:
     dance-double:
     :
     Medium:
     4:
     :
00000000
00000000
00000000
00000000
,
00000000
00000000
00000000
00000000
,
00000000
00000000
00000000
00000000
,
00000000
00000000
00000000
00000000
,
00000000
00000000
00000000
00000000
,
00010000
00001000
00000100
00000101
,
00000001
00000010
00001000
00011000
,
00100000
00000000
00001000
00000000
,
00000010
00000000
00010000
00000000
,
00001000
00010000
00000010
00000100
,
00010000
00001000
00100000
01000000
,
01001000
00011000
00010100
00011000
,
00100000
10000000
01000000
00001000
,
00001000
00000010
00000001
00000101
,
00001000
00010000
01000000
11000000
,
00100000
00010000
00001000
00010000
,
00000010
00001000
00010000
00001000
,
00010000
00001000
00000100
00000101
,
00000001
00000010
00001000
00011000
,
00100000
00000000
00001000
00000000
,
00000010
00000000
00010000
00000000
,
00001000
00010000
00000010
00000100
,
00010000
00001000
00100000
01000000
,
01001000
00011000
00010100
00011000
,
00100000
10000000
01000000
00001000
,
00010000
00001000
00000100
00000001
,
00000001
00000100
00001000
00010000
,
00010100
00011000
01001000
00011000
,
01001000
00011000
01001000
00011000
,
00001000
00010000
00001000
00000000
00010000
00001000
00010000
00000000
,
00011000
00001000
00000100
00000001
,
00001000
00000001
00001000
00000000
00000100
00001000
00000100
00000000
,
00010100
00011000
00100000
01000000
,
00010000
00001000
00000100
00000101
,
00000001
00000010
00001000
00011000
,
00100000
00000000
00001000
00000000
,
00000010
00000000
00010000
00000000
,
00001000
00010000
00000010
00000100
,
00010000
00001000
00100000
01000000
,
01001000
00011000
00010100
00011000
,
00100000
10000000
01000000
00001000
,
00010000
00001000
00000100
00000101
,
00000001
00000010
00001000
00011000
,
00100000
00000000
00001000
00000000
,
00000010
00000000
00010000
00000000
,
00001000
00010000
00000010
00000100
,
00010000
00001000
00100000
01000000
,
01001000
00011000
00010100
00011000
,
00100000
10000000
01000000
00001000
,
00010000
00001000
00000100
00000101
,
00000001
00000010
00001000
00011000
,
00100000
00000000
00001000
00000000
,
00000010
00000000
00010000
00000000
,
00001000
00010000
00000010
00000100
,
00010000
00001000
00100000
01000000
,
01001000
00011000
00010100
00011000
,
00100000
10000000
01000000
00001000
;

//---------------dance-double - ----------------
#NOTES:
     dance-double:
     :
     Hard:
     6:
     :
00000000
00000000
00000000
00000000
,
00000000
00000000
00000000
00000000
,
00000000
00000000
00000000
00000000
,
00000000
00000000
00000000
00000000
,
00000000
00000000
00000000
00000000
,
00010000
00000000
00001000
00000000
00000100
00000001
00000000
00000010
,
00000000
00001000
00010000
00000000
00010000
00001000
00010000
00000000
,
00010000
00000000
01010000
00000000
10000000
01000000
00000000
00100000
,
00010000
00000000
00001000
00010000
00001000
00000000
00000000
00001000
,
00000010
00001000
00010000
00000000
00010000
01000000
00010000
00000000
,
00001000
00000000
00010000
01000000
10000000
00100000
01000000
00000000
,
10000000
11000000
00010000
00011000
,
00000010
00000001
00000100
00001000
,
00010000
00000000
00000000
00000000
00001000
00000000
00000000
00000000
00010000
00000000
00000000
00100000
00000000
00000000
10000000
00000000
,
01000000
00000000
00000000
00000000
10000000
00000000
00000000
00000000
01000000
00000000
00000000
00010000
00000000
00000000
00001000
00000000
,
00000100
00000000
00000000
00000000
00000001
00000000
00000000
00000000
00000010
00000000
00000000
00001000
00000000
00000000
00010000
00000000
,
00001000
00000000
00100000
01000000
00010000
00000000
00011000
00000000
,
00010000
00000000
00001000
00000000
00000100
00000001
00000000
00000010
,
00000000
00001000
00010000
00000000
00010000
00001000
00010000
00000000
,
00010000
00000000
01010000
00000000
10000000
01000000
00000000
00100000
,
00010000
00000000
00001000
00010000
00001000
00000000
00000000
00001000
,
00000010
00001000
00010000
00000000
00010000
01000000
00010000
00000000
,
00001000
00000000
00010000
01000000
10000000
00100000
01000000
00000000
,
10000000
11000000
00010000
00011000
,
00000010
00000001
00000100
00001000
,
00001000
00010000
00000000
01000000
00100000
00000000
10000000
00000000
,
01000000
00010000
00000000
00001000
00010000
00000000
00000100
00000000
,
00000100
00000010
00000000
00000001
00000100
00000000
00001000
00000000
,
00010000
01000000
00000000
10000000
00100000
00010000
00100000
00000000
,
10000000
01000000
00000000
01000000
00010000
00000000
00001000
00000000
,
00001000
00000100
00000000
00000001
00000010
00000000
00001000
00000000
,
00010000
00001000
00000000
00001000
00010000
00000000
00100000
00000000
,
10000000
00000000
10000000
01000000
00010000
00000000
00011000
00000000
,
00001000
00010000
00001000
00000000
00010000
00001000
00010000
00000000
,
00001000
00000000
00000010
00000000
00000001
00000100
00000001
00000000
,
00001000
00000100
00001000
00000000
00010000
00001000
00010000
00000000
,
00010000
00000000
01000000
00000000
10000000
01000000
10000000
00000000
,
00010000
00100000
00010000
00000000
00001000
00010000
00001000
00000000
,
00000100
00000000
00000010
00000000
00000001
00001000
00000001
00000000
,
00000100
00000010
00000100
00000000
00010000
00001000
00010000
00000000
,
00100000
00000000
01000000
00000000
00001000
00010000
00001000
00000000
,
00010000
00000000
00001000
00000000
00000100
00000001
00000000
00000010
,
00000000
00001000
00010000
00000000
00010000
00001000
00010000
00000000
,
00010000
00000000
01010000
00000000
10000000
01000000
00000000
00100000
,
00010000
00000000
00001000
00010000
00001000
00000000
00000000
00001000
,
00000010
00001000
00010000
00000000
00010000
01000000
00010000
00000000
,
00001000
00000000
00010000
01000000
10000000
00100000
01000000
00000000
,
10000000
11000000
00010000
00011000
,
00000010
00000001
00000100
00001000
,
00010000
00000000
00001000
00000000
00000100
00000001
00000000
00000010
,
00000000
00001000
00010000
00000000
00010000
00001000
00010000
00000000
,
00010000
00000000
01010000
00000000
10000000
01000000
00000000
00100000
,
00010000
00000000
00001000
00010000
00001000
00000000
00000000
00001000
,
00000010
00001000
00010000
00000000
00010000
01000000
00010000
00000000
,
00001000
00000000
00010000
01000000
10000000
00100000
01000000
00000000
,
10000000
11000000
00010000
00011000
,
00000010
00000001
00000100
00001000
;
