#TITLE:Word Up;
#ARTIST:Cameo;
#BANNER:Word Up.png;
#BACKGROUND:Word Up-bg.png;
#CDTITLE:./CDTITLES/UNIVERSAL.PNG;
#MUSIC:Word Up.ogg;
#SAMPLESTART:51.116;
#SAMPLELENGTH:15;
#DISPLAYBPM:116;
#BPMS:0=116.22;

//---------------dance-single - ----------------
#NOTES:
     dance-single:
     :
     Beginner:
     1:
     :
0000
0000
0000
0000
,
0000
0000
0000
0000
,
0000
0000
0000
0000
,
0000
0000
0000
0000
,
0000
0000
0000
0000
,
0010
0000
0000
0000
,
1000
0000
0000
0000
,
0001
0000
0010
0000
,
0001
0000
1000
0000
,
0010
0000
1000
0000
,
0001
0000
1000
0000
,
0010
0000
1000
0000
,
0100
0000
0010
0000
,
1000
0000
0001
0000
,
0010
0000
0100
0000
,
1000
0000
0001
0000
,
1000
0000
0001
0000
,
0010
0000
1001
0000
,
0010
0010
0000
0000
,
0001
0000
1000
0000
,
0010
0010
0000
0000
,
1001
0000
0010
0000
,
0110
0000
1000
0000
,
0001
0000
1000
0000
,
0010
0010
0000
0000
,
0100
0000
1001
0000
,
0010
0000
0110
0000
,
0010
0000
0100
0000
,
0010
0000
1001
0000
,
0010
0000
0100
0000
,
0010
0000
0100
0000
,
1000
0000
0001
0000
,
0010
0000
0100
0000
,
0001
0000
1000
0000
,
0001
0000
1000
0000
,
0001
0000
0001
0000
,
1000
0000
1000
0000
,
0010
0000
0100
0000
,
0010
0000
0010
0000
,
0001
0000
1000
0000
,
0001
0000
1000
0000
,
1001
0000
0000
0000
,
0010
0000
0100
0000
,
1001
0000
0100
0000
,
0010
0000
0010
0000
,
0001
0000
1000
0000
,
0001
0000
1000
0000
,
0010
0000
0010
0000
,
1000
0000
0001
0000
;

//---------------dance-single - ----------------
#NOTES:
     dance-single:
     :
     Easy:
     3:
     :
0000
0000
0000
0000
,
0000
0000
0000
0000
,
0000
0000
0000
0000
,
0000
0000
0000
0000
,
0000
0000
0000
0000
,
0010
0000
0000
0000
,
1000
0000
0000
0000
,
0001
0000
0010
0000
,
0001
0001
1000
1000
,
0010
0000
1000
0000
,
0001
0000
1000
0000
,
0010
0000
1000
0000
,
0100
0000
0010
0001
,
1000
0100
1000
0001
,
0010
0000
0100
0000
,
1000
0000
0001
0000
,
1000
1000
0001
0001
,
0110
0000
1001
0000
,
0010
0010
0100
0100
,
0001
0000
1000
0000
,
0010
0010
0010
0010
,
1001
0000
0010
0000
,
0110
0000
1000
0000
,
0001
0000
1000
0000
,
0010
0010
0010
0010
,
1001
0000
1001
0000
,
0110
0000
0110
0000
,
0010
0010
0100
0100
,
1001
0000
1001
0000
,
0010
0000
0100
0000
,
0010
0000
0100
0000
,
1000
1000
0001
0001
,
0010
0001
0100
1000
,
0001
0000
1000
0000
,
0001
0000
1000
0000
,
0001
0001
0001
0001
,
1000
1000
1000
1000
,
0010
0010
0100
0100
,
0010
0100
0010
0100
,
0001
0000
1000
0000
,
0001
0001
1000
1000
,
1001
0000
0000
0000
,
0010
0010
0100
0100
,
1001
0000
0100
0000
,
0010
0010
0010
0010
,
0001
0000
1000
0000
,
0001
1000
0001
1000
,
0010
0010
0010
0010
,
1000
1000
0001
0001
;

//---------------dance-single - ----------------
#NOTES:
     dance-single:
     :
     Medium:
     5:
     :
0000
0000
0000
0000
,
0000
0000
0000
0000
,
0000
0000
0000
0000
,
0000
0000
0000
0000
,
0000
0000
0000
0000
,
0010
0010
0010
0010
,
1000
1000
1000
0001
,
1000
1000
0001
0001
,
0110
0100
1001
0100
,
0010
0001
1000
1000
,
0001
1000
0001
0000
1000
0000
0001
0000
,
1000
0001
1000
0000
0001
0000
1000
0000
,
0110
0000
1001
0000
,
0010
0000
0010
0000
1000
0001
0100
0000
,
0010
0000
0010
0000
0001
1000
0100
0000
,
0010
0010
0100
0100
,
1001
0100
0010
0001
,
1000
1000
0001
0001
,
1000
0001
1000
0100
0010
0000
1001
0000
,
0100
0100
1000
0001
,
0100
0100
0100
0100
,
0001
1000
0001
1000
0100
0000
0100
0000
,
1000
0001
1000
0001
0100
0000
0100
0000
,
0010
0010
1000
0001
,
0010
0001
0100
1000
0100
0000
0001
0000
,
1000
1000
0001
0100
,
0010
1000
0100
0001
0100
0000
1000
0000
,
0010
0010
1001
0100
,
0010
0001
1000
0010
,
0010
0000
1001
0000
,
0100
0100
1001
0100
,
0010
0010
0001
1000
,
0010
1000
0100
0000
0010
0001
0100
0000
,
1001
0100
1001
0000
,
0010
0010
1001
0000
,
0100
0100
1001
0000
,
1000
0100
0001
0000
0010
0001
0100
0000
,
0001
0001
1000
0100
,
0001
0100
1000
0000
0010
1000
0100
0000
,
1000
0000
0001
0000
,
1000
0001
0100
0010
1000
0001
0100
0000
,
0010
0010
1001
0000
,
0100
0100
1001
0000
,
0010
0010
1001
0000
,
0100
0100
1001
0000
,
0010
1000
0100
0000
0010
0001
0100
0000
,
1001
0100
1001
0000
,
0100
0100
1001
0000
,
0010
0010
1001
0100
;

//---------------dance-single - ----------------
#NOTES:
     dance-single:
     :
     Hard:
     7:
     :
0000
0000
0000
0000
,
0000
0000
0000
0000
,
0000
0000
0000
0000
,
0000
0000
0000
0000
,
0000
0000
0000
0000
,
0010
1000
0100
0010
0001
1000
0100
0000
,
0010
0001
0100
1000
0100
0001
0010
0000
,
0001
0001
0110
0000
1000
1000
0110
0000
,
1001
0100
0000
0010
0001
0000
1000
0000
,
0010
0010
0001
0000
1000
1000
0100
0000
,
0010
1000
0001
0100
0010
0010
0010
0000
,
1000
0100
0100
0000
0010
0001
0001
0000
,
1000
0001
0100
1000
0100
0001
0001
0000
,
1000
1000
0100
0000
0010
0010
0001
0000
,
1000
0001
1000
0001
0100
0010
0010
0000
,
0100
0001
1000
0100
1000
0010
0010
0000
,
1000
0100
0001
0010
1000
0100
0100
0000
,
1001
0100
0010
1001
,
0010
0000
0010
0000
1000
0001
0100
0000
,
0010
0010
1001
0000
0100
0010
0010
0000
,
1001
0100
0010
1001
0100
0010
0010
0000
,
0100
0000
0100
0000
0010
0010
0101
0000
,
0010
0000
0010
0000
0001
1000
0101
0000
,
1000
1000
0100
0000
0010
0001
1000
0100
,
0010
0001
1000
0010
1000
0100
0001
0100
,
1000
0001
1000
0001
1000
1000
1000
0000
,
0010
1000
0010
1000
0001
0010
0010
0000
,
0001
0010
0001
0010
0001
1000
0100
0000
,
0010
1000
0100
0000
0010
1000
0100
0000
,
0010
0001
0100
0000
0010
0001
0100
0000
,
0010
0100
0001
1000
0100
0010
0010
0000
,
1001
0100
0100
0000
1001
0100
0010
0000
,
1000
0100
0001
0100
1000
0010
0001
0010
,
1000
0100
0010
0001
0100
1000
0100
0001
,
1000
1000
0001
0001
0110
0100
0010
0001
,
0100
0100
1000
0001
1000
0001
0100
0100
,
0010
0100
1000
0001
0110
0110
0100
0000
,
1001
0000
0000
0000
,
0010
1000
0100
0000
0010
0001
0100
0000
,
1001
1001
0100
0000
1001
1001
0100
0000
,
0010
0010
0010
0010
1001
0000
0100
0100
,
1001
0100
0100
0100
,
0110
0001
0001
0001
,
0110
1000
1000
1000
,
0010
1000
0001
1000
0001
0010
0001
1000
,
0010
0010
1000
0100
0001
0100
1000
0001
,
0100
0100
0010
0010
,
1001
0100
1001
0000
0010
1001
0100
0000
,
0010
0000
0100
0000
0100
0100
0100
0000
;

//---------------dance-double - ----------------
#NOTES:
     dance-double:
     :
     Easy:
     3:
     :
00000000
00000000
00000000
00000000
,
00000000
00000000
00000000
00000000
,
00000000
00000000
00000000
00000000
,
00000000
00000000
00000000
00000000
,
00000000
00000000
00000000
00000000
,
00001000
00000000
00000000
00000000
,
00010000
00000000
00000000
00000000
,
00001000
00000000
00010000
00000000
,
00001000
00000100
00000001
00000001
,
00000010
00000000
00001000
00000000
,
00010000
00000000
00001000
00000000
,
00010000
00000000
00100000
00000000
,
01000000
00000000
00100000
00010000
,
00001000
00010000
01000000
00010000
,
00001000
00000000
00010000
00000000
,
00001000
00000000
00000100
00000000
,
00000001
00001000
00010000
00010000
,
00011000
00000000
10010000
00000000
,
00100000
00100000
00010000
00001000
,
00010000
00000000
00001000
00000000
,
00000010
00000010
00001000
00000001
,
00001001
00000000
00010000
00000000
,
01100000
00000000
10010000
00000000
,
00011000
00000000
00001001
00000000
,
00000010
00000010
00001000
00001000
,
00011000
00000000
00010000
00000000
,
00000110
00000000
00011000
00000000
,
00100000
00100000
01000000
00010000
,
00011000
00000000
00011000
00000000
,
00100000
00000000
00010000
00000000
,
00001000
00000000
00000100
00000000
,
00001000
00001000
00000001
00000001
,
00000010
00000001
00000100
00001000
,
00010000
00000000
10000000
00000000
,
00010000
00000000
01000000
00000000
,
00010000
00010000
00010000
00010000
,
10000000
10000000
01000000
00010000
,
00001000
00001000
00000100
00000100
,
00000010
00000100
00000010
00001000
,
00010000
00000000
00001000
00000000
,
00010000
00010000
00001000
00001000
,
00011000
00000000
00000000
00000000
,
00100000
00100000
00010000
00001000
,
00011000
00000000
00011000
00000000
,
00001000
00001000
00010000
00010000
,
00001000
00000000
00010000
00000000
,
00001000
00010000
00001000
00000100
,
00000010
00000010
00000010
00000010
,
00001000
00001000
00000100
00000100
;

//---------------dance-double - ----------------
#NOTES:
     dance-double:
     :
     Medium:
     5:
     :
00000000
00000000
00000000
00000000
,
00000000
00000000
00000000
00000000
,
00000000
00000000
00000000
00000000
,
00000000
00000000
00000000
00000000
,
00000000
00000000
00000000
00000000
,
00100000
00100000
00001000
00001000
,
00010000
00010000
00001000
00000100
,
00000001
00000001
00001000
00001000
,
00000110
00001000
00011000
01000000
,
00100000
10000000
00010000
01000000
,
00010000
00100000
00001000
00000000
00010000
00000000
00001000
00000000
,
00010000
00001000
00000100
00000000
00000001
00000000
00001000
00000000
,
00000110
00000000
00011000
00000000
,
00100000
00000000
00100000
00000000
00010000
00001000
00000100
00000000
,
00000001
00000000
00000010
00000000
00001000
00010000
00001000
00000000
,
00100000
00100000
00010000
00010000
,
00011000
00000100
00000001
00001000
,
00000100
00000100
00010000
00001000
,
00010000
00001000
00010000
01000000
10000000
00000000
01100000
00000000
,
01000000
00100000
00010000
00001000
,
00000100
00000100
00000100
00000100
,
00010000
00001000
00010000
00001000
00000100
00000000
00000100
00000000
,
00001000
00000001
00001000
00000001
00000100
00000000
00000100
00000000
,
00000010
00000010
00010000
00001000
,
00100000
00010000
00000100
00001000
00000100
00000000
00000001
00000000
,
00001000
00001000
00010000
01000000
,
10000000
00010000
01000000
00010000
01000000
00000000
00010000
00000000
,
00100000
00100000
00001000
00010000
,
00001000
00010000
00001000
00000100
,
00000001
00000000
00001001
00000000
,
00001000
00001000
00011000
01000000
,
00100000
00100000
00010000
01000000
,
00100000
10000000
01000000
00000000
00100000
00010000
00001000
00000000
,
00000001
00000100
00001001
00000000
,
00001000
00010000
00011000
00000000
,
01000000
01000000
10010000
00000000
,
10000000
01000000
00010000
00000000
00000010
00000001
00000100
00000000
,
00000001
00001000
00000001
00000100
,
00010000
00100000
10000000
00000000
00100000
00010000
00001000
00000000
,
00010000
00000000
00011000
00000000
,
00001000
00010000
00001000
00010000
00001000
00010000
00000100
00000000
,
00001000
00001000
00000110
00000000
,
00010000
00010000
00011000
00000000
,
00001000
00001000
00011000
00000000
,
01000000
01000000
10010000
00000000
,
00100000
10000000
01000000
00000000
00100000
00010000
00001000
00000000
,
00001001
00000100
00011000
00000000
,
01000000
00100000
00011000
00000000
,
00100000
00100000
00011000
00001000
;

//---------------dance-double - ----------------
#NOTES:
     dance-double:
     :
     Hard:
     8:
     :
00000000
00000000
00000000
00000000
,
00000000
00000000
00000000
00000000
,
00000000
00000000
00000000
00000000
,
00000000
00000000
00000000
00000000
,
00000000
00000000
00000000
00000000
,
00100000
10000000
01000000
00100000
00010000
00001000
00000100
00000000
,
00010000
00001000
00000100
00000001
00000100
00000001
00001000
00000000
,
00000010
00000010
00001000
00000000
00000100
00000100
00010000
00000000
,
00001000
00010000
00000000
00100000
00010000
00000000
00001000
00000000
,
00010000
00010000
00001000
00000000
00010000
00010000
01000000
00000000
,
10000000
01000000
00010000
01000000
10000000
10000000
00100000
00000000
,
00010000
00001000
00001000
00000000
00010000
00001000
00001000
00000000
,
00010000
00001000
00000100
00000001
00000100
00000001
00000001
00000000
,
00001000
00001000
00000010
00000000
00000010
00001000
00000100
00000000
,
00010000
00001000
00010000
01000000
10000000
00100000
00100000
00000000
,
01000000
00010000
00100000
00010000
01000000
00100000
00100000
00000000
,
10000000
01000000
00010000
00001000
00000100
00000001
00000001
00000000
,
00000010
00000100
00001000
00011000
,
00100000
00000000
00100000
00000000
00001000
00010000
00001000
00000000
,
00100000
00100000
00010000
00000000
00001000
00000010
00000010
00000000
,
00000001
00000100
00000010
00000001
00000010
00001000
00001000
00000000
,
00000100
00000000
00000100
00000000
00010000
00001000
00010000
00000000
,
00001000
00000000
00001000
00000000
00010000
00001000
00000100
00000000
,
00001000
00001000
00010000
00000000
00001000
00010000
01000000
10000000
,
01000000
10000000
00010000
00100000
00001000
00010000
00001000
00000100
,
00000001
00001000
00000100
00000001
00000100
00001000
00000010
00000000
,
00000010
00001000
00000010
00010000
00001000
00010000
00010000
00000000
,
00001000
00100000
00010000
00100000
00010000
10000000
01000000
00000000
,
00100000
00001000
00000100
00000000
00010000
00001000
00010000
00000000
,
00000010
00000001
00000100
00000000
00000010
00001000
00000100
00000000
,
00001000
00010000
01000000
10000000
01000000
00100000
00100000
00000000
,
00011000
00000100
00000100
00000000
00001001
00000100
00000010
00000000
,
00001000
00000100
00010000
00001000
00010000
01000000
10000000
00100000
,
00001000
00000100
00000010
00000001
00000100
00001000
00000100
00000001
,
00001000
00001000
00000001
00000001
00001000
00000100
00010000
00001000
,
00010000
00010000
00001000
00010000
01000000
00010000
00001000
00001000
,
00011000
00000100
00000001
00001000
00000110
00000001
00000100
00000000
,
00001001
00000000
00000000
00000000
,
00100000
00010000
00001000
00000000
00010000
00001000
00000100
00000000
,
00001000
00001000
00010000
00000000
00011000
00001000
00000100
00000000
,
00000010
00000010
00000010
00000010
00001000
00000000
01000000
10000000
,
01100000
00010000
00010000
00010000
,
00011000
00000100
00000100
00000100
,
00011000
00010000
01000000
01000000
,
00100000
00010000
00001000
00001000
00010000
01000000
00010000
00001000
,
00000100
00001000
00010000
00001000
00010000
00001000
00000100
00000001
,
00001000
00000100
00010000
00010000
,
10010000
01000000
00010000
00000000
00000010
00001001
00000100
00000000
,
00000010
00000000
00000100
00000000
00001000
00010000
00001000
00000000
;
