#TITLE:Video Killed The Radio Star;
#ARTIST:The Buggles;
#BANNER:Video Killed The Radio Star.png;
#BACKGROUND:Video Killed The Radio Star-bg.png;
#CDTITLE:./CDTITLES/UNIVERSAL.PNG;
#MUSIC:Video Killed The Radio Star.ogg;
#SAMPLESTART:20.2;
#SAMPLELENGTH:15;
#DISPLAYBPM:130;
#BPMS:0=130.74;
#BGCHANGES:4=Video Killed The Radio Star.avi=1=0=0=1,186=Video Killed The Radio Star-bg.png=1=0=0=1;

//---------------dance-single - ----------------
#NOTES:
     dance-single:
     :
     Beginner:
     1:
     :
0000
0000
0000
0000
,
0000
0000
0000
0000
,
0000
0000
0000
0000
,
0000
0000
0000
0000
,
0000
0000
0000
0000
,
0001
0000
0001
0000
,
0001
0000
0001
0000
,
1000
0000
1000
0000
,
0001
0000
0001
0000
,
0010
0000
0010
0000
,
0100
0000
0100
0000
,
1000
0000
0010
0000
,
1000
1000
1000
0000
,
0010
0000
0100
0000
,
0100
0100
0100
0000
,
1000
0000
0100
0000
,
0010
0000
0001
0000
,
0100
0000
0001
0001
,
0001
0000
0000
0000
,
1000
0000
1000
0000
,
0001
0000
0001
0000
,
0010
0000
0010
0000
,
0100
0000
0100
0000
,
1000
0000
0100
0000
,
0001
0000
0010
0000
,
1001
0000
1001
0000
,
1000
0000
0001
0000
,
0110
0000
0110
0000
,
0010
0000
0100
0000
,
1000
0000
0001
0000
,
1000
1000
1000
0000
,
0001
0000
1000
0000
,
0001
0001
0001
0000
,
1000
0000
0100
0000
,
0010
0000
0001
0000
,
0010
0000
0100
0000
,
1000
0000
0001
0000
,
1000
0000
0010
0010
,
0010
0000
0000
0000
,
0001
0000
0100
0100
,
0100
0000
0000
0000
,
1000
0000
0001
0000
,
0100
0000
0010
0000
,
1000
0000
0001
0000
,
0010
0000
0100
0000
,
1000
0000
1000
0000
,
0001
0000
0001
0000
;

//---------------dance-single - ----------------
#NOTES:
     dance-single:
     :
     Easy:
     3:
     :
0000
0000
0000
0000
,
0000
0000
0000
0000
,
0000
0000
0000
0000
,
0000
0000
0000
0000
,
0000
0000
0000
0000
,
0001
0000
0001
0000
,
1000
0000
1000
0000
,
0001
0010
0001
0010
,
0001
0000
0001
0000
,
1000
0100
1000
0100
,
0010
0000
0010
0000
,
0001
1000
0001
1000
,
0100
1000
0100
1000
,
0001
1000
0001
1000
,
0100
1000
0100
1000
,
0010
0100
0001
1000
,
0010
0100
0010
0100
,
0001
0000
0100
0000
,
0001
0010
0100
1000
,
0001
0000
0001
0000
,
1000
0000
1000
0000
,
0010
0000
0010
0000
,
0100
0000
0100
0000
,
0001
0010
0100
1000
,
0010
1000
0100
1000
,
1001
0000
1001
0000
,
1000
0100
0010
0001
,
1001
0000
1001
0000
,
0010
0100
0001
1000
,
1000
0001
1000
0001
,
0010
0001
1000
0100
,
1000
0001
1000
0001
,
0100
0001
0010
0001
,
1000
0000
0100
0000
,
0010
0000
0001
0000
,
0100
0000
0010
0000
,
1000
0000
0001
0000
,
1000
1000
0001
0001
,
1000
0100
0010
0001
,
1000
1000
0001
0001
,
1000
0100
0010
0001
,
1000
0001
1000
0001
,
0100
0010
0100
0010
,
1000
0000
1000
0000
,
0001
0000
0001
0000
,
0100
0000
0100
0000
,
0010
0000
0010
0000
;

//---------------dance-single - ----------------
#NOTES:
     dance-single:
     :
     Medium:
     5:
     :
0000
0000
0000
0000
,
0000
0000
0000
0000
,
0000
0000
0000
0000
,
0000
0000
0000
0000
,
0000
0000
0000
0000
,
1000
1000
0001
0001
,
1000
0100
0010
0001
,
1000
0000
0001
1000
0000
0001
0000
0000
,
1000
0100
0010
0001
,
1000
0000
0001
1000
0000
0001
0000
0000
,
1000
0100
0010
0001
,
0010
0010
0001
1000
,
0100
0100
1000
0001
,
0010
0010
0001
1000
,
0100
0100
1000
0001
,
1000
0000
0100
0000
,
0010
0000
0001
0000
,
1000
0000
0000
0100
1000
0100
0000
1000
,
0000
0000
0001
0000
,
1000
0000
0000
0010
0000
0000
1000
0000
,
0000
1000
0000
0000
1000
0000
0001
0000
,
0100
0000
0000
0001
0000
0000
0010
0000
,
0000
0010
0000
0000
0010
0000
0001
0000
,
1000
0000
0000
0100
0000
0000
1000
0000
,
0000
0010
0000
0000
1000
0000
0001
0000
,
0001
0000
0100
0001
0000
0100
0000
0000
,
0001
0001
0001
0000
1000
1000
1000
0000
,
0010
0000
1000
0010
0000
1000
0000
0000
,
0001
0001
0001
0000
1000
1000
1000
0000
,
0001
0010
0100
1000
,
0010
0100
0001
1000
,
0001
0010
0100
1000
,
0010
0100
0001
1000
,
0001
0001
0001
0000
1000
1000
1000
0000
,
0001
0001
0001
0000
1000
1000
1000
0000
,
0001
0000
0010
0000
,
0100
0000
1000
0000
,
0001
0000
0000
0010
0001
0010
0000
0001
,
0000
0000
0001
0000
,
1000
0000
0000
0100
1000
0100
0000
1000
,
0000
0000
0001
0000
,
1000
0100
1000
0100
,
0010
0000
0001
0000
1000
0001
0001
0000
,
1000
0100
1000
0100
,
0010
0000
0001
0000
0010
0100
0100
0000
,
1000
0001
0010
0100
,
1000
0100
0010
0000
;

//---------------dance-single - ----------------
#NOTES:
     dance-single:
     :
     Hard:
     6:
     :
0000
0000
0000
0000
,
0000
0000
0000
0000
,
0000
0000
0000
0000
,
0000
0000
0000
0000
,
0000
0000
0000
0000
,
1000
0001
1000
0001
,
1000
0001
1000
0001
,
1000
0000
0010
1000
0000
0010
0100
0100
,
0001
0000
1000
0000
0010
0100
0010
0000
,
1000
0000
0100
1000
0000
0100
0010
0010
,
0001
0000
1000
0000
0100
1000
0010
0000
,
1000
0100
1000
0100
0010
0001
0010
0001
,
1000
0100
0100
0100
,
0010
0001
0010
0001
1000
0100
1000
0100
,
0010
0001
0001
0001
,
1000
0100
0000
1000
0000
0000
0010
0100
,
0010
1000
0000
0001
0000
0000
0000
0000
,
1000
0100
1000
0010
,
1000
0001
1000
0001
1000
0001
1000
0001
,
1000
0100
0001
0100
,
0010
1000
0100
1001
,
0010
1000
0100
0001
,
1000
0100
0010
1001
,
0010
0001
1000
0100
,
0010
0001
0100
1001
,
0010
0000
0001
0010
0001
0000
0010
0001
,
1000
0000
0100
1000
0100
0000
1000
0100
,
0001
0000
0010
0001
0010
0000
0001
0010
,
0100
0000
1000
0100
1000
0000
0100
1000
,
0001
1000
1001
1001
,
0100
0010
0110
0110
,
1000
0001
1001
1001
,
0010
0100
0110
0110
,
1000
0100
1000
0100
1000
0100
1000
0100
,
1000
0000
0001
0000
,
0010
0001
0010
0001
0010
0001
0010
0001
,
0010
0000
0001
0000
,
1000
0100
0010
0001
,
0010
0100
1000
1001
,
0001
0010
0100
1000
,
0100
0010
0001
1001
,
0100
0010
1000
0001
,
0100
0000
1000
0000
0001
0100
0100
0000
,
0001
1000
0100
0010
,
0001
0010
0001
0010
0000
0100
0100
0000
,
0001
0010
0100
1000
,
0100
1000
0100
0000
;

//---------------dance-single - ----------------
#NOTES:
     dance-single:
     :
     Challenge:
     8:
     :
0000
0000
0000
0000
,
0000
0000
0000
0000
,
0000
0000
0000
0000
,
0000
0000
0000
0000
,
0000
0000
0000
0000
,
1000
0010
0001
0000
1000
0010
0001
0000
,
1000
0010
0001
0010
1000
0000
1001
0000
,
2000
0000
3010
2000
0000
3100
0010
0000
,
0001
0010
1000
0100
0010
0000
0011
0000
,
0002
0000
0103
0002
0000
0013
0100
0000
,
0001
0100
1000
0010
0100
0000
0110
0000
,
0001
0100
0001
0100
1000
0100
0001
0010
,
0100
1000
0001
0000
1010
0001
0010
0000
,
1000
0100
1000
0100
0001
0100
1000
0010
,
0100
0001
1000
0000
0101
1000
0100
0000
,
1000
0100
1000
0010
0100
0001
1000
0010
,
0001
1000
0100
0010
0000
0100
0101
0000
,
1002
0000
0013
0100
1000
0020
0130
0020
,
0030
0100
1000
0100
0001
0010
1001
0000
,
1000
0010
0001
0010
1000
0100
0001
0100
,
0010
0001
0010
1000
0100
0000
0101
0000
,
0001
0010
1000
0010
0001
0100
1000
0100
,
0010
1000
0010
0001
0010
0000
1100
0000
,
1000
0100
0001
1000
0010
0001
1000
0010
,
0100
0001
1000
0010
0001
0000
0110
0000
,
0020
0000
1030
0020
0000
0031
1000
0100
,
0001
0010
1000
0100
0010
0000
1100
0000
,
0020
0000
0031
0020
0000
1030
0010
0001
,
0100
1000
0010
0100
0010
0000
0100
1000
,
1000
0100
0001
0010
0001
1000
0100
0001
,
0001
0100
1000
0010
1001
0001
0101
0000
,
0001
0100
1000
0010
1000
0100
0001
1000
,
1000
0100
0001
0010
1001
1000
1100
0000
,
0010
0001
1000
0001
0100
0001
1000
0001
,
0010
0001
1000
0100
0001
0010
0110
0000
,
0010
1000
0001
1000
0100
1000
0001
1000
,
0010
1000
0001
0100
0001
1000
0100
0010
,
1002
0000
0013
0100
1000
0020
0130
0020
,
0030
0100
1000
0100
0001
0010
1001
0000
,
2001
0000
3100
0010
0001
0200
0310
0200
,
0300
0010
0001
0010
1000
0100
1001
0000
,
0100
0010
0100
0002
0010
2003
0100
3002
,
0010
2003
0000
3010
0000
0101
1100
0000
,
0010
0100
0010
0002
0100
2003
0010
3002
,
0100
0013
0001
0010
0000
0011
1010
0000
,
0001
0010
0100
1010
0100
0001
0010
1100
,
0001
1000
0010
1001
0000
0000
0000
0000
;

//---------------dance-double - ----------------
#NOTES:
     dance-double:
     :
     Easy:
     4:
     :
00000000
00000000
00000000
00000000
,
00000000
00000000
00000000
00000000
,
00000000
00000000
00000000
00000000
,
00000000
00000000
00000000
00000000
,
00000000
00000000
00000000
00000000
,
10000000
00000000
10000000
00000000
,
00010000
00000000
00010000
00000000
,
00100000
00000000
00001000
00000000
,
00010000
00000100
00000010
00000001
,
00001000
00000000
00000001
00000000
,
00000001
00000010
00000100
00010000
,
00001000
00100000
00010000
10000000
,
10000000
01000000
00100000
00100000
,
00001000
00010000
00000010
00001000
,
00000001
00000100
00000010
00000010
,
00010000
00000000
00001000
00000000
,
00100000
00000000
00001000
00000000
,
00010000
00000000
00000010
00001000
,
00000100
00000000
00000100
00000000
,
00010000
00001000
00010000
00000100
,
00010000
00001000
01000000
00100000
,
10000000
00010000
10000000
00100000
,
01000000
00001000
00010000
00000010
,
00001000
00000001
00000100
00000010
,
00010000
00001000
00010000
00001000
,
00010000
00000000
00000010
00000000
,
00010000
00001000
00010000
00001000
,
00100000
00000000
01000000
00000000
,
10000000
00100000
01000000
00010000
,
10000000
00100000
01000000
00001000
,
00100000
00010000
01000000
01000000
,
00001000
00010000
00000010
00001000
,
00000001
00000010
00000100
00000100
,
00010000
00000000
00000010
00000000
,
00000100
00000000
00000001
00000000
,
00001000
00000000
00000010
00000000
,
00010000
00000000
00001000
00000000
,
01000000
01000000
01000000
01000000
,
00001000
00001000
00001000
00001000
,
01000000
00100000
10000000
00010000
,
01000000
00001000
00010000
00000010
,
00000100
00000000
00000001
00000000
,
00001000
00000000
00000000
00000000
00000000
00000100
00001000
00000000
,
00000100
00000000
00010000
00000000
,
00000100
00000000
00000000
00000000
00000000
00010000
00001000
00000000
,
00010000
00000100
00010000
00001000
,
01000000
00010000
01000000
00000000
;

//---------------dance-double - ----------------
#NOTES:
     dance-double:
     :
     Medium:
     5:
     :
00000000
00000000
00000000
00000000
,
00000000
00000000
00000000
00000000
,
00000000
00000000
00000000
00000000
,
00000000
00000000
00000000
00000000
,
00000000
00000000
00000000
00000000
,
10000000
10000000
10000000
10000000
,
00100000
00100000
00100000
00100000
,
01000000
00000000
00001000
00000000
01000000
00001000
01000000
00000000
,
00001000
00001000
00010000
00010000
,
00000010
00000000
00001000
00000000
00000010
00001000
00000010
00000000
,
00010000
00010000
00001000
00001000
,
01000000
00010000
10000000
10010000
,
00001000
00010000
00000100
00000100
,
00001000
00000001
00000100
00000110
,
00000010
00010000
00001000
00001000
,
00100000
00100000
01000000
01000000
,
10000000
10000000
00010000
00010000
,
00001000
00000000
00000000
00000100
00010000
00001000
00000000
00010000
,
00000000
00000010
00000100
00000001
,
00001000
00000100
00001000
00000100
00001000
00000100
00001000
00000100
,
00001000
00000000
00000001
00000000
,
00000010
00000100
00000010
00000100
00000010
00000100
00000010
00000100
,
00000010
00000000
00000100
00000000
,
00010000
00001000
00010000
00001000
00010000
00001000
00010000
00001000
,
00010000
00000000
00001000
00100000
,
00010000
00010000
10000000
00000000
10000000
00000000
01000000
00000000
,
10000000
00100000
01000000
10000000
,
01000000
01000000
00100000
00000000
00010000
00000000
10000000
00000000
,
00100000
01000000
00001000
00100000
,
00001000
00011000
00000010
00011000
,
01000000
00001000
00010000
00000010
,
00001000
00001001
00001000
00000110
,
00000100
00000010
00010000
00000100
,
00010000
00001000
00010000
00001000
00010000
00001000
00010000
00001000
,
01000000
00001000
01000000
00001000
01000000
00001000
01000000
00001000
,
01000000
00000000
00001000
00000000
,
00010000
00000000
00000010
00000000
,
00010000
00000000
00001000
00000000
,
01000000
00000000
00010000
00000000
,
01000000
01000000
00010000
00010000
,
10000000
10000000
00100000
00100000
,
01000000
00001000
00010000
00000010
,
00001000
00000100
00000010
00000000
,
00000100
00000010
00010000
00001000
,
01000000
00001000
00010000
00000000
,
00001000
00000100
00000010
00000001
,
00000100
00000010
00010000
00000000
;

//---------------dance-double - ----------------
#NOTES:
     dance-double:
     :
     Hard:
     6:
     :
00000000
00000000
00000000
00000000
,
00000000
00000000
00000000
00000000
,
00000000
00000000
00000000
00000000
,
00000000
00000000
00000000
00000000
,
00000000
00000000
00000000
00000000
,
10000000
10000000
00100000
01000000
,
00001000
00010000
00000010
00001000
,
00000001
00000100
00000100
00000100
00000001
00000000
00001000
00000000
,
00000100
00000010
00000001
00001000
,
00000100
00010000
00010000
00010000
00000010
00000000
00000100
00000000
,
00000001
00001000
00000100
00010000
,
00000010
00000100
00000010
00000100
00000001
00000100
00000001
00000100
,
00000010
00010000
00001000
00010000
,
00001000
00010000
00001000
00010000
00000100
00010000
00000100
00010000
,
00000100
00010000
00001000
00100000
,
00010000
00000000
10000000
00000000
,
00100000
00000000
01000000
00000000
,
00001000
00001000
00010000
00010000
,
00000010
00001000
00000100
00001001
,
00000010
00000000
00000000
00000001
00000001
00000000
00000000
00000010
,
00000010
00000000
00000100
00001000
00000100
00000000
00010000
00000000
,
00001000
00000000
00000000
00010000
00010000
00000000
00000000
00001000
,
00001000
00000000
01000000
00010000
01000000
00000000
00100000
00000000
,
10000000
00000000
00000000
00010000
00010000
00000000
00000000
01000000
,
01000000
00000000
00001000
00010000
00000100
00000000
00000010
00000000
,
00000000
00000001
00000000
00001000
00000000
00001000
00000000
00000010
,
00000000
00010000
00000000
00001000
00000000
01000000
00000000
00010000
,
00000000
01000000
00000000
00010000
00000000
10000000
00000000
00010000
,
00000000
00100000
00000000
01000000
00000000
10000000
00000000
00010000
,
00100000
00001000
00010000
00000010
,
00001000
00000100
00011000
00011000
,
01000000
00010000
00100000
00001000
,
00010000
00000010
00000101
00000101
,
00000010
00001000
00000010
00001000
00000010
00000100
00000010
00000100
,
00000001
00000100
00000001
00000100
00000001
00001000
00000001
00001000
,
00000001
00000000
00000010
00000000
,
00000001
00000000
00001000
00000000
,
00000100
00000000
00000000
00010000
00001000
00010000
00000000
01000000
,
00000000
00000000
00010000
10000000
,
00100000
00000000
00000000
01000000
00010000
01000000
00000000
00100000
,
00000000
00000000
00000000
00000000
,
01000000
00010000
01000000
00010000
00000000
00100000
00000000
00001000
,
00000000
00010000
00000000
00000010
00000000
00001000
00000100
00000000
,
00010000
00001000
00010000
00001000
00000000
00100000
00000000
00001000
,
00000000
01000000
00010000
01000000
00000000
00001000
00010000
00000000
,
00000100
00001000
00000100
00001000
00000000
00000010
00000000
00010000
,
00000000
00000100
00000000
00010000
00000000
00000000
00000000
00000000
;

//---------------dance-double - ----------------
#NOTES:
     dance-double:
     :
     Challenge:
     8:
     :
00000000
00000000
00000000
00000000
,
00000000
00000000
00000000
00000000
,
00000000
00000000
00000000
00000000
,
00000000
00000000
00000000
00000000
,
00000000
00000000
00000000
00000000
,
00000010
00000001
00000100
00001000
,
00010000
00000000
01000000
00000000
00100000
00010000
10000000
00010000
,
01100000
00000000
00100000
10010000
00000000
01010000
00000000
00100000
,
10000000
00100000
00010000
00001000
00000010
00000001
00000010
00001000
,
00000110
00000000
00001000
00001100
00000000
00000011
00000000
00000100
,
00000001
00000000
00000100
00000000
00001000
00000000
00010000
00000000
01000000
00000000
00000000
10000000
01000000
00000000
10010000
00000000
,
01000000
10000000
00100000
01000000
00010000
00100000
00001000
00100000
,
00001000
00000100
00000010
00001000
00000010
00000000
00001001
00000000
,
00010000
00000100
00000010
00000001
00000100
00001000
00010000
00100000
,
00010000
00000100
00001000
00000100
00000010
00000000
00000101
00000000
,
00000010
00000001
00000100
00001000
00000000
00010000
01000000
10000000
,
00100000
00000000
10000000
00000000
01000000
00000000
00100000
00010000
01000000
00000000
00000000
00001000
00010000
00000000
00010000
00000000
,
00010200
00000000
00000000
00001000
00001000
00001000
00000000
00000310
,
00000000
00000001
00001000
00000100
00000010
00001000
00010000
00100000
,
01000000
00100000
00010000
00001000
00100000
01000000
00010000
01000000
,
00001000
01000000
00100000
01000000
00010000
00000000
10010000
10000000
,
00100000
01000000
00010000
01000000
00001000
00010000
00001000
00000100
,
00000010
00001000
00010000
00001000
00000010
00000000
00001001
00000100
,
00000010
00001000
00000001
00000100
00001000
00010000
00100000
10000000
,
01000000
00100000
00001000
00010000
01000000
00000000
10010000
00000000
,
01100000
00000000
00100000
10010000
00000000
01010000
00000000
00100000
,
10000000
00100000
00010000
00001000
00000010
00000001
00000010
00001000
,
00000110
00000000
00001000
00001100
00000000
00000011
00000000
00000100
,
00000001
00000100
00001000
00010000
01000000
10000000
00100000
00000000
,
01000000
10000000
00100000
01000000
00010000
00100000
00001000
00100000
,
00001000
00000100
00000010
00001000
00000010
00000000
00001001
00000000
,
00010000
00000100
00000010
00000001
00000100
00001000
00010000
00100000
,
00010000
00000100
00001000
00000100
00000010
00000000
00000101
00000000
,
00000010
00000100
00001000
00010000
00000000
00001000
00010000
00100000
,
01000000
10000000
01000000
00010000
00000000
00100000
00001000
00010000
,
00002000
00000000
01000000
00000000
00010000
00000000
00103000
00010000
,
10000000
01000000
00100000
00001000
00010000
00001000
00000100
00000001
,
00000200
00000000
00000000
00010000
00010000
00010000
00000000
00001300
,
00000000
00000010
00000001
00000100
00001000
00010000
01000000
10000000
,
00200000
00000000
00000000
00010000
00010000
00010000
00000000
01300000
,
00000000
00000000
10000000
00000000
01000000
00000000
00100000
00000000
00001000
00000000
00010000
00000100
00001000
00000000
00000010
00000000
,
00000100
00000100
00000010
00000101
00000000
00010100
00001000
00010100
,
00000000
00011000
00010000
00011000
00000000
00001000
00100000
00010000
,
01000000
00100000
00010000
01100000
00000000
10010000
01000000
10010000
,
00000000
01001000
00010000
01001000
00000000
00100000
00010000
00001000
,
00010000
00000100
00010000
00011000
00000000
00010100
00001000
00010100
,
00000000
00000110
00001001
00000010
00001000
00000000
00000000
00000000
;
