#TITLE:So Good;
#ARTIST:Boyzone;
#BANNER:So Good.png;
#BACKGROUND:So Good-bg.png;
#CDTITLE:./CDTITLES/UNIVERSAL.PNG;
#MUSIC:So Good.ogg;
#SAMPLESTART:2.474;
#SAMPLELENGTH:15;
#DISPLAYBPM:106;
#BPMS:0=106.38,40=105.93,72=105.98,104=105.74,136=106.06;

//---------------dance-single - ----------------
#NOTES:
     dance-single:
     :
     Beginner:
     1:
     :
0000
0000
0000
0000
,
0000
0000
0000
0000
,
0000
0000
0000
0000
,
0000
0000
0000
0000
,
1000
0000
1000
0000
,
0001
0000
0001
0000
,
1000
1000
0000
0000
,
0001
0001
0000
0000
,
0010
0000
0100
0000
,
0010
0000
0100
0000
,
0001
0000
0100
0000
,
1000
0000
0100
0000
,
0010
0000
0010
0000
,
0001
0000
1000
0000
,
0001
0000
0010
0000
,
0001
0000
0100
0000
,
1000
0000
0010
0000
,
1000
0000
0100
0000
,
1000
1000
1000
0000
,
0001
0001
0001
0000
,
1000
0000
1000
0000
,
0001
0000
0001
0000
,
1001
0000
0100
0000
,
0100
0000
0100
0000
,
0001
0001
0000
0000
,
1000
1000
0000
0000
,
1001
0000
0010
0000
,
0100
0100
0000
0000
,
0001
0000
1000
0000
,
0001
0000
1000
0000
,
0001
0001
0001
0000
,
1000
1000
1000
0000
,
0010
0010
0010
0000
,
0100
0100
0100
0100
,
0000
0001
0000
1000
,
0000
0001
0000
1000
,
0000
0010
0000
0100
,
0000
0001
0000
0001
,
0000
1000
0000
1000
,
0000
0001
0000
1000
,
0000
0010
0000
0100
,
0000
0100
0000
0010
,
0010
0010
0010
0010
;

//---------------dance-single - ----------------
#NOTES:
     dance-single:
     :
     Easy:
     2:
     :
0000
0000
0000
0000
,
0000
0000
0000
0000
,
0000
0000
0000
0000
,
0000
0000
0000
0000
,
1000
0000
1000
0000
,
0001
0000
0001
0000
,
1000
1000
0100
0100
,
0001
0001
0100
0100
,
1000
1000
0001
0001
,
1000
0000
0001
0000
,
0010
0000
0010
0000
,
0100
0000
0100
0000
,
0001
0000
0001
0000
,
1000
1000
1000
1000
,
0001
0100
0100
0000
,
1000
0100
0100
0000
,
0001
0001
1000
1000
,
0010
0010
0100
0100
,
0001
1000
0001
0100
,
1000
0001
1000
0100
,
0001
0001
1000
1000
,
0001
1000
0001
0100
,
1001
0000
0001
1000
,
1001
0000
1000
0100
,
1000
0100
0001
0100
,
0010
0010
0010
0010
,
1001
0000
1000
1000
,
0001
0000
1000
0000
,
0010
0000
0100
0000
,
0001
0000
1000
0000
,
0001
0001
0001
0100
,
1000
1000
1000
0100
,
0001
0001
1000
1000
,
0010
0010
0010
0010
,
1001
0000
0010
0010
,
1000
0100
1000
0100
,
0001
0100
0001
0100
,
1000
1000
0001
0001
,
1000
0001
0100
0100
,
0001
1000
0100
0100
,
1000
0000
0001
0000
,
0010
0010
0010
0010
,
0100
0100
0100
0100
;

//---------------dance-single - ----------------
#NOTES:
     dance-single:
     :
     Medium:
     4:
     :
0000
0000
0000
0000
,
0000
0000
0000
0000
,
0000
0000
0000
0000
,
0000
0000
0000
0000
,
1000
0000
0100
0000
0001
0001
0100
0000
,
0001
0000
0100
0000
1000
1000
0100
0000
,
0010
0010
1000
0100
,
0010
0010
0001
0100
,
1000
0100
0001
0010
,
1000
0100
0001
0010
,
1000
0000
0100
0000
0001
0001
0100
0000
,
0001
0000
0100
0000
1000
1000
0100
0000
,
0010
1000
0001
0100
,
0010
0010
0100
0100
,
0001
0100
1000
0100
,
0001
0100
1000
0100
,
0001
1000
0010
0010
,
0100
0100
0001
1000
,
0001
0100
0010
1000
,
0001
0100
0010
1000
,
0001
0100
1000
0100
,
0001
1000
0010
0010
,
1001
0000
0100
0000
0001
0001
0100
0000
,
1000
0000
0100
0000
0001
0001
0100
0000
,
1000
0000
0100
0000
0001
0001
0100
0000
,
1000
0100
0010
0010
,
1001
0000
0100
0000
0010
0010
0100
0000
,
0001
0000
0100
0000
1000
1000
0100
0000
,
0001
0000
0100
0000
1000
1000
0100
0000
,
0001
0000
0100
0000
1000
0001
1000
0000
,
0100
0000
0100
0000
0100
0100
0100
0000
,
0010
0000
0010
0000
0010
0010
0010
0000
,
0001
0000
1000
0000
0001
0001
0100
0000
,
1000
0000
1000
0000
1000
1000
0100
0000
,
1001
0100
0010
0010
,
1000
0001
0010
0010
,
0001
1000
0100
0100
,
0010
0001
0001
0100
,
1000
0000
0100
0000
0001
0001
0100
0000
,
1000
0000
0100
0000
0001
0001
0100
0000
,
1000
1000
0001
0001
,
0010
0010
1000
0100
,
1000
1000
1000
1000
;

//---------------dance-single - ----------------
#NOTES:
     dance-single:
     :
     Hard:
     7:
     :
0000
0000
0000
0000
,
0000
0000
0000
0000
,
0000
0000
0000
0000
,
0000
0000
0000
0000
,
1000
0000
0100
1000
0000
0001
0100
0000
,
0001
0000
0100
0001
0000
1000
0100
0000
,
0110
0000
0000
1000
0000
0100
0100
0000
,
0010
0000
0000
0001
0000
0100
0100
0000
,
1000
0000
0000
0100
0000
0001
0100
0000
,
1000
0000
0000
0001
0000
0000
1000
0000
,
1000
0000
0100
0000
0001
0001
0000
0010
,
0010
0000
0100
0000
1000
1000
0000
0001
,
0001
0000
1000
0000
0001
0100
0000
0010
,
0000
0010
0000
0010
0010
1000
0100
0000
,
0001
0000
0000
0000
1000
1000
0000
0000
,
0001
0000
0100
0000
1000
1000
0000
0000
,
0001
0000
0000
0000
0010
0010
0000
0100
,
0000
0100
0000
0100
1000
0100
1000
0000
,
0001
0000
0100
0000
0010
0010
1000
1000
,
0001
0000
0100
0000
0010
1000
1000
0100
,
0001
0000
0100
0000
1000
1000
0100
0010
,
0001
0000
1000
0000
0010
0010
0010
1000
,
1100
0000
0100
0000
0001
0001
0100
0100
,
1000
0000
0100
0000
0001
0001
0100
0100
,
1000
0000
0100
0000
0001
0001
0100
0100
,
1000
0000
0100
0000
0010
0010
0010
0100
,
1001
0000
0100
0000
0010
0010
0100
1000
,
0001
0000
0100
0000
1000
0001
0100
0100
,
0001
0000
0100
0000
1000
1000
0100
1000
,
0001
0000
0100
0000
1000
0001
1000
0100
,
0100
0000
0001
0000
0100
0100
0100
1000
,
0010
0000
0010
0000
0010
0010
0010
0001
,
0100
0000
1000
0000
0001
0001
0100
0100
,
1000
0001
1000
0001
1000
1000
0100
0000
,
0101
0000
0100
0000
0010
1000
0000
0000
,
1000
0000
0001
0000
1000
1000
0000
0000
,
0001
0000
1000
0000
0001
0001
0000
0000
,
0010
0010
0001
0001
1000
1000
0100
0000
,
1000
0000
0100
0000
0010
0010
0000
0000
,
1000
0000
0100
0000
0001
0001
0000
0000
,
1000
1000
1000
0000
0001
0001
0001
0000
,
0000
0010
0000
0010
0000
0010
0100
0000
,
1000
1000
1000
1000
;

//---------------dance-double - ----------------
#NOTES:
     dance-double:
     :
     Easy:
     2:
     :
00000000
00000000
00000000
00000000
,
00000000
00000000
00000000
00000000
,
00000000
00000000
00000000
00000000
,
00000000
00000000
00000000
00000000
,
00000001
00000000
00000100
00000000
,
00000010
00001000
00000100
00000000
,
00010000
00000000
00001000
00000000
,
00100000
00000000
00010000
00000000
,
10000000
10000000
01000000
00000000
,
00100000
00000000
00010000
00000000
,
00000010
00000010
00000001
00000000
,
00000001
00000001
00000100
00000000
,
00001000
00001000
00010000
00000000
,
01000000
01000000
10000000
01000000
,
00100000
00000000
00001000
00000000
,
00000010
00000000
00000001
00000000
,
00000100
00000000
00001000
00000000
,
01000000
00000000
10000000
10000000
,
01000000
01000000
00100000
00100000
,
00001000
00010000
00000100
00000100
,
00001000
00000100
00000001
00000001
,
00000100
00000000
00001000
00010000
,
01000000
00000000
00100000
00000000
,
10000000
00010000
01000000
00000000
,
00001000
00010000
00000100
00000000
,
00001000
00001000
00000001
00000001
,
00000100
00000000
00000010
00000010
,
00001000
00000100
00010000
00001000
,
00100000
00100000
00010000
10000000
,
01000000
01000000
10000000
10000000
,
00010000
00000000
01000000
00000000
,
00001000
00000000
00010000
00000000
,
00000010
00000000
00000100
00000000
,
00010000
00001000
00010000
00001000
,
01000000
00000000
01000000
00000000
,
00010000
00000000
00001000
00000000
,
00000100
00000000
00000100
00000000
,
00000001
00001000
00000001
00000001
,
00000100
00000000
00001000
00000000
,
00010000
00000000
00100000
00000000
,
10000000
00000000
10000000
00000000
,
10000000
01000000
00010000
00001000
,
00000000
00000100
00000000
00000100
;

//---------------dance-double - ----------------
#NOTES:
     dance-double:
     :
     Medium:
     5:
     :
00000000
00000000
00000000
00000000
,
00000000
00000000
00000000
00000000
,
00000000
00000000
00000000
00000000
,
00000000
00000000
00000000
00000000
,
00010000
00001000
00010000
00010000
,
00100000
10000000
01000000
01000000
,
01100000
00010000
00001000
00001000
,
00000100
00000001
00000001
00000100
,
00001000
00010000
01000000
10000000
,
00100000
00000000
00000000
00100000
00000000
00000000
00100000
00000000
,
00010000
00000000
00001000
00001000
,
00000100
00000000
00000001
00000001
,
00001000
00000000
00000100
00000100
,
00010000
00001000
01000000
01000000
,
00010000
00001000
00000100
00000100
,
00000001
00001000
00000100
00000100
,
00010000
00001000
10000000
01000000
,
00001000
00010000
00000001
00000100
,
00001001
00000100
00010000
00001000
,
10010000
01000000
00001000
00010000
,
00000010
00000010
00000010
00000000
00000100
00000100
00000100
00000000
,
00001000
00000000
00010000
00000000
01000000
01000000
01000000
00000000
,
10010000
00000000
01000000
00000000
00010000
00001000
00010000
00000000
,
00000110
00000000
00000001
00000000
00001000
00000100
00001000
00000000
,
00000001
00000000
00000100
00000000
00001000
00010000
00001000
00000000
,
00100000
00000000
00000000
00100000
00000000
00000000
00100000
00000000
,
00010000
00000000
10000000
00000000
00010000
01000000
00010000
00000000
,
00001000
00000000
00010000
00000000
00000010
00000100
00000010
00000000
,
00000001
00000100
00001000
00000100
,
00010000
00000000
00000000
00010000
00000000
00000000
00010000
00000000
,
00001000
00000000
00001000
00000000
00100000
00100000
00100000
00000000
,
01000000
00000000
01000000
00000000
10000000
10000000
10000000
00000000
,
00010000
00000000
01000000
00000000
00001000
00010000
00001000
00000000
,
00000100
00000000
00000100
00000000
00000001
00000001
00000001
00000000
,
00001001
00000000
00000100
00000000
00010000
00001000
00010000
00000000
,
10010000
00000000
01000000
00000000
00001000
00010000
00001000
00000000
,
00000010
00000000
00000010
00000000
00000100
00000100
00000100
00000000
,
00010000
00001000
00010000
00001000
01000000
00000000
01000000
00000000
,
00100000
00000000
00100000
00000000
10000000
10000000
10000000
00000000
,
01000000
00000000
01000000
00000000
00010000
01000000
00010000
00000000
,
00001000
00000000
00010000
00000000
00000100
00000010
00000100
00000000
,
00000001
00000100
00001000
00010000
,
00000100
00000100
00000100
00000100
;

//---------------dance-double - ----------------
#NOTES:
     dance-double:
     :
     Hard:
     7:
     :
00000000
00000000
00000000
00000000
,
00000000
00000000
00000000
00000000
,
00000000
00000000
00000000
00000000
,
00000000
00000000
00000000
00000000
,
00010000
00000000
00001000
00010000
00000000
01000000
10000000
00000000
,
00100000
00000000
10000000
01000000
00000000
00010000
00001000
00000000
,
00011000
00000000
00000000
00000010
00000000
00001000
00001000
00000000
,
00000100
00000000
00000000
00000001
00000000
00000100
00000100
00000000
,
00001000
00000000
00000000
00010000
00000000
01000000
10000000
00000000
,
00100000
00000000
00000000
00010000
00000000
00000000
00001000
00000000
,
00010000
00000000
00001000
00000000
00000100
00000100
00000000
00000001
,
00000100
00000000
00000010
00000000
00001000
00001000
00000000
00000100
,
00001000
00000000
00010000
00000000
00000100
00000100
00000000
00010000
,
00000000
00001000
00000000
01000000
00100000
10000000
01000000
00000000
,
00010000
00000000
00000000
00000000
00000100
00000100
00000000
00000000
,
00000001
00000000
00001000
00000000
00000010
00000010
00000000
00000000
,
00010000
00000000
00000000
00000000
10000000
10000000
00000000
01000000
,
00000000
00001000
00000000
00000100
00000001
00000100
00000001
00000000
,
00000001
00000000
00000100
00000000
00010000
00010000
00001000
00001000
,
00010000
00000000
01000000
00000000
00001000
00010000
00010000
00001000
,
00000010
00000000
00000010
00000000
00000100
00000100
00000100
00000001
,
00001000
00000000
00010000
00000000
01000000
01000000
01000000
00100000
,
10010000
00000000
01000000
00000000
00010000
00001000
00010000
00001000
,
00000110
00000000
00000001
00000000
00001000
00000100
00001000
00000100
,
00000001
00000000
00000100
00000000
00001000
00010000
00001000
00010000
,
00100000
00000000
10000000
00000000
01000000
00100000
01000000
00100000
,
00010000
00000000
10000000
00000000
00010000
01000000
00001000
00010000
,
00001000
00000000
00010000
00000000
00000010
00000100
00000010
00000100
,
00000001
00000000
00000100
00000000
00001000
00000001
00000100
00001000
,
00010000
00000000
01000000
00000000
00010000
10000000
01000000
10000000
,
00010000
00000000
00001000
00000000
00100000
00100000
00100000
00010000
,
01000000
00000000
01000000
00000000
10000000
10000000
10000000
01000000
,
00010000
00000000
01000000
00000000
00001000
00010000
00001000
00000100
,
00000100
00000001
00000100
00000001
00000010
00000010
00000010
00000000
,
00000001
00000000
00000100
00000000
00001000
00010000
00000000
00000000
,
10000000
00000000
01000000
00000000
00010000
00001000
00000000
00000000
,
00000010
00000000
00000100
00000000
00000001
00001000
00000000
00000000
,
00010000
00001000
00010000
00100000
01000000
00010000
01000000
00000000
,
00100000
00000000
00100000
00000000
10000000
10000000
00000000
00000000
,
01000000
00000000
00010000
00000000
00010000
01000000
00000000
00000000
,
00001000
00010000
00010000
00000000
00000100
00000010
00000010
00000000
,
00000000
00000001
00000000
00000100
00000000
00001000
00010000
00000000
,
01000000
01000000
01000000
01000000
;
