#TITLE:Satellite System;
#SUBTITLE:;
#ARTIST:GRATEC MOUR ft. Diana Chiaki;
#TITLETRANSLIT:;
#SUBTITLETRANSLIT:;
#ARTISTTRANSLIT:;
#GENRE:TECHNO;
#CREDIT:;
#BANNER:Satellite System-bn.png;
#BACKGROUND:Satellite System-bg.png;
#LYRICSPATH:;
#CDTITLE:!rain.png;
#MUSIC:Satellite System.ogg;
#OFFSET:-0.060000;
#SAMPLESTART:59.939999;
#SAMPLELENGTH:15.000000;
#SELECTABLE:YES;
#BPMS:0.000000=128.000000
;
#STOPS:
;
#BGCHANGES:;
#KEYSOUNDS:;
#ATTACKS:;

//---------------dance-single - ATN----------------
#NOTES:
     dance-single:
     ATN:
     Hard:
     10:
     0.596631,0.716479,0.484354,0.018278,1.188039,457.000000,404.000000,53.000000,2.000000,80.000000,0.000000,0.596631,0.716479,0.484354,0.018278,1.188039,457.000000,404.000000,53.000000,2.000000,80.000000,0.000000:
// measure 0
0000
0000
0000
0000
,  // measure 1
0000
0000
0000
0000
,  // measure 2
0000
0000
0000
0000
,  // measure 3
0000
0000
0000
0000
,  // measure 4
0000
0000
0000
0000
,  // measure 5
0000
0000
0000
0000
,  // measure 6
0000
0000
0000
0000
,  // measure 7
0000
0000
0000
0000
,  // measure 8
1000
0000
0000
0001
0000
0000
0100
0000
0000
0010
0000
0000
1000
0000
0000
0100
,  // measure 9
0000
0000
0010
0000
0000
0001
0000
0000
1000
0000
0000
0001
0000
0000
0000
0000
,  // measure 10
1000
0000
0000
0100
0000
0000
0010
0000
0000
0001
0000
0000
0100
0000
0000
0010
,  // measure 11
0000
0000
1000
0000
0000
0100
0000
0000
0001
0000
0000
0100
0000
0000
0000
0000
,  // measure 12
0010
0000
0000
0001
0000
0000
1000
0000
0000
0010
0000
0000
0001
0000
0000
0010
,  // measure 13
0000
0000
0100
0000
0000
0010
0000
0000
1000
0000
0000
0100
0000
0000
0000
0000
,  // measure 14
0010
0000
0000
0001
0000
0000
1000
0000
0000
0001
0000
0000
0010
0000
0000
0100
,  // measure 15
0000
0000
0010
0000
0000
0100
0000
0000
1000
0000
0000
0001
0000
0000
0000
0000
,  // measure 16
1000
0000
0001
0100
0000
0001
1000
0000
1000
0100
0000
0100
0010
0000
0010
0001
,  // measure 17
0000
0001
1000
0000
1000
0010
0000
0010
0100
0000
0100
0001
0000
0000
0000
0000
,  // measure 18
1100
0000
1000
0010
0000
0010
0100
0000
0100
0001
0000
0001
0010
0000
0010
0100
,  // measure 19
0000
0100
1000
0000
1000
0010
0000
0010
0100
0000
0100
0001
0000
0000
0000
0000
,  // measure 20
1010
0000
0010
0100
0000
0100
0001
0000
0001
0010
0000
0010
0100
0000
0100
1000
,  // measure 21
0000
1000
0010
0000
0010
1000
0000
1000
0001
0000
0001
0010
0000
0000
0000
0000
,  // measure 22
1100
0000
0100
0010
0000
0010
0001
0000
0001
1000
0000
1000
0010
0000
1000
0010
,  // measure 23
0000
0010
0100
0000
0100
0001
0000
0100
0010
0000
0010
1000
0000
0000
0000
0000
,  // measure 24
1000
0000
0000
0010
0000
0100
0000
0001
0000
0010
0000
0100
0000
1000
0000
0001
,  // measure 25
0000
0000
1000
0000
0000
0000
0001
0000
0010
0000
0100
0000
0000
0000
1000
0000
0000
0000
0100
0000
0000
0000
0010
0000
0000
0001
0000
0000
1000
0000
0000
0000
,  // measure 26
0001
0000
0000
1000
0000
0010
0000
0100
0000
0001
0000
0010
0000
0100
0000
1000
,  // measure 27
0000
0010
0000
0100
0001
0010
0000
0001
0000
1000
0000
0100
0000
0020
0000
0000
,  // measure 28
0031
0000
0000
1000
0000
0010
0000
0100
0000
0001
0000
0010
0000
0100
0000
1000
,  // measure 29
0000
0000
0000
0010
0000
0000
0000
0000
0000
0100
0000
0000
0001
0000
0000
1000
0000
0000
0000
0000
0000
0001
0000
0000
0000
0000
0000
0010
0000
0000
0000
0000
0000
0100
0000
0000
1000
0000
0100
0000
0010
0000
0001
0000
0100
0000
0010
0000
,  // measure 30
1000
0000
0001
0100
0001
0000
1000
0000
0100
1000
0100
0000
1000
0000
0001
0100
,  // measure 31
0001
0010
0100
1000
0010
0100
0001
0010
0400
0000
0000
0000
0000
0000
0300
0000
,  // measure 32
0110
0000
0101
0000
0011
0000
0001
0000
1000
0001
0000
0000
0001
0010
0100
1000
,  // measure 33
0100
0000
1000
0000
0010
0100
0001
0100
0010
0000
0000
0100
0010
0000
0000
0000
,  // measure 34
1010
0000
1000
0100
0000
1000
0010
0000
0100
0010
0000
1000
0001
0000
0100
0001
,  // measure 35
0000
1000
0001
0000
0001
0010
0000
0010
0100
0010
0100
0010
0100
1000
0100
1000
,  // measure 36
0100
0000
0110
0000
0010
0000
0011
0000
0001
0010
0000
0001
1000
0001
1000
0010
,  // measure 37
0100
0000
0010
0000
0100
0001
0100
0001
0100
0000
0000
0100
0001
0000
0001
0000
,  // measure 38
0011
0000
0010
0100
0000
0010
0001
0000
0100
0010
0000
0010
1000
0000
0100
1000
,  // measure 39
0000
0100
0010
0000
0010
0001
0000
1000
0001
0000
1000
0001
0000
0000
0000
0000
,  // measure 40
0101
0000
0000
0M0M
0000
0000
1100
0000
0000
MM00
0000
0000
0101
0000
0000
0M0M
0000
0000
1100
0000
0000
MM00
0000
0000
0101
0000
0000
0M0M
0000
0000
1100
0000
,  // measure 41
0000
MM00
0000
0000
0101
0000
0000
0M0M
0000
0000
1100
0000
0000
MM00
0000
0000
0101
0000
0000
0M0M
0000
0000
1100
0000
0000
MM00
0000
0000
0000
0000
0000
0000
,  // measure 42
0011
0000
0000
00MM
0000
0000
1010
0000
0000
M0M0
0000
0000
0011
0000
0000
00MM
0000
0000
1010
0000
0000
M0M0
0000
0000
0011
0000
0000
00MM
0000
0000
1010
0000
,  // measure 43
0000
M0M0
0000
0000
0011
0000
0000
00MM
0000
0000
1010
0000
0000
M0M0
0000
0000
0011
0000
0000
00MM
0000
0000
1010
0000
0000
M0M0
0000
0000
0000
0000
0000
0000
,  // measure 44
0011
0000
0000
00MM
0000
0000
0101
0000
0000
0M0M
0000
0000
0011
0000
0000
00MM
0000
0000
0101
0000
0000
0M0M
0000
0000
0011
0000
0000
00MM
0000
0000
0101
0000
,  // measure 45
0000
0M0M
0000
0000
0011
0000
0000
00MM
0000
0000
0101
0000
0000
0M0M
0000
0000
0011
0000
0000
00MM
0000
0000
0101
0000
0000
0M0M
0000
0000
0000
0000
0000
0000
,  // measure 46
1100
0000
0000
MM00
0000
0000
1100
0000
0000
MM00
0000
0000
1100
0000
0000
MM00
0000
0000
1100
0000
0000
MM00
0000
0000
1100
0000
0000
MM00
0000
0000
1100
0000
,  // measure 47
0000
MM00
0000
0000
1100
0000
0000
MM00
0000
0000
1100
0000
0000
MM00
0000
0000
1100
0000
0000
MM00
0000
0000
1100
0000
0000
MM00
0000
0000
0000
0000
0000
0000
,  // measure 48
1001
0000
0000
0001
0000
0001
0010
0100
0000
1000
0000
0001
1000
0010
0000
0100
,  // measure 49
0000
0000
0001
0000
0010
0000
0100
0000
1000
0000
0001
0000
0000
0000
1000
0000
0001
0000
0010
0000
0000
0000
1000
0000
0000
0010
0000
0000
0001
0000
0000
0000
,  // measure 50
1001
0000
0000
1000
0000
0010
0001
0010
0000
0100
0000
0001
0010
0001
0000
0010
,  // measure 51
0000
0100
1000
0010
0100
0001
0000
0010
0100
1000
0000
0100
0020
0000
0030
0000
,  // measure 52
1001
0000
0000
0001
0000
0100
0010
1000
0000
0100
0000
0010
0001
0100
0000
1000
,  // measure 53
0000
0000
0000
0100
0000
0000
0000
0000
0000
0010
0000
0000
1000
0000
0000
0100
0000
0000
0000
0000
0000
0010
0000
0000
0000
0000
0000
0100
0000
0000
0010
0000
0000
0001
0000
0000
1000
0000
0001
0000
0010
0000
0100
0000
1000
0000
0010
0000
,  // measure 54
0100
0001
0000
1000
0000
0001
0010
0100
0000
0001
0000
0100
1000
0010
0000
1000
,  // measure 55
0010
0000
1000
0000
0010
1000
0010
1000
0010
1000
0010
1000
0010
1000
0010
1000
,  // measure 56
0100
0000
0000
0000
;

//---------------dance-single - ----------------
#NOTES:
     dance-single:
     :
     Beginner:
     1:
     0.040472,0.102354,0.054833,0.000000,0.000000,31.000000,25.000000,6.000000,0.000000,0.000000,0.000000,0.040472,0.102354,0.054833,0.000000,0.000000,31.000000,25.000000,6.000000,0.000000,0.000000,0.000000:
0000
0000
0000
0000
,
0000
0000
0000
0000
,
0000
0000
0000
0000
,
0000
0000
0000
0000
,
0000
0000
0000
0000
,
0000
0000
0000
0000
,
0000
0000
0000
0000
,
0000
0000
0000
0000
,
1000
0000
0000
0000
,
0000
0000
0000
0000
,
0001
0000
0000
0000
,
0000
0000
0000
0000
,
0100
0000
0000
0000
,
0000
0000
0000
0000
,
0010
0000
0000
0000
,
0000
0000
0000
0000
,
1000
0000
0000
0000
,
0000
0000
0000
0000
,
0100
0000
0000
0000
,
0000
0000
0000
0000
,
0010
0000
0000
0000
,
0000
0000
0000
0000
,
0001
0000
0000
0000
,
0000
0000
0000
0000
,
1000
0000
0000
0000
,
0000
0000
0000
0000
,
0100
0000
0000
0000
,
0000
0000
0000
0000
,
0010
0000
0000
0000
,
0000
0000
0000
0000
,
0001
0000
0000
0000
,
0000
0000
0000
0000
,
1001
0000
0000
0000
,
0000
0000
0000
0000
,
1000
0000
0000
0000
,
0000
0000
0000
0000
,
0010
0000
0000
0000
,
0000
0000
0000
0000
,
0100
0000
0000
0000
,
0000
0000
0000
0000
,
0110
0000
0000
0000
,
0000
0000
0000
0000
,
1001
0000
0000
0000
,
0000
0000
0000
0000
,
0110
0000
0000
0000
,
0000
0000
0000
0000
,
1001
0000
0000
0000
,
0000
0000
0000
0000
,
0001
0000
0000
0000
,
0000
0000
0000
0000
,
1000
0000
0000
0000
,
0000
0000
0000
0000
,
0100
0000
0000
0000
,
0000
0000
0000
0000
,
0010
0000
0000
0000
,
0000
0000
0000
0000
,
1001
0000
0000
0000
;
