#VERSION:0.83;
#TITLE:Nu Era;
#SUBTITLE:;
#ARTIST:SPARKER;
#TITLETRANSLIT:;
#SUBTITLETRANSLIT:;
#ARTISTTRANSLIT:;
#GENRE:DRUM & BASS;
#ORIGIN:;
#CREDIT:;
#BANNER:Nu Era-bn.png;
#BACKGROUND:Nu Era-bg.png;
#PREVIEWVID:;
#JACKET:;
#CDIMAGE:;
#DISCIMAGE:;
#LYRICSPATH:;
#CDTITLE:!rain.png;
#MUSIC:Nu Era.ogg;
#OFFSET:-0.086000;
#SAMPLESTART:56.340000;
#SAMPLELENGTH:10.919994;
#SELECTABLE:YES;
#BPMS:0.000=175.000;
#STOPS:;
#DELAYS:;
#WARPS:;
#TIMESIGNATURES:0.000=4=4;
#TICKCOUNTS:0.000=4;
#COMBOS:0.000=1;
#SPEEDS:0.000=1.000=0.000=0;
#SCROLLS:0.000=1.000;
#FAKES:;
#LABELS:0.000=Song Start;
#BGCHANGES:;
#KEYSOUNDS:;
#ATTACKS:
;

//---------------dance-single - ----------------
#NOTEDATA:;
#CHARTNAME:;
#STEPSTYPE:dance-single;
#DESCRIPTION:;
#CHARTSTYLE:;
#DIFFICULTY:Challenge;
#METER:13;
#RADARVALUES:0.737702,1.027489,0.537569,0.374669,0.777846,634.000000,568.000000,66.000000,46.000000,145.000000,1.000000,0.000000,0.000000,0.000000,0.737702,1.027489,0.537569,0.374669,0.777846,634.000000,568.000000,66.000000,46.000000,145.000000,1.000000,0.000000,0.000000,0.000000;
#CREDIT:;
#NOTES:
// measure 0
0000
0000
0000
0000
,  // measure 1
2001
0001
0001
0001
0001
0001
0001
3001
,  // measure 2
0000
0000
M00M
1001
,  // measure 3
0210
0010
0010
0010
0010
0010
0010
0310
,  // measure 4
0000
0000
0MM0
0110
,  // measure 5
0102
0100
0100
0100
0100
0100
0100
0103
,  // measure 6
0000
0000
0M0M
0101
,  // measure 7
1200
1000
1000
1000
1000
1000
1000
1300
,  // measure 8
0000
0000
MMMM
0000
,  // measure 9
2010
0000
0010
0010
0000
0000
0010
0000
0010
0010
0000
0000
0010
0000
0010
0010
,  // measure 10
3000
0000
0000
0000
MMMM
0000
2010
3000
,  // measure 11
0102
0000
0100
0100
0000
0000
0100
0000
0100
0100
0000
0000
0100
0000
0100
0100
,  // measure 12
0003
0000
0000
0000
MMMM
0000
0102
0003
,  // measure 13
2100
0000
0100
0100
0000
0000
0100
0000
0100
0100
0000
0000
0100
0000
0100
0100
,  // measure 14
3000
0000
0000
0000
MMMM
0000
2010
3000
,  // measure 15
0120
0000
0100
0100
0000
0000
0100
0000
0100
0100
0000
0000
0100
0000
0100
0100
,  // measure 16
0030
0000
MMMM
0110
,  // measure 17
1000
0000
0001
0000
1100
0000
0100
0000
0010
0000
0110
0000
0100
1000
0000
0100
,  // measure 18
1000
0000
0001
0000
1010
0000
0010
0000
0100
0000
0011
0000
0010
0100
1000
0000
,  // measure 19
0001
0000
1000
0000
0110
0000
0100
0000
0001
0000
0110
0000
0100
1000
0000
0001
,  // measure 20
1000
0000
0001
0000
1010
0000
0010
0000
1000
0000
0110
0000
0010
0001
1000
0000
,  // measure 21
0010
0000
0100
0000
0011
0000
0010
0000
0100
0000
1001
0000
0001
0100
0010
1000
,  // measure 22
0100
0000
1000
0000
0011
0000
0010
0000
0001
0000
0110
0000
0010
1000
0100
0010
,  // measure 23
0M01
1000
00M1
1000
0M01
1000
00M1
1000
0M01
1000
00M1
1000
0M01
1000
00M1
1000
,  // measure 24
0M01
0000
10M0
0001
0M00
0001
10M0
0000
0M01
1000
00M0
1000
0M01
0000
M00M
0000
,  // measure 25
1MM1
0000
0000
0000
0002
0000
0000
0100
0000
0000
0010
0000
0010
0000
0003
0000
,  // measure 26
1001
0000
0000
0000
2000
0000
0000
0100
0000
0000
0010
0000
0010
0000
3100
0000
,  // measure 27
0110
0000
0000
0000
0020
0000
0000
0001
0000
0000
0001
0000
0031
0010
0100
0000
,  // measure 28
1100
0000
0000
1000
0002
0000
0000
1000
0000
0000
1000
0000
1003
0001
0000
0100
,  // measure 29
0001
0000
0000
0000
0200
0000
0000
0010
0000
0000
1000
0000
0310
0100
0001
0000
,  // measure 30
0011
0000
0010
0100
2000
0000
0000
0100
0000
0000
0001
0000
3010
1000
0000
0001
,  // measure 31
0010
0000
0000
0000
0020
0000
0000
0100
0000
0000
1000
0000
0130
0010
0001
0000
,  // measure 32
10M1
0M00
00M1
1M00
00M0
1M00
00M1
0M00
00M1
1M00
00M0
1M00
00M1
0000
M00M
0000
,  // measure 33
1MM1
0000
0000
0000
2000
0000
0000
0100
0000
0000
0001
0000
3010
1000
0001
0000
,  // measure 34
0101
0000
0100
0010
2000
0000
0000
0010
0000
0000
0001
0000
3100
1000
0000
0100
,  // measure 35
0010
0000
0000
0000
0002
0000
0000
1000
0000
0000
0100
0000
0013
0001
1000
0000
,  // measure 36
1100
0000
1000
0000
0020
0000
0000
0100
0000
0000
0001
0000
0130
0010
0000
1000
,  // measure 37
0100
0000
0000
0000
0200
0000
0000
0010
0000
0000
1000
0000
0310
0100
1000
0000
,  // measure 38
1001
0000
1000
0000
0020
0000
0000
0001
0000
0000
0100
0000
1030
0010
0000
0100
,  // measure 39
0001
0000
0000
0000
2000
0000
0000
0010
0000
0000
0100
0000
3010
1000
0000
0000
,  // measure 40
1M01
0000
00M0
0000
0M01
0000
10M0
0000
0M00
0000
00M1
0000
1M00
0000
00M0
0000
0M01
0000
10M0
0000
0M00
0000
10M0
0000
0M01
0000
10M0
0000
0000
M00M
0000
0000
,  // measure 41
1MM1
0000
0000
0000
1100
0000
0000
0100
0000
0010
0001
0000
0100
0001
0000
0000
,  // measure 42
1000
0000
0000
0000
0001
0000
0000
1000
0000
0010
0000
0000
0100
0000
0000
0000
,  // measure 43
0001
0000
0000
0000
1010
0000
0000
0010
0000
0100
0001
0000
1000
0010
0000
0000
,  // measure 44
0100
0000
0000
0000
0101
0000
0000
0001
0000
1000
0100
0000
0100
0010
0000
0000
,  // measure 45
1000
0000
0000
0000
1100
0000
0000
0100
0000
1000
0100
0000
0010
0001
0000
0000
,  // measure 46
0100
0000
0000
0000
0110
0000
0000
0010
0000
1000
0001
0000
1000
0001
0000
0000
,  // measure 47
0011
0000
0000
0000
0020
0000
0000
0000
0100
0000
0000
0000
0001
0001
0000
0000
,  // measure 48
0100
1000
0100
0001
,  // measure 49
0031
0000
0100
0000
1010
0000
1000
0000
0001
0000
0110
0000
0100
0010
0000
1000
,  // measure 50
0100
0000
0010
0000
0011
0000
0001
0000
1000
0000
0101
0000
0001
1000
0000
0010
,  // measure 51
1000
0000
0001
0000
0110
0000
1000
0000
0001
0000
0011
0000
0010
0100
0000
0100
,  // measure 52
10M0
0M00
00M1
1M00
00M0
1M00
00M1
0M00
10M0
0M01
00M0
1M00
00M2
0M00
00M0
0000
,  // measure 53
M2M3
0000
0000
0000
,  // measure 54
0000
0000
0000
0300
,  // measure 55
0020
0000
0000
0000
1000
0000
0000
0100
0000
0000
0000
0000
0001
0000
0100
0100
,  // measure 56
0000
0000
0000
0000
1000
0000
0000
0100
0000
0000
0000
0000
0130
0000
1000
0000
,  // measure 57
0200
0000
0000
0000
0010
0000
0001
0001
0000
0000
0000
0000
0010
0000
1000
1000
,  // measure 58
0000
0000
0000
0000
0010
0000
0001
0001
0000
0000
0000
0000
1000
0000
0010
0010
,  // measure 59
0000
0000
0000
0000
0001
0000
0010
0010
0000
0000
0000
0000
0010
0000
1000
1000
,  // measure 60
0000
0000
0000
0000
0001
0000
0010
0010
0000
0000
0000
0000
0310
0000
0001
0000
,  // measure 61
2000
0000
0000
0000
0010
0000
0001
0001
0000
0000
0000
0000
0001
0000
0100
0100
,  // measure 62
0000
0000
0000
0000
0100
0000
0010
0010
0000
0000
0000
0000
3001
0000
1000
0000
,  // measure 63
0002
0000
0000
0000
0010
0000
1000
1000
0000
0000
0000
0000
0010
0000
0100
0100
,  // measure 64
0000
0000
0000
0000
1000
0000
0010
0010
0000
0000
0000
0000
1003
0000
0100
0000
,  // measure 65
0020
0000
0000
0000
0001
0000
1000
1000
0000
0000
0000
0000
1000
0000
0001
0001
,  // measure 66
0000
0000
0000
0000
0001
0000
0100
0100
0000
0000
0000
0000
0130
0000
1000
0000
,  // measure 67
0002
0000
0000
0000
,  // measure 68
0000
0000
0000
0000
0000
0000
1003
1100
,  // measure 69
0110
0000
0010
0000
0001
0000
0010
0100
0000
0000
2000
0000
0100
0000
0100
0100
,  // measure 70
0000
0000
0001
0000
0010
0000
0001
0001
0000
0000
0010
0000
3100
0000
0110
0000
,  // measure 71
0011
0000
0001
0000
1000
0000
0010
0100
0000
0000
0002
0000
0010
0000
1000
1000
,  // measure 72
0000
0000
0100
0000
0010
0000
0100
0100
0000
0000
1000
0000
0103
0000
0110
0000
,  // measure 73
1010
0000
1000
0000
0100
0000
0010
0001
0000
0000
0200
0000
0010
0000
0010
0010
,  // measure 74
0000
0000
1000
0000
1000
0000
1000
1000
0000
0000
0010
0000
0001
0000
0001
0000
,  // measure 75
0301
0000
1000
0000
0100
0000
0010
0001
0000
0000
0020
0000
0100
0000
0100
0100
,  // measure 76
0000
0000
0001
0000
0100
0000
0100
0000
0230
0000
0000
2300
0001
0000
3010
0000
,  // measure 77
1010
0000
0010
0000
0100
0000
0001
0010
0000
0100
0000
0000
1000
0000
0002
0100
,  // measure 78
0000
0000
0100
0000
1000
0000
0010
0010
0000
0000
1000
0000
0103
0000
0110
0000
,  // measure 79
1010
0000
1000
0000
0100
0000
0010
0001
0000
1000
0200
0000
0010
0000
0001
0001
,  // measure 80
0000
0000
0010
0000
1000
0000
0010
0010
0000
0000
0001
0000
0310
0000
0110
0000
,  // measure 81
1100
0000
1000
0000
0001
0000
1000
0001
0000
0100
0020
0000
0100
0000
1000
1000
,  // measure 82
0000
0000
0100
0000
0100
0000
0001
0001
0000
0000
0100
0000
1030
0000
1100
0000
,  // measure 83
0110
0000
0010
0000
0100
0000
0010
0001
0000
0100
2000
0000
0100
0000
0010
0000
,  // measure 84
0001
0000
0100
0100
0000
0000
0001
0000
0010
0000
0100
0000
3100
0000
0110
0000
,  // measure 85
20M2
0M00
00M0
0M00
00M0
0M00
00M0
0M00
00M0
0M00
00M0
0M00
00M0
0M00
00M0
0M00
,  // measure 86
00M0
0M00
00M0
0M00
00M0
0M00
00M0
0M00
00M0
0M00
00M0
0M00
00M0
0M00
00M0
0M00
00M0
0M00
00M0
0M00
00M0
0M00
00M0
0M00
00M0
0M00
00M0
0M00
00M0
0M00
00M0
0M00
,  // measure 87
3013
0000
0000
0000
;
