#TITLE:White Acropolis;
#SUBTITLE:~The Base~;
#ARTIST:Mariko Nanba;
#TITLETRANSLIT:;
#SUBTITLETRANSLIT:;
#ARTISTTRANSLIT:;
#GENRE:INDUSTRIAL;
#CREDIT:;
#MENUCOLOR:;
#NEWMETERSYSTEM:NO;
#BANNER:White Acropolis ~The Base~.png;
#BACKGROUND:White Acropolis ~The Base~-bg.png;
#LYRICSPATH:;
#CDTITLE:!profsonic.png;
#MUSIC:White Acropolis ~The Base~.ogg;
#OFFSET:-0.420;
#SAMPLESTART:55.258;
#SAMPLELENGTH:13.800;
#SELECTABLE:YES;
#LISTSORT:;
#BPMS:0.000=140.000,0.000=35.000,3.000=70.000,5.000=35.000,8.000=70.000,10.000=140.000,39.500=280.000,42.000=140.000,103.000=280.000,106.000=140.000,118.000=280.000,122.000=140.000,134.000=280.000,138.000=140.000,170.000=70.000,185.750=35.000;
#STOPS:39.500=0.214
,40.500=0.161
,41.250=0.054
,41.500=0.054
,41.750=0.054
,103.000=0.107
,103.500=0.107
,104.000=0.161
,104.750=0.054
,105.000=0.054
,105.250=0.054
,105.500=0.054
,105.750=0.054
,118.000=0.054
,118.250=0.054
,118.500=0.107
,119.000=0.214
,120.000=0.214
,121.000=0.054
,121.250=0.054
,121.500=0.107
,134.000=0.054
,134.250=0.054
,134.500=0.107
,135.000=0.054
,135.250=0.054
,135.500=0.107
,136.000=0.107
,136.500=0.054
,136.750=0.054
,137.000=0.054
,137.250=0.161
;
#BGCHANGES:;
#ATTACKS:;

//---------------dance-single - K. Hirokazu----------------
#NOTES:
     dance-single:
     K. Hirokazu:
     Challenge:
     12:
     0.637,0.663,0.367,0.397,0.596: // measure 1
0000
0000
0000
0000
MMMM
0000
0000
0000
0000
0000
0000
0000
MMMM
0000
0000
0000
0000
0000
0000
0000
MMMM
0000
0000
0000
1000
0100
0001
0000
0001
0000
0100
0001
,  // measure 2
0000
0100
0001
0000
0001
0100
1000
0100
0010
0000
0000
0001
MMMM
0000
0000
1000
0010
0000
0000
0000
MMMM
0000
0000
0100
1000
0000
0000
0000
MMMM
0000
0000
0000
,  // measure 3
1000
0100
0001
0000
0100
0000
1000
0010
0000
1000
0010
0000
0100
0001
0010
0100
1000
0000
0000
0000
0001
0000
0000
0000
0100
0000
0000
0000
1000
0000
0000
0000
,  // measure 4
0100
0001
0M0M
1000
0100
0001
0100
1000
,  // measure 5
MM00
0100
0100
0010
M000
0001
0100
1000
,  // measure 6
0010
1000
M0M0
0100
0001
1000
0001
0100
,  // measure 7
0M0M
1000
1000
0010
000M
0100
0001
0010
,  // measure 8
1000
0010
M0M0
0001
1000
0010
0001
0010
,  // measure 9
00MM
1000
1000
0001
0000
0010
1000
0100
,  // measure 10
1000
0000
0010
0000
M0M0
0000
0001
0000
0100
0000
0010
0000
0001
0000
0040
0030
,  // measure 11
0000
0000
4000
3000
0000
0010
0100
0010
0100
0000
0001
0000
0010
0000
2010
0000
,  // measure 12
0000
0000
30M0
0000
0001
0000
0000
0000
0100
0010
0100
0000
0001
0000
0100
2000
,  // measure 13
0000
0000
0010
3000
0001
0100
0010
0011
,  // measure 14
0000
0000
1001
0000
0000
0000
1010
0000
0001
0010
0001
0000
0400
0000
0000
0000
,  // measure 15
0002
0300
0000
0000
0000
0000
0000
0000
0013
0000
0100
0000
1000
0000
0000
0000
0010
0000
0000
0000
0100
0000
0000
0000
0001
0000
0000
0000
0021
0000
0000
0000
,  // measure 16
0000
0000
003M
0000
0100
0000
0000
0000
0001
1000
0001
0000
0100
0000
0010
0002
,  // measure 17
0000
0000
0000
0000
1000
0003
0000
0000
0100
0000
0010
0000
0010
0000
0011
0000
,  // measure 18
0000
0000
0110
0000
0000
0000
1010
0000
1000
0010
1000
0000
0004
0000
0000
0000
,  // measure 19
0200
0003
0000
0000
0000
0000
0000
0000
0301
0000
1000
0000
0010
0000
0000
0000
0100
0000
0000
0000
0001
0000
0000
0000
0010
0000
0000
0000
2010
0000
0000
0000
,  // measure 20
0000
0000
30M0
0000
0001
0000
0000
0000
0100
0010
0100
0000
0001
0000
0100
2000
,  // measure 21
0000
0000
0010
3000
0001
0100
0010
0011
,  // measure 22
0000
0000
1001
0000
0000
0000
1010
0000
0001
0010
0001
0000
0400
0000
0000
0000
,  // measure 23
0002
0300
0000
0000
0000
0000
0000
0000
0013
0000
0100
0000
1000
0000
0000
0000
0010
0000
0000
0000
0100
0000
0000
0000
0001
0000
0000
0000
0021
0000
0000
0000
,  // measure 24
0000
0000
003M
0000
0100
0000
0000
0000
0001
1000
0001
0000
0100
0000
0010
0002
,  // measure 25
0000
0000
0000
0000
1000
0003
0000
0000
0100
0000
0010
0000
0010
0000
0011
0000
,  // measure 26
0000
0000
0000
0000
0000
0000
0000
0000
0110
0000
0000
0000
0000
0000
0000
0000
0000
0000
0000
0000
0000
0000
0000
0000
1100
0000
0000
0000
0000
0000
0000
0000
0010
0000
0000
0000
0100
0000
0000
0000
0010
0000
0000
0000
0000
0000
0000
0000
4000
0000
0000
0000
0000
0000
0000
0000
0400
3000
0000
0000
0000
0000
0000
0000
,  // measure 27
0302
0000
0000
0100
0103
1000
0020
0230
0301
1000
0001
0000
1100
0000
0100
0010
,  // measure 28
0000
0010
0100
0000
1000
0001
0100
0000
0010
1000
0010
0000
0011
0000
0001
1000
,  // measure 29
0000
1000
0001
0000
0010
0100
1000
0000
0001
0100
0001
0000
0110
0000
0010
1000
,  // measure 30
0000
1000
0010
0000
0100
0001
0010
0000
0100
1000
0200
0000
0340
0000
0000
0000
,  // measure 31
0032
0000
0000
0000
1003
0001
2000
3000
0010
0100
0010
0000
0101
0000
0001
0010
,  // measure 32
0000
0010
0001
0000
1000
0100
0001
0000
0100
1000
0010
0000
0011
0000
0001
1000
,  // measure 33
0000
1000
0001
0000
0010
0100
1000
0000
0100
0010
0001
0000
1010
0000
1000
0100
,  // measure 34
0000
0100
1000
0000
0001
0010
0100
0000
1000
0010
1000
0000
0001
1000
0001
0000
,  // measure 35
0200
0000
0310
1000
0010
0400
0000
0000
0302
0000
0100
0000
1000
0000
0000
0010
,  // measure 36
0000
0100
0000
0000
1000
0000
0013
0100
2000
0000
0100
0000
0010
0000
0000
0001
,  // measure 37
0000
0100
0000
0000
0010
0000
3001
0100
0020
0000
0100
0000
0001
0000
0000
1000
,  // measure 38
0000
0001
0000
0000
0100
0000
1030
0001
2000
0000
0000
0000
3010
0000
0000
0000
,  // measure 39
0201
0000
0000
0000
0310
0000
0000
0000
2000
0000
0010
0000
0001
0000
0000
0100
,  // measure 40
0000
0010
0000
0000
0001
0000
3100
0010
0002
0000
0010
0000
0100
0000
0000
1000
,  // measure 41
0000
0010
0000
0000
0100
0000
1003
0010
0200
0000
0010
0000
1000
0000
0000
0001
,  // measure 42
0000
1000
0000
0000
0010
0000
0301
1000
0020
0000
0000
0000
0130
0000
0000
0000
,  // measure 43
1002
0000
0000
0000
0013
0100
1000
0100
1000
1001
0000
0101
0000
1010
0000
1100
,  // measure 44
0000
0001
0000
1000
0000
0100
0000
0020
0000
0000
0000
0000
0000
0000
0000
0000
,  // measure 45
0000
0000
0000
0000
0000
0000
0000
0000
0000
0000
0000
0000
0000
0000
0031
1000
0100
0000
0010
0000
0000
0000
0001
0000
0000
0000
1000
0000
0000
0000
0010
0000
,  // measure 46
0000
0110
0000
0101
0000
0011
0000
1001
0000
1100
0000
0110
0000
0101
0000
0110
,  // measure 47
0000
0100
0000
0010
0000
1000
0000
0002
MMM3
0000
0000
0000
0000
0000
0000
0000
;
