#TITLE:waxing and wanding;
#SUBTITLE:(kors k mix);
#ARTIST:Seiryu;
#TITLETRANSLIT:;
#SUBTITLETRANSLIT:;
#ARTISTTRANSLIT:;
#CREDIT:;
#BANNER:waxing and wanding (kors k mix).png;
#BACKGROUND:waxing and wanding (kors k mix)-bg.png;
#LYRICSPATH:;
#CDTITLE:!profdist.png;
#MUSIC:waxing and wanding (kors k mix).ogg;
#OFFSET:0.000;
#SAMPLESTART:22.740;
#SAMPLELENGTH:10.100;
#SELECTABLE:YES;
#BPMS:0.000=190.000,104.000=95.000,128.000=190.000,183.000=23.750,184.000=380.001,206.000=190.009;
#STOPS:151.667=2.211
,183.000=3.789
,206.000=0.316
;
#BGCHANGES:;

//---------------dance-single - Profraine----------------
#NOTES:
     dance-single:
     Profraine:
     Challenge:
     11:
     0.669,0.702,0.255,0.246,0.957: // measure 1
0000
0000
0000
0000
,  // measure 2
0000
0000
0000
0000
,  // measure 3
0000
0000
0000
0000
,  // measure 4
0000
0000
0000
0000
,  // measure 5
1000
0000
0000
0000
0010
0000
0100
0000
0000
0000
0100
0000
0010
0000
0000
0000
0000
0000
1000
0000
0000
0100
0000
0000
,  // measure 6
0010
0000
0000
0001
0000
0100
0010
0000
0000
0100
0000
0000
,  // measure 7
1010
0000
1000
0000
0000
0100
0010
0000
0001
0000
0100
0000
,  // measure 8
0010
0000
1000
0100
0000
0002
0000
0000
0000
0000
0000
0000
,  // measure 9
0103
0000
1000
0000
0010
0000
1000
0001
0100
0010
1000
0100
,  // measure 10
0010
0000
0001
0100
0000
0000
1010
0000
0000
0011
0000
0000
,  // measure 11
1000
0000
0000
1000
0000
0000
0010
0000
0000
0100
0000
0010
,  // measure 12
0100
0000
0000
0001
0000
0000
0010
0000
0000
0010
0000
0001
,  // measure 13
0100
0000
0000
0010
0000
0000
0010
0000
1000
0001
0000
0001
,  // measure 14
1000
0000
1000
0100
0000
1000
0010
0000
0100
0000
0001
0000
,  // measure 15
0010
0000
0000
0100
0000
0010
0100
0000
0000
1000
0010
1000
,  // measure 16
0010
0000
0000
0100
0000
0000
0010
0000
2000
0002
0000
3000
,  // measure 17
0013
0000
0000
0100
0000
0000
0010
0000
0100
1000
0000
0010
,  // measure 18
0100
0000
0001
0010
0100
0010
0100
0000
0100
1000
0000
0000
,  // measure 19
0010
0000
0000
0000
0000
1001
0000
0000
0000
0000
0001
0000
0010
0000
0000
0000
0000
0000
0100
0000
0000
0000
0000
0000
,  // measure 20
1000
0000
0100
0001
0000
0100
1000
0010
0000
0100
0000
0010
,  // measure 21
0000
0000
0000
0000
0000
0101
0000
0000
0000
0000
1000
0000
0001
0000
0000
0000
0000
0000
1000
0000
0000
0000
0000
0000
,  // measure 22
0010
0100
0001
0010
0000
0000
1100
0000
0000
0101
0000
0000
,  // measure 23
0010
0000
0000
0000
0000
1100
0000
0000
0000
0000
0100
0000
0010
0000
0000
0000
0000
0000
0001
0000
0000
0000
0000
0000
,  // measure 24
0100
0000
1000
0100
0001
0000
0010
0000
0100
1000
0010
0000
,  // measure 25
0100
0000
0000
0000
0000
0011
0000
0000
0000
0000
1000
0000
0010
0000
0000
0000
0000
0000
0100
0000
0000
0000
0000
0000
,  // measure 26
2002
0000
0000
0000
0000
0003
3002
0000
2003
0000
3002
0000
,  // measure 27
2000
0000
0000
0000
,  // measure 28
3003
0000
0000
0000
,  // measure 29
00M1
0M00
M000
000M
,  // measure 30
10M0
000M
0M00
000M
,  // measure 31
M010
000M
00M0
0M00
,  // measure 32
10M1
0000
0000
0000
0000
0000
0M00
0000
0000
0000
0000
0000
M010
0000
0000
0000
0000
0000
0M00
0000
0000
0001
0000
0001
,  // measure 33
0010
0000
0010
0001
0000
0001
0100
0000
0100
0010
0000
0010
,  // measure 34
1000
0000
1000
0100
0000
0100
0010
0000
0010
0001
0000
0001
,  // measure 35
1000
0000
1000
0010
0000
0010
1000
0000
1000
0100
0000
0100
,  // measure 36
0001
0000
0001
0100
0000
0100
0010
0000
0000
0001
0000
0001
,  // measure 37
0100
0000
0100
0010
0000
0010
1000
0000
1000
0001
0000
0001
,  // measure 38
0010
0000
0010
0100
0000
0100
1000
0000
1000
0001
0000
M0M0
,  // measure 39
0100
0000
0010
1000
0000
0001
0010
0000
0100
1000
0010
1000
,  // measure 40
0100
0000
0100
0010
0001
0010
0100
0000
0100
1000
0000
0010
,  // measure 41
0100
0000
0001
0010
0000
0100
0010
0000
0001
1000
0001
1000
,  // measure 42
0010
0000
0010
1000
0001
0010
0100
0000
1000
0100
0000
0000
,  // measure 43
0010
0000
0001
0100
0000
0100
0010
0000
1000
0100
0010
0001
,  // measure 44
0010
0000
0100
0010
0001
0000
0100
0000
0010
1000
0000
0100
,  // measure 45
0010
0000
0001
1000
0000
0001
0100
0000
0010
1000
0100
0010
,  // measure 46
0001
0000
0000
0000
0001
0000
0010
0000
0000
0000
0001
0000
1000
0000
0000
0000
0001
0000
0200
0300
0000
0000
0000
0000
,  // measure 47
2MM2
0000
0000
0000
,  // measure 48
0000
0000
0000
0000
,  // measure 49
0003
0000
0000
0000
0000
0000
3002
0000
0000
0000
0203
0000
,  // measure 50
0320
0000
0000
0000
2030
0000
3200
0000
0320
0000
0230
0000
,  // measure 51
0320
0000
0032
0000
2003
0000
3020
0000
0000
0000
0230
0000
,  // measure 52
0000
0000
0320
0000
0230
0000
0300
0000
0000
0010
0000
1000
,  // measure 53
0100
0000
0010
0001
0000
1000
0001
0010
0100
1000
0000
1000
,  // measure 54
0010
0100
0001
0100
0000
0001
0010
0000
0100
1000
0000
0010
,  // measure 55
0100
0000
0001
0010
0000
0100
1000
0100
0001
0100
0000
1000
,  // measure 56
0010
0100
0001
0010
0000
0100
1000
0000
0100
1000
0000
0001
,  // measure 57
0100
0000
0100
0010
0000
1000
0100
0010
0001
0100
0000
0010
,  // measure 58
0100
0001
1000
0100
0000
0100
0010
0000
0001
0100
0000
0010
,  // measure 59
1000
0000
0010
0100
0000
0010
1000
0100
0010
0001
0000
0010
,  // measure 60
0100
0000
1000
0010
0100
0001
0101
0000
0000
0100
0000
0000
,  // measure 61
1001
0000
1000
0010
0000
0010
0100
0001
1000
0010
0000
0010
,  // measure 62
1000
0100
0010
0001
0000
0010
0100
0000
0001
0100
0000
1000
,  // measure 63
0010
0000
0100
0010
0000
1000
0100
0001
0100
0010
0000
0010
,  // measure 64
0001
1000
0001
1000
0000
0001
1000
0000
0000
0100
0000
0010
,  // measure 65
0001
0000
0001
1000
0000
0001
0100
0010
0100
0001
0000
0010
,  // measure 66
0100
1000
0100
0010
0000
0001
0100
0000
0010
0100
0000
0001
,  // measure 67
0011
0000
0000
1000
0000
0000
0010
0000
0100
0010
0000
0000
,  // measure 68
1010
0000
0000
1100
0000
0000
0101
0000
0000
0001
0000
0001
,  // measure 69
1000
0000
1000
0100
0000
0100
0010
0001
0010
0001
0000
0100
,  // measure 70
1000
0000
1000
0100
0000
0001
0100
0000
0100
0010
0000
0001
,  // measure 71
0100
0000
0100
0010
0000
1000
0100
1000
0001
0010
0000
0001
,  // measure 72
0100
0000
0000
1001
0000
0000
0110
0000
0000
1000
0000
1000
,  // measure 73
0010
0100
0010
0100
0001
0100
0001
0000
0000
0011
0000
0100
,  // measure 74
1000
0000
0010
1000
0000
0001
1000
0000
0000
0100
0000
0000
,  // measure 75
0010
1001
0100
0011
,  // measure 76
0101
0000
0001
1001
0000
1000
1010
0000
0000
0000
0000
0000
,  // measure 77
0001
0000
0001
0000
1000
0100
0010
0001
,  // measure 78
0100
0100
0010
1100
,  // measure 79
1000
0000
1000
0000
0001
0010
0100
1000
,  // measure 80
0010
0000
0000
0102
0000
0000
0M03
0000
0000
0102
0000
0M03
;
