#TITLE:White Acropolis;
#SUBTITLE:~Snowy Peak~;
#ARTIST:Mariko Nanba;
#TITLETRANSLIT:;
#SUBTITLETRANSLIT:;
#ARTISTTRANSLIT:;
#CREDIT:;
#BANNER:White Acropolis ~Snowy Peak~.png;
#BACKGROUND:White Acropolis ~Snowy Peak~-bg.png;
#LYRICSPATH:;
#CDTITLE:!profsonic.png;
#MUSIC:White Acropolis ~Snowy Peak~.ogg;
#OFFSET:0.000;
#SAMPLESTART:54.838;
#SAMPLELENGTH:13.800;
#SELECTABLE:YES;
#BPMS:0.000=140.000,112.000=35.000,116.000=140.000;
#STOPS:;
#BGCHANGES:;

//---------------dance-single - Profraine----------------
#NOTES:
     dance-single:
     Profraine:
     Challenge:
     11:
     0.646,0.716,0.501,0.060,0.506: // measure 1
0000
0000
0000
0000
,  // measure 2
0000
0000
0000
0000
,  // measure 3
0000
0000
0000
0000
,  // measure 4
0000
0000
0000
0000
,  // measure 5
1000
0010
0000
0000
0000
0000
1000
0100
0000
0000
0000
0000
0010
0000
0000
0001
0000
0000
0001
0000
0000
0100
0010
0000
,  // measure 6
0000
0000
0000
0100
1000
0000
0000
0000
0000
0100
0010
0000
0000
0000
0000
0001
0000
0000
0010
0000
0000
0100
0000
0000
,  // measure 7
1000
0000
0001
0000
0000
0000
0000
0000
0000
0000
0000
0000
1000
0000
0100
0000
0000
0000
0010
0000
0000
0000
0000
0000
0000
0000
0000
0000
0000
0000
0010
0000
0000
0000
0000
0000
0000
0000
0000
0000
0000
0000
0010
0000
0000
0001
0000
0000
,  // measure 8
0010
0001
0010
0100
0010
0100
0020
0000
0000
0000
0130
0000
1100
0000
1001
0000
,  // measure 9
0001
0100
0010
1000
0000
M101
0000
1M0M
,  // measure 10
0100
0010
0001
0100
0000
1M10
0000
M0M1
,  // measure 11
0000
0010
0000
0100
0000
0010
0000
01M1
,  // measure 12
0000
0000
1M0M
0000
0000
0000
0010
0000
0200
0000
0000
0310
2000
0000
0000
0000
,  // measure 13
3001
1000
0100
0010
0000
11M0
0000
MM01
,  // measure 14
0100
0010
0001
0010
0000
10M1
0000
M10M
,  // measure 15
0000
0010
0000
0100
0000
0010
0000
01M1
,  // measure 16
0000
0000
1M0M
0000
0000
0000
0100
0000
0020
0000
0000
0130
0001
0000
0101
0000
,  // measure 17
0100
1000
0010
0000
0100
0000
0010
0000
0000
0000
10M1
0000
10M1
0000
1000
0000
,  // measure 18
0100
0010
0001
0000
0100
0000
1000
0000
0000
0000
M110
0000
M110
0000
0100
0000
,  // measure 19
0001
0010
0100
0000
1000
0000
0010
0000
0000
0000
01M1
0000
01M1
0000
0001
0000
,  // measure 20
0010
0100
1000
0000
0001
0000
0100
0000
0000
0000
1M01
0000
1M01
0000
1M01
0000
,  // measure 21
1000
0100
0010
0000
0100
0000
0010
0000
0001
0000
1000
0000
1010
0000
0010
0000
,  // measure 22
0100
0001
0010
0000
0100
0000
1000
0000
0100
0000
0010
0000
0011
0000
0001
0000
,  // measure 23
1000
0001
1000
0000
0001
1000
0001
0000
1000
0001
1000
0000
0001
1000
0001
0000
,  // measure 24
0200
0000
0000
0000
0000
0000
0310
0110
,  // measure 25
0100
0000
0001
0000
0000
0000
0000
0000
0000
0000
0000
0000
1000
0000
0001
0000
0000
0000
0000
0000
0000
0000
0000
0000
1000
0000
0000
0001
0000
0000
1000
0000
0000
0100
0000
0000
0010
0000
0000
0000
0000
0000
0001
0000
0000
0100
0000
0000
,  // measure 26
0010
0000
1000
0010
0100
0010
1000
0000
0001
0100
0001
0000
1000
0000
0100
0000
,  // measure 27
0010
0001
0000
0000
0000
0000
0010
0100
0000
1000
0000
0000
0001
0000
0000
0001
0000
0000
0100
0000
0000
0010
0100
0000
,  // measure 28
0000
0000
0000
0010
0001
0000
0000
0000
0000
0010
1000
0000
0000
0000
0000
0100
0000
0000
0010
0000
0000
0001
0000
0000
,  // measure 29
M100
0010
0000
0000
0000
0000
0000
0000
0100
0010
0000
0000
0000
0000
0000
0000
,  // measure 30
10M1
0000
0000
0000
0000
0000
1000
0000
0000
0100
0000
0000
1000
0000
0000
0000
0000
0000
0100
0000
0000
0000
0000
0000
0110
0000
0000
0000
0000
0000
0010
0000
0001
0000
0000
0000
0000
0000
0000
0000
0000
0000
101M
0000
0000
0000
0000
0000
,  // measure 31
0000
0000
0000
0000
0000
0000
M1M0
0000
0000
0001
0000
0000
0100
0000
0000
0000
0000
0000
0010
0000
0000
0000
0000
0000
1010
0000
0000
0000
0000
0000
1000
0000
0100
0000
0000
0000
0000
0000
0000
0000
0000
0000
0M10
0000
0000
0000
0000
0000
,  // measure 32
0011
0000
0000
0000
0000
0000
0001
0000
0000
0100
0000
0000
0001
0000
0000
0000
0000
0000
1000
0000
0000
0000
0000
0000
1010
0000
0000
0000
0000
0000
0010
0000
0100
0000
0000
0000
0000
0000
0000
0000
0000
0000
1M10
0000
0000
0000
0000
0000
,  // measure 33
0000
0000
0000
0000
0000
0000
M0M1
0000
0000
0010
0000
0000
0001
0000
0000
0000
0000
0000
1000
0000
0000
0000
0000
0000
0100
0000
0000
0000
0000
0000
0010
0000
0001
0000
0000
0000
0000
0000
0000
0000
0000
0000
100M
0000
0000
0000
0000
0000
,  // measure 34
1100
0000
0000
0000
0000
0000
0100
0000
0000
0010
0000
0000
0001
0000
0000
0000
0000
0000
0100
0000
0000
0000
0000
0000
0101
0000
0000
0000
0000
0000
0001
0000
1000
0000
0000
0000
0000
0000
0000
0000
0000
0000
M110
0000
0000
0000
0000
0000
,  // measure 35
0000
0000
0000
0000
0000
0000
0MM1
0000
0000
0010
0000
0000
0100
0000
0000
0000
0000
0000
1000
0000
0000
0000
0000
0000
0001
0000
0000
0000
0000
0000
0100
0000
0010
0000
0000
0000
0000
0000
0000
0000
0000
0000
10M0
0000
0000
0000
0000
0000
,  // measure 36
0100
0010
0000
0000
0000
0000
0001
0010
0000
0100
0000
0000
0000
0000
0000
0100
0000
0000
0000
0000
0000
1100
0000
0000
,  // measure 37
0000
1100
0000
0011
0000
0001
0101
0100
,  // measure 38
0010
1000
0000
0000
0000
0000
0001
1000
0000
0010
0000
0000
0100
0000
0000
0101
0000
0000
0001
0000
0000
1000
0010
0000
,  // measure 39
0000
0000
0000
0100
0010
0000
0000
0000
0000
0001
0010
0000
0000
0000
0000
1000
0000
0000
0100
0000
0000
0010
0000
0000
,  // measure 40
0001
1000
0000
0000
0000
0000
1000
0001
0000
1000
0000
0000
0100
0000
0000
0110
0000
0000
0010
0000
0000
0001
0100
0000
,  // measure 41
0000
0000
0000
0010
0100
0000
0000
0000
0000
0001
0010
0000
0000
0000
0000
0100
0000
0000
1100
0000
0000
1000
0000
0000
,  // measure 42
0100
0010
0000
0000
0000
0000
0001
0010
0000
0000
0000
0000
0100
0000
0000
1100
0000
0000
1000
0000
0000
0010
0100
0000
,  // measure 43
0000
0000
0000
0001
0010
0000
0000
0000
0000
0100
1000
0000
0000
0000
0000
1000
0000
0000
0100
0000
0000
0010
0000
0000
,  // measure 44
0001
1000
0000
0000
0000
0000
1000
0001
0000
0010
0000
0000
0000
0000
0000
0010
0000
0000
0000
0000
0000
0110
0000
0000
,  // measure 45
0000
0110
0000
1100
0000
1000
1001
0001
,  // measure 46
0100
0000
0010
0100
0010
0000
0100
0000
0101
0000
0001
0000
0010
0000
0100
0000
,  // measure 47
1100
0000
1000
0001
1000
0000
0100
0010
0000
0010
0001
0100
0010
0000
0011
0000
,  // measure 48
0101
0000
0100
0010
1000
0000
0001
0100
0000
0100
0010
1000
0100
0010
0000
0001
,  // measure 49
0010
0000
0100
1000
0100
0000
1000
0001
0000
0100
0010
0100
0001
0010
0100
1000
,  // measure 50
0001
0000
0010
0100
1000
0000
0010
0100
0000
0001
0010
0100
0010
0100
1000
0010
,  // measure 51
0100
0000
0001
0100
0010
0000
1000
0010
0000
0100
0001
1000
0001
0000
0100
0010
,  // measure 52
1000
0001
1000
0000
0001
1000
0001
0000
1000
0001
1000
0000
0001
1000
0001
0000
,  // measure 53
0020
0000
0000
0000
0000
0030
0110
1001
,  // measure 54
0110
0000
0000
0000
;
