#TITLE:VOX UP;
#SUBTITLE:;
#ARTIST:Sampling Masters MEGA vs Seiryu;
#TITLETRANSLIT:;
#SUBTITLETRANSLIT:;
#ARTISTTRANSLIT:;
#CREDIT:;
#BANNER:VOX UP.png;
#BACKGROUND:VOX UP-bg.png;
#LYRICSPATH:;
#CDTITLE:!proftroop.png;
#MUSIC:VOX UP.ogg;
#OFFSET:0.000;
#SAMPLESTART:14.770;
#SAMPLELENGTH:15.600;
#SELECTABLE:YES;
#BPMS:0.000=202.000;
#STOPS:;
#BGCHANGES:;

//---------------dance-single - Profraine----------------
#NOTES:
     dance-single:
     Profraine:
     Challenge:
     13:
     1.000,1.000,1.000,0.277,0.378: // measure 1
0000
0000
0000
0000
,  // measure 2
0000
0000
0000
0000
,  // measure 3
0000
0000
0000
0000
,  // measure 4
0000
0000
0000
0000
,  // measure 5
0000
0000
0000
MMMM
,  // measure 6
1000
0000
1000
0000
0010
0100
0010
0000
0100
0000
0001
0000
0010
0000
0001
0000
,  // measure 7
0101
0110
1100
0110
,  // measure 8
0001
0000
0001
0000
1000
0010
1000
0000
0100
0000
0010
0000
0010
0000
0001
0000
,  // measure 9
0100
0010
1000
0000
0001
0001
0010
0010
,  // measure 10
0100
0000
0100
0000
1000
0100
1000
0000
0001
0000
0100
0000
0010
0000
0100
0000
,  // measure 11
0001
0000
0001
0000
0010
0100
0010
0000
0100
0000
1000
0000
1000
0000
1000
0000
,  // measure 12
0001
0000
0010
0000
0001
0000
0010
0000
0010
0100
0010
1000
0100
1000
0001
1000
,  // measure 13
0001
0000
0100
0000
0010
0000
0000
0000
1000
0000
0001
1000
0001
0000
0000
0000
,  // measure 14
1001
1000
0100
0000
1001
0001
1001
1000
,  // measure 15
1001
0001
0100
0000
1001
1000
0100
0000
,  // measure 16
1001
0001
0100
0000
1001
1000
1001
0001
,  // measure 17
1001
0000
1000
0000
0100
0010
0001
0000
0100
0000
0100
0000
0100
0000
0100
0000
,  // measure 18
1001
0010
0100
0000
1001
0100
1001
0010
,  // measure 19
1001
0000
1001
0000
0100
0000
0100
0000
1001
0000
0100
0000
0010
0100
0010
0100
,  // measure 20
0010
0100
1001
0010
0010
1001
0100
1001
,  // measure 21
1000
0001
1000
0001
1000
0000
0010
0000
0100
0000
0010
0000
1000
0000
0100
0000
,  // measure 22
2000
0000
0000
0000
0000
0000
0000
0101
3000
0000
0000
0000
0001
0000
0001
0000
,  // measure 23
0100
0000
0010
1000
0100
0000
0010
0001
0010
0000
0100
1000
0100
0010
0001
1000
,  // measure 24
0002
0000
0000
0000
0000
0000
0000
1100
0003
0000
0000
0000
1000
0000
1000
0000
,  // measure 25
0010
0000
0100
0001
0010
0000
0100
1000
0010
0000
0100
0000
0100
0000
0100
0000
,  // measure 26
0010
0000
1000
0000
0001
0010
0100
1000
0000
0000
1010
0000
0000
0000
0011
0000
,  // measure 27
1000
0000
0010
0000
1000
0100
0010
0001
0000
0000
0101
0000
0000
0000
1100
0000
,  // measure 28
0001
0000
0010
0000
0100
1000
0001
0100
0000
0000
0110
0000
0000
0000
1001
0000
,  // measure 29
0000
0000
0110
0000
0000
0000
1001
0000
0000
0000
0110
0000
2002
0000
0000
0003
,  // measure 30
3001
0000
0100
0000
0010
1000
0001
0010
0000
0000
1100
0000
0000
0000
0101
0000
,  // measure 31
1000
0000
0001
0000
0010
0001
1000
0010
0000
0000
1010
0000
0000
0000
0011
0000
,  // measure 32
1000
0000
0001
0000
0010
0100
1000
0100
0000
0000
1010
0000
0000
0000
0011
0000
,  // measure 33
1010
0000
0000
0000
0011
0000
0000
0000
0110
0000
0100
0000
0010
0100
0010
0100
,  // measure 34
0010
1001
0000
0100
1001
0000
1000
0001
,  // measure 35
0010
0100
0000
0100
0010
0010
0001
0001
,  // measure 36
0100
1001
0000
0010
1001
0000
0001
0010
,  // measure 37
0100
0010
0001
0010
0100
1000
0100
0010
0100
0000
0100
0000
1000
0000
1000
0000
,  // measure 38
0010
1001
0000
0100
1001
0000
1000
0010
,  // measure 39
0100
0001
0000
0001
0010
0010
0100
0100
,  // measure 40
0010
1001
0000
0100
1001
0000
0010
0100
,  // measure 41
0010
0000
0010
0000
0001
0000
0001
0000
0110
0000
0000
0000
2000
0000
0000
3000
,  // measure 42
1001
0001
0001
0011
0010
0010
0110
0110
,  // measure 43
0000
1001
0000
0110
0000
1001
0010
1001
,  // measure 44
1000
0001
0100
1001
0001
1000
0010
1001
,  // measure 45
0000
0110
0000
1100
0000
0101
0001
1001
,  // measure 46
1100
0100
0100
0110
0010
0010
0011
0011
,  // measure 47
0000
0011
0000
1100
0000
0011
0001
1001
,  // measure 48
0100
0010
0100
1001
0010
1001
0010
1001
,  // measure 49
0100
1001
0100
1001
0010
1001
0100
1001
,  // measure 50
0010
0000
1001
0000
0000
0000
1100
0000
0000
0000
0101
0000
0001
1000
1001
0000
,  // measure 51
1000
0000
1010
0000
0000
0000
0101
0000
0000
0000
1001
0000
0000
0000
2200
0300
,  // measure 52
3100
0000
0010
0000
0000
0100
0000
0010
,  // measure 53
0000
1000
0001
0000
0100
0000
0020
0000
,  // measure 54
1030
1000
0001
0001
0020
0130
0200
0310
,  // measure 55
1001
0000
1001
0000
0101
0001
1001
1000
,  // measure 56
1010
0010
0100
0100
0002
1003
2000
3001
,  // measure 57
0110
0000
0110
0000
1100
0100
0110
0010
,  // measure 58
0011
0001
1000
1000
0001
0001
1000
1000
,  // measure 59
0010
0100
0010
0100
0010
0100
0010
0100
0001
1000
0001
1000
0002
0000
0000
0000
,  // measure 60
0103
0100
0010
1000
0200
0310
0020
0130
,  // measure 61
1100
0000
0101
0000
0110
0000
1001
1001
,  // measure 62
0001
0001
0100
0010
2000
3100
0200
1300
,  // measure 63
1000
0100
1000
0100
1000
0001
1000
0001
0100
0000
1010
0000
1001
0000
0110
0000
,  // measure 64
0100
0100
0010
0001
0020
1030
2000
3010
,  // measure 65
0001
0001
0010
0100
2000
3100
0200
1300
,  // measure 66
1001
0000
1000
0100
0000
0010
0000
0000
,  // measure 67
0002
0000
0200
0003
0002
0000
2020
3333
,  // measure 68
0100
0000
0100
0000
0010
1000
0010
0000
0100
0000
0001
0000
0010
0000
0001
0000
,  // measure 69
0010
0000
0100
0000
1000
0000
0000
0000
0010
0100
0010
0100
0002
0000
0003
0000
,  // measure 70
1001
0010
0100
0000
1001
0100
1001
0010
,  // measure 71
0100
0010
1001
0100
0010
1001
0100
1001
,  // measure 72
1000
0000
1000
0000
0100
0010
0100
0000
0010
0000
0001
0000
0100
0000
0001
0000
,  // measure 73
1000
0000
0100
0000
0010
0000
0000
0000
0001
0100
0001
0100
0020
0000
0030
0000
,  // measure 74
1001
0100
0010
0000
1001
0010
1001
0010
,  // measure 75
1000
0010
0100
1001
0100
0001
0100
1001
,  // measure 76
0001
0000
0100
0100
0100
0010
0100
0010
,  // measure 77
0100
0001
1000
0001
1000
0100
0100
0100
,  // measure 78
0010
0001
0011
0011
0010
0100
1100
1100
,  // measure 79
1000
0100
0010
0001
0010
0100
1000
0100
0010
0000
0010
0000
0001
0000
0100
0000
,  // measure 80
0010
0010
0010
0010
0000
1001
0000
1100
,  // measure 81
0000
0101
0000
0011
0000
0110
1100
0011
,  // measure 82
0001
1000
0001
1000
0100
0001
0100
1000
,  // measure 83
0100
0010
0001
0100
1000
0100
0001
1000
,  // measure 84
0001
1000
0001
1000
0001
0100
0001
0100
0001
0100
0010
0100
0010
1000
0010
1000
,  // measure 85
0100
1000
0100
1000
0100
0010
0100
0010
0001
0010
0001
0010
0002
0000
0000
0000
,  // measure 86
1100
0000
0000
0003
0000
0000
0000
0000
0000
000M
000M
000M
000M
000M
0000
0000
0000
0000
0000
0000
0000
0000
0000
0000
;
