#TITLE:Unfaithful;
#SUBTITLE:(Bill Hamel Club Mix);
#ARTIST:Rihanna;
#TITLETRANSLIT:;
#SUBTITLETRANSLIT:;
#ARTISTTRANSLIT:;
#GENRE:DANCE;
#CREDIT:;
#MENUCOLOR:;
#NEWMETERSYSTEM:NO;
#BANNER:Unfaithful (Bill Hamel Club Mix).png;
#BACKGROUND:Unfaithful (Bill Hamel Club Mix)-bg.png;
#LYRICSPATH:;
#CDTITLE:!prof.png;
#MUSIC:Unfaithful (Bill Hamel Club Mix).ogg;
#OFFSET:0.020;
#SAMPLESTART:51.420;
#SAMPLELENGTH:14.220;
#SELECTABLE:YES;
#LISTSORT:;
#BPMS:0.000=133.000;
#STOPS:;
#BGCHANGES:;
#ATTACKS:;

//---------------dance-single - K. Hirokazu----------------
#NOTES:
     dance-single:
     K. Hirokazu:
     Challenge:
     11:
     0.574,0.718,0.289,0.289,0.401: // measure 1
0000
0000
0000
0000
,  // measure 2
0000
0000
0000
0000
,  // measure 3
0000
0000
0000
0000
,  // measure 4
0000
0000
0000
0000
0000
0000
0000
0000
0000
0000
0000
0000
0000
0000
1000
0001
,  // measure 5
1000
0100
0010
0001
0100
0000
0010
0000
1000
0000
0001
0100
0000
0100
0001
0000
,  // measure 6
1000
0010
0100
0010
1000
0000
0100
0000
0010
0000
0001
0000
0000
0001
0100
0000
,  // measure 7
0010
1000
0100
0010
0001
0000
0100
0000
0020
0000
0M00
0000
1000
0000
2000
0000
,  // measure 8
0000
0030
0000
0000
00M0
0000
3100
0000
0000
0000
M100
0010
0000
0010
0001
0000
,  // measure 9
0100
0010
0100
0001
0010
0000
0100
0000
1000
0000
0010
0100
0000
0100
0001
0000
,  // measure 10
0010
0100
1000
0100
0010
0000
0001
0000
0100
0000
0010
0000
0000
0010
1000
0000
,  // measure 11
0100
0010
0100
0010
0001
0000
1000
0000
0200
0000
M000
0000
0010
0000
0020
0000
,  // measure 12
0300
0000
0000
0000
0M00
0000
0031
0000
0000
0000
00M1
1000
0000
1000
0010
0100
,  // measure 13
0010
1000
0100
0010
0001
0000
0100
0000
0010
0000
20M0
0000
3000
0000
2001
0000
,  // measure 14
3010
0100
0001
0010
0100
0000
1000
0000
0010
0000
02M0
0000
0300
0000
0201
0000
,  // measure 15
0310
1000
0100
0010
0001
0000
1000
0000
0020
0000
M000
0000
0100
0000
0200
0000
,  // measure 16
0030
0000
00M0
0301
0000
0M2M
0030
0120
,  // measure 17
0031
1000
0010
0100
0001
0000
1000
0000
0100
0000
0M20
0000
0030
0000
0021
0000
,  // measure 18
0130
1000
0010
0100
0010
0000
1000
0000
0001
0000
002M
0000
0030
0000
0120
0000
,  // measure 19
0031
1000
0010
1000
0100
0000
0010
0000
0002
0000
00M0
0000
0100
0000
0200
0000
,  // measure 20
0003
0000
000M
0300
0001
0M10
0100
1000
,  // measure 21
1001
0000
0001
0010
0100
0000
1100
0000
M000
0000
1000
0000
1010
0000
0000
0000
,  // measure 22
0101
0000
0001
1000
0100
0000
0110
0000
00M0
0000
0010
0000
0011
0000
0000
0000
,  // measure 23
0101
0000
0100
0010
1000
0000
1001
0000
000M
0000
000M
0000
0101
0000
0000
0000
,  // measure 24
0110
0000
0010
1000
0100
0000
0010
0000
0001
0000
0100
0000
0010
0000
1000
0000
,  // measure 25
1100
0000
0100
0010
0001
0000
0011
0000
00M0
0000
00M0
0000
0110
0000
0000
0000
,  // measure 26
1100
0000
1000
0010
0100
0000
0101
0000
000M
0000
000M
0000
0001
0000
1001
0000
,  // measure 27
0000
0000
1000
0100
0010
0000
0001
0000
0000
0000
0200
0000
0300
0000
0200
0000
,  // measure 28
0300
0000
0010
1000
0100
0010
0001
0100
,  // measure 29
0101
0000
0001
0000
1000
0100
0010
0001
,  // measure 30
0101
0000
0100
0010
1000
0000
0001
0000
0100
0000
0002
0000
0000
0000
0000
0000
,  // measure 31
0MM3
0000
1000
0010
0100
0000
0010
0000
1000
0000
0100
0000
0010
0000
0100
0000
,  // measure 32
1100
0000
1000
0001
0100
0000
0101
0000
000M
0000
000M
0000
0001
0000
2000
0000
,  // measure 33
3M0M
0000
0010
0100
0001
0000
0000
0000
0010
0000
0100
0000
1000
0000
0010
0000
,  // measure 34
0110
0000
0100
0001
0010
0000
0100
0000
1000
0000
0020
0000
0000
0000
0000
0000
,  // measure 35
M00M
0030
0100
0001
1000
0000
0100
0000
1000
0000
0010
0000
0100
0000
0001
0000
,  // measure 36
0011
0000
0010
0100
1000
0000
0010
0000
0000
0000
0101
0000
0000
0000
0020
0000
,  // measure 37
0M3M
0000
1000
0001
0100
0000
0000
0000
0010
0000
1000
0000
0100
0000
1000
0000
,  // measure 38
1001
0000
0001
0100
0010
0000
1000
0000
0100
0000
0020
0000
0000
0000
0000
0000
,  // measure 39
MM30
0000
0001
1000
0100
0000
0000
0000
0010
0000
0001
0000
1000
0000
0100
0000
,  // measure 40
0110
0000
0010
0001
0100
0000
0001
0000
0000
0000
1010
0000
0000
0000
0200
0000
,  // measure 41
0000
0000
0000
0000
0000
0000
0000
0000
0000
0000
0310
1000
0100
0000
0010
0000
,  // measure 42
0001
0000
0001
0100
0000
0100
0020
0000
,  // measure 43
0000
0000
0000
0000
0000
0000
0000
0000
0030
0100
0001
0000
0000
0001
0010
0000
,  // measure 44
0000
0000
0100
1000
0010
0000
0100
0000
0001
0000
0100
0000
0010
0000
1000
0100
,  // measure 45
2000
0000
0000
3200
,  // measure 46
0320
0000
0000
0000
,  // measure 47
0000
0000
0000
0000
,  // measure 48
0030
0000
0000
0000
0000
0000
0000
0000
0000
0000
0001
1000
0000
1000
0010
0100
,  // measure 49
0010
0000
1000
0000
1000
0000
0100
0010
0001
0000
0100
0000
0010
0000
0100
0001
,  // measure 50
0000
0000
0010
0000
0010
0000
0100
1000
0010
0000
0100
0000
0001
0000
0010
0100
,  // measure 51
1000
0000
0001
0000
1000
0000
0010
0000
0100
0000
0001
0000
0010
0000
0100
0000
1000
0000
0100
0000
0010
0000
0001
0000
0100
0000
0000
0000
0000
0000
0010
0000
0000
0000
0000
0000
1000
0000
0000
0000
0000
0000
0100
0000
0000
0010
0000
0000
,  // measure 52
0000
0000
0001
0000
0001
0000
0100
0010
0100
0000
0010
0000
1000
0000
0100
0010
,  // measure 53
0000
0100
0000
0010
0000
0001
0000
1000
,  // measure 54
0000
0100
0000
0010
0000
0001
0000
1000
,  // measure 55
0010
0100
0001
0010
0100
1000
0010
0100
0001
0010
0100
1000
0200
0000
0000
0000
0000
0000
0000
0000
0000
0000
0000
0000
,  // measure 56
0000
0000
0000
0000
,  // measure 57
0000
0000
0000
0000
,  // measure 58
0000
0000
0000
0000
,  // measure 59
0000
0000
0000
0000
,  // measure 60
0000
0000
0000
0000
0000
0000
0000
0000
0300
MM00
0000
0000
0000
0000
0000
0000
0000
0000
0000
0000
0000
0000
0000
0000
0000
0000
0000
0000
0000
0000
0000
0000
;
