#TITLE:Thunder Plains;
#SUBTITLE:;
#ARTIST:Masashi Hamauzu;
#TITLETRANSLIT:;
#SUBTITLETRANSLIT:;
#ARTISTTRANSLIT:;
#CREDIT:;
#BANNER:Thunder Plains.png;
#BACKGROUND:Thunder Plains-bg.png;
#LYRICSPATH:;
#CDTITLE:!prof.png;
#MUSIC:Thunder Plains.ogg;
#OFFSET:-0.040;
#SAMPLESTART:65.360;
#SAMPLELENGTH:16.020;
#SELECTABLE:YES;
#BPMS:0.000=62.000,4.000=124.000,216.000=114.000,218.000=109.000,222.000=58.000;
#STOPS:;
#BGCHANGES:;

//---------------dance-single - Profraine----------------
#NOTES:
     dance-single:
     Profraine:
     Challenge:
     10:
     0.472,0.521,0.416,0.089,0.031: // measure 1
0000
0000
0000
0000
,  // measure 2
1000
0000
0100
0000
0011
0000
0001
0100
,  // measure 3
0010
0000
0100
0010
1000
0100
0010
0001
,  // measure 4
1000
0000
0001
0000
0110
0000
1000
0100
,  // measure 5
0010
0100
0010
0000
0001
1000
0010
0100
,  // measure 6
0001
0000
0010
0000
1100
0000
0001
0100
,  // measure 7
0010
0000
1000
0100
0010
0001
1000
0010
,  // measure 8
0100
0000
0001
0000
1010
0000
1000
0001
,  // measure 9
0100
0010
0100
0000
0001
0010
0100
0010
,  // measure 10
0001
0000
1100
0000
0101
0000
1000
0100
,  // measure 11
0110
0000
0010
0001
1000
0010
0100
0001
,  // measure 12
0010
0000
1100
0000
0110
0000
0010
0001
,  // measure 13
0010
0100
0010
0000
0001
1000
0001
0100
,  // measure 14
0010
0000
1010
0000
0011
0000
0001
1000
,  // measure 15
0011
0000
0010
0001
0100
0010
0100
0001
,  // measure 16
0010
0000
0110
0000
1001
0000
1000
0010
,  // measure 17
0100
0001
0010
0000
0100
1000
0100
0010
,  // measure 18
0001
0100
0110
0010
,  // measure 19
1010
1000
1100
0100
,  // measure 20
0110
0010
0011
0001
,  // measure 21
1001
1000
1010
0010
,  // measure 22
0110
0100
0101
0001
,  // measure 23
1001
1000
1100
0100
,  // measure 24
0110
0010
0110
0100
,  // measure 25
1100
1000
1001
0001
,  // measure 26
0101
0000
0001
0010
0100
0000
1000
0100
,  // measure 27
0010
0000
0001
0100
1000
0000
1000
0100
,  // measure 28
0001
0000
0010
0100
1000
0000
1000
0100
,  // measure 29
0001
0000
0001
0100
1000
0000
0010
0100
,  // measure 30
0001
0000
0010
0100
1000
0000
0010
1000
,  // measure 31
0100
0000
0010
0001
0100
0000
0010
1000
,  // measure 32
0001
0000
0100
0010
1000
0000
0100
0010
,  // measure 33
0001
0000
0010
0100
1000
0000
0002
0000
,  // measure 34
1003
0000
0000
0000
0000
0000
0000
0000
0000
0000
0000
0000
0000
0000
0000
0000
0100
0000
0000
0000
0000
0000
0000
0000
0000
0000
0000
0000
0000
0000
0000
0010
0001
0000
0000
0000
0000
0000
0000
0000
0000
0000
0000
0000
0000
0000
0000
0000
0001
0000
0000
0000
0000
0000
0000
0000
0100
0000
0000
0000
0000
0000
0000
0000
,  // measure 35
0010
0000
1000
0100
0001
0100
0010
0001
,  // measure 36
0100
0000
0010
0000
1001
0000
1000
0100
,  // measure 37
0010
0100
1000
0000
0001
0100
0010
0100
,  // measure 38
0001
0000
0000
0000
0000
0000
0000
0000
2000
0000
0000
0000
0000
0000
0000
0000
3100
0000
0000
0000
0000
0000
0000
0000
0000
0000
0000
0000
0000
0000
0000
1000
0001
0000
0000
0000
0000
0000
0000
0000
0000
0000
0000
0000
0000
0000
0000
0000
0001
0000
0000
0000
0000
0000
0000
0000
0010
0000
0000
0000
0000
0000
0000
0000
,  // measure 39
1001
0000
1000
0010
0110
0100
0101
0001
,  // measure 40
0011
0000
0000
0000
0000
0000
0200
0000
0000
0000
0000
0000
1300
0000
0000
0000
0000
0000
0000
0000
0000
0000
0000
0000
1001
0000
0000
0000
0000
0000
0000
0000
0000
0000
0000
0000
0001
0000
0000
0000
0000
0001
0100
0000
0000
0000
0000
0000
,  // measure 41
0100
0010
1000
0000
0100
0010
0100
1000
,  // measure 42
0001
0000
0000
0000
0100
0000
0000
0000
0010
0000
0000
0000
1000
0000
0000
0001
1000
0000
0000
0000
0000
0000
0000
0000
0001
0000
0000
0000
0100
0000
0000
0000
,  // measure 43
0110
0000
0010
1000
0100
0010
0001
0100
,  // measure 44
0010
0000
1010
0000
1100
0000
1000
0010
,  // measure 45
0001
0010
0100
0000
0001
0010
0100
1000
,  // measure 46
0100
0020
0031
0020
1030
0010
0100
1000
,  // measure 47
0001
0000
0100
0101
0001
1001
1000
1100
,  // measure 48
0100
0002
0103
0010
0001
0000
1000
0010
,  // measure 49
0100
0001
0010
0000
0100
1000
0100
0001
,  // measure 50
0100
0110
0010
0011
,  // measure 51
0001
1000
0001
0100
0010
0100
0001
1000
,  // measure 52
0100
0010
0001
1000
0010
0100
0001
1000
,  // measure 53
0001
1000
0101
0011
,  // measure 54
0020
0000
0100
0032
,  // measure 55
0203
0000
0000
0000
0000
0000
0000
0000
0000
0000
0000
0000
0000
0000
0000
0000
0000
0000
0000
0000
0000
0000
0000
0000
0301
0000
0000
0000
0000
0000
0000
0000
0000
0000
0000
0000
0000
0000
0000
0000
0000
0000
0000
0000
0000
0000
0000
2100
,  // measure 56
0000
0000
0000
0000
0000
0000
0000
0000
0000
0000
0000
0000
0000
0000
0000
0000
0000
0000
0000
0000
0000
0000
0000
0000
0000
0000
0000
0000
0000
0000
0000
0000
0000
0000
0000
0000
0000
0000
0000
0000
0000
0000
0000
0000
0000
0000
0000
0000
0000
0000
0000
0000
0000
0000
0000
0000
0000
0000
0000
0000
0000
0000
0000
0000
0000
0000
0000
0000
0000
0000
0000
0000
0000
0000
0000
0000
0000
0000
0000
0000
0000
0000
0000
0000
0000
0000
0000
0000
0100
0000
0000
0000
0000
0000
0000
0000
0000
0000
0000
0000
0000
0000
0000
0000
0000
0000
0000
0000
0000
0000
0000
0000
0000
0000
0000
0000
0000
0000
0000
0000
0000
0000
0000
0000
0000
0000
0000
0000
0000
0000
0000
0000
0000
0000
0000
0000
0000
0000
0000
0000
0000
0010
0000
0000
0000
0000
0000
0000
0000
0000
0000
0000
0000
0000
0000
0000
0000
0000
0000
0000
0000
0000
0000
0000
0000
0000
0000
0000
0000
0000
0000
0000
0000
0000
0000
0000
0000
0000
0000
0000
0000
0000
0000
0000
0000
0000
0000
0000
0000
0000
0000
0000
,  // measure 57
3000
0000
0000
0000
;
