#TITLE:The Extreme;
#SUBTITLE:;
#ARTIST:植松伸夫;
#TITLETRANSLIT:;
#SUBTITLETRANSLIT:;
#ARTISTTRANSLIT:Nobuo Uematsu;
#CREDIT:;
#BANNER:The Extreme.png;
#BACKGROUND:The Extreme-bg.png;
#LYRICSPATH:;
#CDTITLE:!prof.png;
#MUSIC:The Extreme.ogg;
#OFFSET:0.000;
#SAMPLESTART:40.000;
#SAMPLELENGTH:12.000;
#SELECTABLE:YES;
#BPMS:0.000=180.000,256.000=90.000,272.000=180.000;
#STOPS:;
#BGCHANGES:;

//---------------dance-single - Profraine----------------
#NOTES:
     dance-single:
     Profraine:
     Challenge:
     11:
     0.874,1.000,0.607,0.339,0.522:
0000
0000
0000
0000
,
0000
0000
0000
0000
,
M000
0M00
000M
M000
0M00
00M0
000M
0M00
,
M000
0000
0M00
0000
00M0
0000
0M00
0000
00M0
0000
000M
M000
0M00
00M0
000M
0M00
,
1000
0100
0010
0001
0100
0010
0100
0001
,
0100
0000
0010
1000
0000
1000
0100
0001
,
0100
0010
0001
0100
0010
1000
0010
0100
,
0001
0010
0001
0010
0100
0010
0100
0010
0100
1000
0100
1000
0100
1000
0001
1000
,
0001
1001
0000
1000
0100
0110
0000
0010
,
0001
0101
0000
0100
0010
1010
0000
1000
,
0001
0011
0000
0010
0100
1100
0000
1000
,
0010
0110
0000
0100
0001
0011
0000
0010
,
0110
0100
1000
0100
0001
0100
1000
0100
,
0001
0100
1000
0000
1010
0000
0010
0000
,
0102
0013
0210
1300
,
1000
0100
0010
0001
0100
0000
0110
0000
,
2010
3100
0120
0031
,
0001
0100
1000
0100
0002
0000
0013
0000
,
0210
1300
1002
0103
,
1000
0001
0010
0100
0010
0001
0100
0010
,
1000
0000
1000
0100
0001
0100
0010
0001
,
0100
1000
0120
0000
1030
0000
1200
0000
,
0310
0000
0001
0000
0100
0010
1000
0001
,
0010
0100
1000
0100
0012
0000
0103
0000
,
0120
1030
2001
3100
,
0100
0010
1001
0000
1100
0000
0110
0000
,
0101
0000
0100
0000
0002
0013
0100
1000
,
0200
0310
0001
1000
0020
1030
0100
0001
,
0200
0310
0000
0010
0100
1000
0000
1000
,
0100
0001
0000
0001
0100
1000
0000
1000
,
0001
0010
0001
0010
0100
0000
0M01
0010
,
0001
0010
2100
0000
3M10
0000
0210
0000
,
0301
1000
0001
1000
0100
0000
0M01
1000
,
0001
1000
0100
0000
0102
0000
0013
0000
,
0001
0100
0001
0100
0010
0000
00M1
0100
,
0001
0100
0010
0000
21M0
0000
3001
0000
,
0021
0000
0130
0000
1100
0000
1000
0001
,
1000
0001
0100
0000
1M00
0001
1000
0001
,
1000
0010
1000
0100
0010
0000
10M0
0010
,
1000
0100
0210
0000
1300
0000
1002
0000
,
0103
0001
0010
0100
1000
0000
M100
0001
,
0010
0100
1000
0000
1200
0000
0310
0000
,
0012
0000
0103
0000
0120
0000
1030
0100
,
0001
0100
2010
0000
3100
0000
0120
0000
,
0031
1000
0010
1000
0100
0000
0M01
1000
,
0100
1000
0001
1000
0010
1000
0100
0000
,
0120
0031
0011
0101
,
0120
1030
2100
3010
,
1001
0001
0100
0100
0010
0010
1000
1000
,
1000
0100
0010
0001
0010
0100
1000
0001
0010
0100
1000
0100
0010
0001
1000
0100
,
0010
0010
0100
0100
1000
1000
0001
0001
,
0001
1000
0001
0100
0010
1000
0100
0010
0001
1000
0001
1000
0001
1000
0100
0010
,
0001
0001
0010
0010
0100
0100
1000
1000
,
1000
0100
0010
0001
1000
0001
1000
0100
0010
0001
1000
0010
0100
0001
0010
0100
,
1000
0100
0010
0001
1000
0001
0010
0100
1000
0001
1000
0100
0010
0100
1000
0100
,
0002
0M00
0000
M0M0
0000
0M00
0000
M0M0
0103
1000
0010
1000
0100
0010
0001
0100
,
0010
0000
MMM0
0000
1000
0100
0010
0001
1000
0010
0100
0010
1000
0001
0010
0100
,
1000
0000
MM0M
0000
0001
0010
0100
1000
0001
0100
0010
0100
0001
1000
0100
0010
,
0001
0000
M0MM
0000
1000
0010
0100
0001
1000
0100
0010
0100
1000
0001
0100
0010
,
1000
0000
M0MM
0000
0001
0100
0010
1000
0001
0010
0100
0010
0001
1000
0010
0100
,
0001
0000
MM0M
0000
0001
0100
0010
1000
0001
0010
0100
0010
0001
1000
0010
0100
,
0001
0000
M0MM
0000
1000
0010
0100
0001
1000
0100
0010
0100
1000
0001
0100
0010
,
1000
1100
0100
0110
0010
0011
0001
0101
,
0100
0110
0010
1010
1000
1100
0100
0110
,
M010
0001
1000
0100
0001
0100
0010
1000
0010
0001
0100
0010
0000
0010
0100
0001
,
1000
0000
0100
0000
0000
0000
0100
0000
0001
0000
0100
0000
0010
0000
0001
0000
0100
0000
1000
0000
0100
0000
0010
0000
1000
0000
0001
0000
0010
0100
1000
0100
,
0020
0000
0000
0000
0M30
0000
0101
0000
0100
0010
1000
0100
0000
0100
0010
0001
,
0100
0010
1000
0001
1000
0100
0010
0001
0100
0010
0100
0001
0010
0100
0010
0001
,
M101
0100
0010
1000
0010
1000
0100
0010
,
0002
0000
0100
0003
0100
0000
0010
0000
2000
0000
0100
3000
0100
0000
0001
0000
,
0200
0000
0010
0300
0010
0000
0001
0000
0100
0000
0010
0000
0100
0000
0001
0000
,
1000
0100
0001
0100
0010
0001
0100
1000
,
0100
0001
0011
0000
0010
0100
1001
0001
,
0101
0000
0010
1000
1100
0100
0110
0010
,
0011
0001
0101
0100
0000
0010
1010
1000
,
1100
0100
0110
0010
0011
0001
0101
0000
,
2002
0000
0000
0000
3003
M00M
0000
0000
;

//---------------dance-single - Profraine----------------
#NOTES:
     dance-single:
     Profraine:
     Hard:
     9:
     0.659,0.653,0.080,0.625,0.036: // measure 1
0000
0000
0000
0000
,  // measure 2
0000
0000
0000
0000
,  // measure 3
0000
0000
0000
0000
,  // measure 4
0000
0000
0000
0000
,  // measure 5
1000
0010
0000
0010
0100
0000
0001
0000
,  // measure 6
0010
0000
0100
1000
0000
1000
0001
0000
,  // measure 7
0001
0100
0000
0100
0010
0000
1000
0000
,  // measure 8
0100
0000
0010
0000
0001
0100
0010
1000
,  // measure 9
0001
M001
0000
0100
0010
0M10
0000
1000
,  // measure 10
0100
M100
0000
0010
0001
00M1
0000
0100
,  // measure 11
0010
0M10
0000
1000
0001
M001
0000
0010
,  // measure 12
0100
01M0
0000
1000
0010
M010
0000
0100
,  // measure 13
0001
1000
0010
0100
0001
0010
0100
1000
,  // measure 14
0100
0010
0002
0000
2003
0000
3200
0000
,  // measure 15
0302
0000
0103
1000
0020
0000
0130
0001
,  // measure 16
1000
0001
0010
0100
2000
0000
3020
0000
,  // measure 17
0230
0000
0301
0010
0200
0000
1300
0001
,  // measure 18
1000
0010
0100
0001
0020
0000
0130
1000
,  // measure 19
0200
0000
0302
0000
0203
0000
0310
0001
,  // measure 20
1000
0010
1000
0001
0100
0010
0100
0010
,  // measure 21
2000
0000
3001
0100
0010
0100
0001
0010
,  // measure 22
0100
1000
0020
0000
0032
0000
0023
0000
,  // measure 23
0230
0000
1300
0100
0020
0000
1030
0100
,  // measure 24
0010
0001
1000
0100
2000
0000
3002
0000
,  // measure 25
0203
0000
0310
1000
0002
0000
0013
0100
,  // measure 26
1000
0100
0020
0000
2030
0000
3020
0000
,  // measure 27
0032
0103
0101
1000
,  // measure 28
0110
0001
1010
0001
,  // measure 29
0100
010M
0000
0010
1000
10M0
0000
0100
,  // measure 30
0010
0M10
0000
0001
0100
010M
0000
0010
,  // measure 31
1000
0100
1000
0100
0010
0000
0001
0100
,  // measure 32
0001
0100
0020
0000
2030
0000
3200
0000
,  // measure 33
0310
0001
0010
0100
0020
0000
0031
0100
,  // measure 34
0001
0010
0002
0000
0203
0000
2300
0000
,  // measure 35
3100
0010
0100
0001
0200
0000
0301
0010
,  // measure 36
0100
1000
0200
0000
0310
0001
1000
0001
,  // measure 37
0200
0000
0302
0000
0023
0000
0130
1000
,  // measure 38
0001
1000
0010
0000
0100
0001
0010
0100
,  // measure 39
1000
0001
0100
0001
0010
0000
0100
0001
,  // measure 40
0100
0010
0002
0000
2003
0000
3020
0000
,  // measure 41
0130
0001
0010
1000
0020
0000
0031
0100
,  // measure 42
1000
0100
0010
0000
1000
0100
0010
0100
,  // measure 43
0001
0100
0010
0001
0200
0000
0310
0001
,  // measure 44
0010
1000
0200
0000
0320
0000
0032
0000
,  // measure 45
1003
0010
0100
0001
1000
0000
0100
0010
,  // measure 46
0100
1000
0100
0000
0020
0000
0032
0000
,  // measure 47
0103
0010
1000
0010
0200
0000
2300
0000
,  // measure 48
3100
0001
0010
0100
2000
0000
3002
0000
,  // measure 49
1003
0010
1000
0010
1000
0010
1000
0010
,  // measure 50
2000
0000
0100
0010
,  // measure 51
3100
0010
0100
0010
0100
0010
0100
0010
,  // measure 52
0002
0000
1000
0100
,  // measure 53
1003
0100
1000
0100
1000
0100
1000
0100
,  // measure 54
0020
0000
1000
0100
,  // measure 55
0032
0000
0100
0010
,  // measure 56
0203
0000
0000
0000
1300
0100
0010
1000
,  // measure 57
0200
0000
0310
0001
0010
0100
1000
0100
,  // measure 58
0020
0031
0200
0320
,  // measure 59
2030
0000
3001
1000
0100
1000
0010
0100
,  // measure 60
0002
0023
0230
0000
1300
0001
0100
0010
,  // measure 61
2000
0000
3001
0010
0100
0010
1000
0010
,  // measure 62
0002
0000
0103
0010
1000
0001
1000
0100
,  // measure 63
0010
0001
0010
0100
1000
0001
0100
1000
,  // measure 64
0100
0010
0001
0010
1000
0100
0001
0100
,  // measure 65
001M
0000
0000
0001
0000
0000
0100
0000
0010
0000
0000
1000
0000
0000
0001
0000
,  // measure 66
1000
0000
0000
0100
0000
0000
0001
0000
0100
0000
0010
0000
0001
0000
0200
0000
,  // measure 67
0310
0000
0000
1000
0000
0000
1100
0000
0000
0000
0000
0001
0000
0000
0100
0000
,  // measure 68
0010
0000
0000
1000
0000
0000
0001
0000
0010
0000
0100
0000
1000
0001
1000
0100
,  // measure 69
M010
0001
0100
0001
1000
0000
1001
0000
,  // measure 70
0101
0000
0110
0000
0010
1000
0000
1000
,  // measure 71
0100
0010
0001
0100
1000
0100
0010
0000
,  // measure 72
1010
0000
1100
0000
0100
0010
0001
1000
,  // measure 73
0100
0010
1000
0000
0000
1000
0010
0001
,  // measure 74
0100
1000
0000
1000
0100
0010
1000
0001
,  // measure 75
1000
0010
0100
1000
0000
1000
0100
0010
,  // measure 76
0100
0010
0001
0000
0001
0010
1000
0100
,  // measure 77
0020
0000
0000
0000
,  // measure 78
0030
0000
0000
0000
;
