#TITLE:THE DETONATOR;
#SUBTITLE:;
#ARTIST:teranoid vs L.E.D.-G;
#TITLETRANSLIT:;
#SUBTITLETRANSLIT:;
#ARTISTTRANSLIT:;
#CREDIT:;
#BANNER:THE DETONATOR.png;
#BACKGROUND:THE DETONATOR-bg.png;
#LYRICSPATH:;
#CDTITLE:!profgold.png;
#MUSIC:THE DETONATOR.ogg;
#OFFSET:0.000;
#SAMPLESTART:40.000;
#SAMPLELENGTH:12.000;
#SELECTABLE:YES;
#BPMS:0.000=173.000,78.000=346.000,80.000=173.000,90.500=346.000,91.003=173.000,91.500=346.000,92.000=86.500,94.000=173.000,106.000=346.000,106.500=173.000,108.500=346.000,109.000=173.000,109.500=346.000,110.000=173.000,117.500=346.000,118.000=173.000,120.000=346.000,120.500=173.000,126.000=86.500,128.000=173.000,138.500=346.000,139.000=173.000,139.500=346.000,140.000=173.000,176.000=115.333,178.000=173.000,185.000=346.000,186.000=173.000,199.000=346.000,203.000=173.000,287.000=129.750,290.000=97.313,292.000=72.985;
#STOPS:3.938=1.387
,63.938=1.387
,78.000=0.043
,78.250=0.043
,78.500=0.043
,78.750=0.043
,79.000=0.043
,79.250=0.043
,79.500=0.043
,79.750=0.043
,90.625=0.022
,90.750=0.022
,90.875=0.022
,91.000=0.022
,91.500=0.020
,91.625=0.020
,91.750=0.020
,91.875=0.020
,106.000=0.043
,106.250=0.043
,108.938=0.087
,109.938=0.087
,117.938=0.087
,120.438=0.087
,138.938=0.087
,139.938=0.087
,185.438=0.087
,185.938=0.087
,199.000=0.043
,199.250=0.043
,199.500=0.043
,199.750=0.043
,200.000=0.043
,200.250=0.043
,200.500=0.043
,200.750=0.043
,201.000=0.043
,201.250=0.043
,201.500=0.043
,201.750=0.043
,202.000=0.043
,202.250=0.043
,202.500=0.043
,202.750=0.043
;
#BGCHANGES:;

//---------------dance-single - Profraine----------------
#NOTES:
     dance-single:
     Profraine:
     Challenge:
     12:
     0.835,1.000,0.951,0.406,0.231: // measure 1
0000
0000
0000
0000
,  // measure 2
1000
1000
1000
0010
,  // measure 3
0010
0010
0100
0100
,  // measure 4
0100
0001
0001
0001
,  // measure 5
0010
0000
0100
0000
1000
0100
0010
0001
,  // measure 6
0100
0000
0010
0100
0001
0000
1100
0000
,  // measure 7
0100
1000
0100
0001
0100
0000
0000
0000
,  // measure 8
1000
0010
0100
0001
1000
0100
0020
0000
,  // measure 9
0000
0000
0030
0000
0011
0000
0000
0001
,  // measure 10
1000
0100
0010
0200
0000
0300
0000
1000
,  // measure 11
0001
0100
0020
0000
0000
0000
0030
0000
,  // measure 12
1000
0100
0001
0100
0010
0001
0100
0000
,  // measure 13
0010
1000
0100
0010
,  // measure 14
0001
0100
0010
1000
0100
0000
0010
0000
,  // measure 15
0001
0000
0100
0010
0000
0000
1000
0000
,  // measure 16
0100
0000
0000
0000
0010
0000
0000
0000
0001
0000
0000
0000
1000
0000
0000
0000
0010
0000
0000
0000
0100
0000
0000
0000
0001
0000
0000
0000
0010
0000
0000
0000
0200
0000
0000
0000
0000
0000
0000
0000
0000
0000
0000
0000
0000
0000
0000
0000
M0MM
0000
0000
0000
0000
0000
0000
0000
0000
0000
0000
0000
0000
0000
0000
0300
,  // measure 17
10M1
0100
10M1
0100
0M11
1000
0M11
1000
,  // measure 18
1M01
0010
1M01
0010
101M
0100
101M
0100
,  // measure 19
M110
0001
M110
0001
01M1
1000
01M1
1000
,  // measure 20
011M
0000
1000
0000
011M
0000
1000
0000
M100
0010
0001
0010
010M
1000
0100
0010
,  // measure 21
M001
1M10
0001
1M10
0100
M011
0100
M011
,  // measure 22
1000
01M1
1000
01M1
1010
1010
1001
1001
,  // measure 23
M011
0000
0000
0000
0100
0000
0000
0000
M011
0000
0000
0000
0100
0000
0000
0000
1M01
0000
0000
0000
0020
0000
0000
0030
1M01
0000
0000
0000
0020
0000
0000
0030
,  // measure 24
1M01
0000
0200
0000
03M0
1000
01M0
0001
,  // measure 25
0M00
0001
M100
0010
0M00
0001
1M00
0010
,  // measure 26
01M0
1001
0M10
1001
00M0
0001
01M0
1000
,  // measure 27
0M00
0000
1000
0000
010M
0000
0010
0000
200M
0000
3100
0010
M001
0100
0010
0000
,  // measure 28
0M00
0000
0220
0000
M33M
0000
2002
0000
3MM3
0000
1000
0000
010M
0010
0001
0000
,  // measure 29
0M00
0000
0100
0000
0M10
1000
0001
0000
00M0
0000
0100
0000
M010
0100
0001
0000
,  // measure 30
1M10
0001
101M
0200
03M0
0001
M010
0100
,  // measure 31
20M0
3001
01M0
1000
0200
0000
0320
0000
,  // measure 32
1030
0000
0000
0000
0000
0000
0000
0000
0000
0000
0000
0000
0100
0000
0000
0000
0000
0000
0000
0000
0000
0000
0000
0000
0010
0000
0000
0000
0000
0000
0000
0000
0000
0000
0000
0000
0001
0000
0000
0000
0000
0000
0000
0000
0000
0000
0000
0000
1000
0000
0000
0000
0000
0000
0000
0000
0000
0000
0000
0000
0002
0000
0000
0000
0000
0000
0003
0000
0000
0000
0000
0000
2000
0000
0000
0000
0000
0000
3000
0000
0000
0000
0000
0000
0002
0000
0000
0000
0000
0000
0003
0000
0000
0000
0000
0000
0200
0000
0000
0000
0000
0000
0000
0000
0000
0000
0000
0000
0000
0000
0000
0000
0000
0000
0000
0000
0000
0000
0000
0000
0300
0000
0000
0000
0000
0000
0000
0000
0000
0000
0000
0000
0000
0000
0000
0000
0000
0000
0000
0000
0000
0000
0000
0000
0000
0000
0000
0000
0000
0000
0000
0000
0000
0000
0000
0000
0000
0000
0000
0000
0000
0000
0000
0000
0000
0000
0000
0000
0020
0000
0000
0000
0000
0000
0000
0000
0000
0000
0000
0000
0000
0000
0000
0000
0000
0000
0000
0000
0030
0000
0000
0000
,  // measure 33
1M01
1000
010M
0010
M011
0001
01M1
0100
,  // measure 34
011M
0010
100M
0100
M110
0010
00M1
0100
,  // measure 35
00M1
0000
1000
0001
0010
0100
0010
0000
0100
0000
2000
0000
3M10
0000
0200
0000
,  // measure 36
M301
0010
010M
1000
10M1
0001
010M
1000
,  // measure 37
11M0
0100
0M10
1000
M100
0011
01M0
1010
,  // measure 38
0M01
0100
100M
0100
01M1
0001
0010
1000
,  // measure 39
0010
0000
0001
0100
0010
0000
1000
0001
0010
0000
0100
0000
1000
0100
1000
0100
,  // measure 40
11M0
0001
11M0
0010
0M11
1000
0M11
1000
,  // measure 41
101M
0100
101M
0100
M101
0101
0011
0011
,  // measure 42
0010
1M01
0010
1M01
0100
M011
0100
M011
,  // measure 43
1000
0000
01M1
0000
1000
0000
01M1
0000
0001
0000
0010
0M00
1000
0000
0010
0000
,  // measure 44
0M11
1000
0M11
1000
001M
0100
00M1
0000
,  // measure 45
2M02
0000
0000
0000
3003
0000
2M20
0000
0000
0000
3030
0000
02M2
0000
0303
0000
0000
0000
10M1
0000
0000
0100
0000
0000
,  // measure 46
10M1
0000
0100
0000
100M
0100
0010
0001
M010
0100
1000
0100
001M
0100
0010
0100
,  // measure 47
M010
0001
0100
0000
0020
0000
0230
0000
13M1
0000
0000
0000
1M01
0000
0000
0000
,  // measure 48
110M
01M1
1M10
110M
,  // measure 49
01M1
M011
011M
11M0
,  // measure 50
1M01
0000
0000
0000
01M1
0000
0000
0000
M011
0000
0000
0000
001M
0100
0010
0100
,  // measure 51
1000
0100
1000
0100
1000
0100
0010
0001
0010
0100
1000
0100
011M
0000
0000
0000
,  // measure 52
M011
10M1
1M10
011M
,  // measure 53
0101
0011
0110
1100
,  // measure 54
1001
0101
0011
0002
,  // measure 55
0023
0000
0230
0000
2300
0000
3010
0100
,  // measure 56
0001
0010
0100
0100
1000
0010
MMMM
0100
,  // measure 57
0001
0000
1000
0000
0010
0000
0010
0000
0100
0001
0010
0000
MMMM
0000
0100
0000
,  // measure 58
100M
0010
0100
0100
00M1
1000
1100
0000
,  // measure 59
011M
0010
0011
0000
10M1
0000
1000
0010
,  // measure 60
01M0
0000
0001
0000
0010
0000
0000
0100
0000
0000
1100
0000
1M00
0000
0001
0000
,  // measure 61
0100
0000
1000
0000
01M0
0000
0000
0010
0000
0000
1010
0000
100M
0000
0100
0000
,  // measure 62
0001
0100
M020
0000
0000
0000
0000
0000
,  // measure 63
0030
0000
0000
0000
0000
0000
0000
0000
0MM2
0000
0000
0000
0000
0000
0000
0000
0003
0000
0000
0000
0000
0000
0000
0000
2MM0
0000
0000
0000
0000
0000
0000
0000
3000
0000
0000
0000
0000
0000
0000
0000
0MM2
0000
0000
0000
0000
0000
0000
0003
1001
0000
0000
0000
0000
0000
0000
0000
10M0
0000
0000
0000
0000
0000
0000
0000
,  // measure 64
0100
001M
0100
M100
0001
01M0
1000
001M
,  // measure 65
0100
M010
1000
100M
0100
M010
0001
01M0
,  // measure 66
0010
100M
0100
M100
0010
00M1
0100
001M
,  // measure 67
0010
100M
0100
M100
0010
0M10
0001
M100
,  // measure 68
0010
0000
100M
0000
0100
0000
M100
0000
0010
0000
0M01
0000
1000
0100
001M
0100
,  // measure 69
1000
0100
M010
0001
0010
0100
10M0
0100
0010
0001
M010
0100
200M
0000
0000
0000
,  // measure 70
0M00
0000
302M
0000
M230
0000
031M
10M0
,  // measure 71
0M01
0000
01M0
0000
M000
0000
0M00
0000
002M
0000
M000
0030
0101
0000
0000
0000
,  // measure 72
10M0
M002
0M00
00M0
0M00
M000
0M00
00M0
,  // measure 73
0M00
M000
0M00
00M0
0M00
M000
0M00
00M0
,  // measure 74
0M00
M000
0M00
00M3
0000
0000
0000
0000
;
