#TITLE:Summoned Beast Battle;
#SUBTITLE:;
#ARTIST:Junya Nakano;
#TITLETRANSLIT:;
#SUBTITLETRANSLIT:;
#ARTISTTRANSLIT:;
#GENRE:;
#CREDIT:;
#MENUCOLOR:;
#METERTYPE:;
#BANNER:Summoned Beast Battle.png;
#BACKGROUND:Summoned Beast Battle-bg.png;
#LYRICSPATH:;
#CDTITLE:!prof.png;
#MUSIC:Summoned Beast Battle.ogg;
#OFFSET:-0.060;
#SAMPLESTART:31.920;
#SAMPLELENGTH:16.000;
#SELECTABLE:YES;
#LISTSORT:;
#BPMS:0.000=96.000;
#STOPS:;
#BGCHANGES:;
#ATTACKS:;

//---------------dance-single - Profraine----------------
#NOTES:
     dance-single:
     Profraine:
     Challenge:
     12:
     0.870,0.980,0.365,0.062,1.000: // measure 1
0000
0000
0000
0000
,  // measure 2
0000
0000
0000
0000
,  // measure 3
0000
0000
0000
0010
,  // measure 4
0000
1000
0100
0010
,  // measure 5
0000
0001
0000
0121
,  // measure 6
0000
0000
0000
0000
0030
0000
0000
0000
0000
0000
0000
0000
0000
0000
0000
1100
,  // measure 7
0000
0000
0110
0000
0000
0000
0011
0000
0000
0000
0000
0000
0001
0010
0100
1000
0001
0010
0100
1000
0000
0000
0000
0000
0000
0000
0001
0010
0001
0010
0001
0010
,  // measure 8
0100
0010
0100
0010
0100
0010
0100
0010
0100
1000
0100
1000
0100
1000
0100
1000
0100
1000
0001
1000
0001
1000
0001
1000
0001
0000
0000
0000
0001
0000
0101
0000
,  // measure 9
0000
0000
0001
0010
0100
0001
0110
0000
0100
1100
0000
0000
1000
0010
0100
0010
,  // measure 10
0101
0000
0001
1001
0000
0000
1000
0100
0001
0100
1100
0000
1000
1010
0000
0000
,  // measure 11
0010
0000
0100
0000
0001
0000
1000
0000
1001
0000
0000
0000
1000
0000
1100
0000
0000
0000
0000
0000
0100
0010
0100
0000
0010
0001
0010
0000
0101
0000
0000
0000
,  // measure 12
0100
0000
0110
0000
0000
0000
0000
0000
0010
1000
0010
0000
1000
0100
1000
0000
0110
0000
0000
0000
0010
0000
0011
0000
0000
0000
0000
0000
0001
1000
0001
0000
,  // measure 13
1000
0010
1000
0000
0110
0000
0000
0000
0100
0000
0102
0000
0000
0000
0000
0000
0013
0000
0100
0000
1000
0000
0100
0000
1100
0000
0000
0000
1000
0000
0100
0000
,  // measure 14
0000
0000
0001
0000
0100
0000
0000
0000
1000
0100
0010
0001
0100
0000
0010
0000
1000
0000
0001
0000
0000
0000
0001
0000
0100
0000
0000
0000
0010
1000
0100
0000
,  // measure 15
0010
0000
0100
0000
0010
0000
0001
0000
0000
0000
0001
0000
0100
0000
0000
0000
0001
1000
0100
0010
0001
0000
0010
0000
0100
0000
1000
0000
0000
0000
0001
0000
,  // measure 16
1000
0000
0000
0000
0100
1000
0001
0000
1000
0000
0000
0000
0100
0000
0010
0000
0000
0000
0010
0000
0001
0000
0000
0000
0001
1000
0001
0100
0010
0000
0001
0000
,  // measure 17
0100
0000
1000
0000
0000
0000
1000
0000
0100
0000
0000
0000
0001
0010
0100
0000
1000
0000
0100
0000
0001
0000
0100
0000
0000
0000
0100
0000
0010
0000
0000
0000
,  // measure 18
0001
0100
0010
1000
0010
0000
1000
0000
0100
0000
0010
0000
0000
0000
0100
0000
0001
0000
0000
0000
0100
1000
0010
0000
0100
0000
0000
0000
0001
0000
0010
0000
,  // measure 19
0000
0000
1000
0000
0010
0000
0000
0000
0001
0100
0010
1000
0100
0000
0010
0000
0001
0000
0010
0000
0000
0000
0100
0000
1000
0000
0000
0000
0010
0100
0010
0000
,  // measure 20
1000
0000
0100
0000
0010
0000
0100
0000
0000
0000
0010
0000
0001
0000
0000
0000
0001
0010
0100
1000
0100
0000
0001
0000
0100
0000
1000
0000
0000
0000
0010
0000
,  // measure 21
0100
0000
1000
0000
0100
0010
1000
0000
0001
0000
0000
0000
0010
0000
0100
0000
0000
0000
0100
0000
1000
0000
0000
0000
1000
0100
0010
0001
0100
0000
0010
0000
,  // measure 22
0001
0000
0010
0000
0000
0000
1000
0000
0001
0000
0000
0000
0001
0010
0100
0000
1000
0000
0010
0000
0100
0000
0001
0000
0000
0000
0001
0000
0010
0000
0000
0000
,  // measure 23
0100
1000
0100
0010
0001
0000
0000
0000
0001
0000
0100
0000
0000
0000
1000
0000
0010
0000
0100
0000
0010
0000
1000
0000
0100
0000
0000
0000
0100
0000
0010
0000
,  // measure 24
0000
0000
0010
0000
0001
0000
0000
0000
1000
0001
1000
0001
1000
0000
0010
0000
0100
0000
0001
0000
0000
0000
0001
0000
0010
0000
0000
0000
0010
0100
1000
0100
,  // measure 25
1000
0000
0000
0000
0100
0000
0010
0000
0000
0000
0010
0000
0001
0000
0000
0000
0001
1000
0001
0100
0010
0000
1000
0000
0100
0000
0001
0000
0000
0000
0001
0000
,  // measure 26
0100
0000
0000
0000
1000
0100
0010
0100
0010
0000
0000
0000
0001
0000
1000
0000
0000
0000
1000
0000
0010
0000
0000
0000
0010
0100
0001
0010
0100
0000
1000
0000
,  // measure 27
0001
0000
0100
0000
0000
0000
1000
0000
0100
0000
0000
0000
0100
0001
0100
0001
0010
0000
0100
0000
1000
0000
0001
0000
0000
0000
0001
0000
0100
0000
0000
0000
,  // measure 28
0100
0010
0100
0001
0010
0000
0100
0000
1000
0000
0100
0000
0010
0000
0001
0000
0100
0000
0010
0000
1000
0000
0001
0000
1001
0000
1000
0000
1000
0000
1001
0000
,  // measure 29
0001
0001
0000
0001
0000
0001
0101
0100
0100
0110
0010
0010
0000
0010
0000
0010
,  // measure 30
1010
1000
1000
1100
0100
0100
0000
0100
0000
0100
0101
0001
0001
0101
0100
0100
,  // measure 31
0100
1000
0100
0010
0001
0100
0010
1000
0001
0000
0001
0000
0001
0000
0101
0000
0100
0000
0100
0000
0000
0000
0100
0000
0000
0000
0100
0000
0110
0000
0010
0000
,  // measure 32
0010
1010
1000
1000
0000
1000
0000
1000
1001
0001
0001
0011
0010
0010
0000
0010
,  // measure 33
0000
0000
0010
0000
1010
0000
1000
0000
1000
0000
1010
0000
0010
0000
0010
0000
0010
0001
0100
0010
1000
0001
0100
0010
1000
0100
1000
0100
1000
0000
0100
0000
,  // measure 34
0010
0001
0010
0001
0010
0100
0010
0100
0010
0100
1000
0100
1000
0000
0000
0000
0000
0000
1100
0000
0000
0000
0010
0000
0001
0000
0100
0000
0010
1000
0100
0010
,  // measure 35
0001
1000
0001
1000
0001
0000
0100
0000
0010
1000
0010
1000
0010
0100
0010
0100
0010
1000
0100
0010
0001
0000
0000
0000
0000
0000
1010
0000
0000
0000
0000
0000
,  // measure 36
0100
0000
0001
0000
0010
0100
1000
0000
0100
0010
0100
0010
0100
0000
1000
0000
0001
0100
0001
0100
0001
1000
0001
1000
0001
1000
0100
0010
0100
0000
0000
0000
,  // measure 37
0000
0000
1010
0000
0000
0000
0100
0000
0001
0000
0010
0000
0001
0010
0100
1000
0010
0100
0010
0100
0010
0000
1000
0000
0100
0010
0100
0010
0100
0010
0001
0010
,  // measure 38
0001
0100
0001
0100
0001
0000
0000
0000
0000
0000
1100
0000
0000
0000
0000
0000
1000
0000
0100
0000
0010
0001
0100
0010
1000
0100
1000
0001
1000
0100
1000
0001
,  // measure 39
1000
0100
0010
0100
1000
0100
0010
0100
1000
0010
1000
0010
1000
0001
0100
0001
1000
0100
0010
0001
0010
0100
1000
0000
0000
0000
0001
0000
0100
0000
0010
0000
,  // measure 40
0100
0001
0100
0010
0100
0001
0100
0010
0100
0010
1000
0001
1000
0010
0100
0001
0010
0100
1000
0100
1000
0000
0000
0000
0000
0000
0110
0000
0000
0000
0000
0000
,  // measure 41
0001
0000
0100
0000
1000
0000
0100
0000
0010
1000
0010
1000
0001
1000
0001
1000
0001
0010
0001
0010
0001
0010
0100
0010
0100
1000
0100
0010
0001
0000
0000
0000
,  // measure 42
0000
0000
1010
0000
0000
0000
0000
0000
0100
0000
0001
0000
0010
0000
0100
0000
1000
0001
1000
0001
1000
0001
1000
0001
1000
0100
0010
0100
0010
0100
0010
0100
,  // measure 43
0010
0001
0010
0100
1000
0000
0000
0000
0000
0000
1000
0000
0000
0000
0100
0000
0010
0000
0001
0000
0100
0000
0010
0000
2000
0000
3000
0000
0000
0000
0000
0000
,  // measure 44
0020
0000
0000
0000
0200
0000
0000
0000
0002
0000
1000
1000
2000
0330
0000
0000
,  // measure 45
3MM3
0000
0000
0000
;
