#TITLE:Programmed Sun;
#SUBTITLE:;
#ARTIST:kors k;
#TITLETRANSLIT:;
#SUBTITLETRANSLIT:;
#ARTISTTRANSLIT:;
#CREDIT:;
#BANNER:Programmed Sun.png;
#BACKGROUND:Programmed Sun-bg.png;
#LYRICSPATH:;
#CDTITLE:!profsirius.png;
#MUSIC:Programmed Sun.ogg;
#OFFSET:0.000;
#SAMPLESTART:69.980;
#SAMPLELENGTH:13.360;
#SELECTABLE:YES;
#BPMS:0.000=144.000,33.750=576.000,35.000=287.999,36.000=144.000,64.000=287.999,68.000=144.000,84.000=287.999,92.500=144.000,93.000=287.999,93.500=144.000,94.000=287.999,100.000=36.000,108.000=72.000,124.000=144.000,124.000=287.999,128.000=144.000,156.000=288.000,160.000=144.000,188.000=288.000,192.000=144.000;
#STOPS:33.750=0.234
,34.938=0.156
,35.000=0.035
,35.167=0.035
,35.333=0.035
,35.500=0.104
,64.000=0.104
,64.500=0.104
,65.000=0.156
,65.750=0.156
,66.500=0.104
,67.000=0.026
,67.125=0.026
,67.250=0.026
,67.375=0.026
,67.500=0.026
,67.625=0.026
,67.750=0.026
,67.875=0.026
,84.000=0.104
,84.500=0.208
,85.500=0.052
,85.750=0.156
,86.500=0.208
,87.500=0.208
,88.500=0.104
,89.000=0.156
,89.750=0.156
,90.500=0.104
,91.000=0.052
,91.250=0.052
,91.500=0.052
,91.750=0.052
,92.000=0.104
,93.000=0.104
,94.000=0.104
,94.500=0.104
,95.000=0.104
,95.500=0.026
,95.625=0.026
,95.750=0.026
,95.875=0.026
,96.000=0.104
,96.500=0.052
,96.750=0.052
,97.000=0.052
,97.250=0.052
,97.500=0.052
,97.750=0.052
,98.438=0.104
,98.938=0.104
,99.000=0.026
,99.125=0.026
,99.250=0.026
,99.375=0.026
,99.500=0.104
,124.000=0.104
,124.500=0.104
,125.000=0.052
,125.250=0.052
,125.500=0.052
,125.750=0.052
,126.000=0.069
,126.333=0.069
,126.667=0.069
,127.000=0.104
,127.500=0.104
,156.000=0.104
,156.500=0.104
,157.000=0.052
,157.250=0.052
,157.500=0.104
,158.000=0.035
,158.167=0.035
,158.333=0.035
,158.500=0.104
,159.438=0.104
,159.500=0.104
,188.000=0.026
,188.125=0.026
,188.250=0.026
,188.375=0.026
,188.500=0.026
,188.625=0.026
,188.750=0.052
,189.000=0.052
,189.250=0.052
,189.500=0.052
,189.750=0.052
,190.000=0.035
,190.167=0.035
,190.333=0.035
,190.500=0.035
,190.667=0.035
,190.833=0.035
,191.938=0.208
;
#BGCHANGES:;

//---------------dance-single - Profraine----------------
#NOTES:
     dance-single:
     Profraine:
     Challenge:
     11:
     0.638,0.660,0.275,0.459,0.647: // measure 1
0000
0000
0000
0000
,  // measure 2
0002
0000
0003
010M
0000
0000
0000
0000
,  // measure 3
0020
0000
0030
20M0
3000
M002
0003
000M
,  // measure 4
0020
0030
00M0
0200
0000
0300
2M00
3000
,  // measure 5
M020
0000
0030
02M0
0300
0M02
0003
000M
,  // measure 6
0020
0000
0030
01M0
0000
1000
0000
0001
,  // measure 7
0020
0100
0030
00M2
0003
020M
0300
0M10
,  // measure 8
2000
0100
3000
M002
0000
0103
000M
0001
,  // measure 9
0000
0000
0000
0000
0000
0000
1000
0000
0000
0100
0000
0000
0010
0000
0000
0001
0000
0000
0010
0000
0000
0100
0000
0000
0000
0000
0000
0000
0000
0000
2000
0000
0000
0000
0000
0000
3010
0000
1000
0000
0001
0000
0100
0000
0000
0000
0000
0000
,  // measure 10
1010
0010
0000
0102
0003
002M
0030
02M0
,  // measure 11
0300
0000
0M01
0100
0000
0000
1000
0010
0000
0000
0100
0001
0000
0000
0001
1000
,  // measure 12
0000
0000
1000
0010
0000
0000
0010
0100
0000
0000
0001
0100
0000
0000
0010
1000
,  // measure 13
0000
0000
0001
0010
0000
0000
0100
1000
0000
0000
1000
0100
0000
0000
0010
0001
,  // measure 14
0010
0000
0001
0100
0001
0100
0010
0000
1000
0100
1000
0100
0010
0001
0010
0001
,  // measure 15
0100
0000
0010
1000
0010
1000
0100
0000
0010
0100
0010
0100
0010
0001
0010
0001
,  // measure 16
1000
0000
0001
1000
0001
1000
0010
0100
0010
0000
1000
0100
1000
0000
0000
0000
,  // measure 17
0110
0000
0110
0000
0110
0000
0000
0011
0000
0000
0200
0000
0320
0000
2030
0000
,  // measure 18
3001
0000
1000
0010
0100
0000
01M1
0000
0000
0000
0001
0010
0100
0000
2M00
0000
,  // measure 19
3000
0000
0010
0100
0001
0000
002M
0000
0030
0000
0100
1000
0100
0000
0M20
0000
,  // measure 20
0030
0000
0001
1000
0010
0000
02M0
0000
0300
0000
0001
1000
0100
0000
0M20
0000
,  // measure 21
0031
0100
0001
0100
0001
0000
0100
0010
0100
0010
0100
0000
0010
1000
0010
1000
,  // measure 22
0010
0000
0010
0000
0000
0000
1000
0100
0000
0000
0101
0000
0000
0000
0110
0000
,  // measure 23
0000
0000
1010
0000
1000
0000
0000
0101
0000
0000
0011
0000
0100
0010
0100
1000
,  // measure 24
0100
0100
0110
0100
1100
1000
1001
0002
,  // measure 25
0103
0000
0010
1000
0001
0100
0001
0010
0001
0000
1001
0000
2000
0000
3020
0000
,  // measure 26
1030
0000
0010
0100
,  // measure 27
0001
1000
0010
1000
,  // measure 28
0100
0010
0002
0000
0000
0000
0000
2000
0000
0000
0000
0000
3003
0000
0000
0000
,  // measure 29
1000
0010
0000
0200
0000
0000
0000
0020
0000
0000
0000
0000
0330
0000
0000
0000
,  // measure 30
1000
0001
1000
0200
0000
0000
0000
2000
0000
0000
0000
0000
3300
0000
0001
0000
,  // measure 31
0200
0000
0000
0000
0300
0000
0001
0010
0100
0000
0000
0000
0000
0000
0000
0000
,  // measure 32
1000
0000
0000
0000
0000
0000
1000
0000
0000
0000
0000
0000
0010
0000
0000
0100
0000
0000
0010
0000
0000
0100
0000
0000
0010
0000
0000
0000
1000
0000
0000
0000
0001
0000
0000
0000
0010
0000
0000
0000
0000
0000
0100
0000
0000
0000
0000
0000
,  // measure 33
0MM0
1001
0000
1000
0100
0000
0001
0100
0000
1000
0100
0000
0010
0000
0001
0100
,  // measure 34
0000
0010
0000
1000
0001
0000
0000
0010
0000
0100
1000
0001
0010
0000
0100
0010
,  // measure 35
0000
0010
0001
0000
0011
0000
0000
0001
0000
0000
0110
0000
0000
0010
0000
1000
,  // measure 36
0000
0100
0010
0000
0001
0000
0000
1100
0000
0000
1000
0000
0010
0100
0001
0010
,  // measure 37
0000
0100
0000
1000
0010
0000
0000
0101
0000
0001
0010
0100
0010
0000
0100
1000
,  // measure 38
0000
1010
0000
0000
0010
0000
0000
0100
0000
0000
0001
0010
0100
0000
1000
0010
,  // measure 39
0000
0110
0000
0000
0100
0000
0001
0010
0000
0100
0001
0100
1000
0000
0010
0100
,  // measure 40
0001
0000
1000
0000
0010
0100
0010
0000
2000
0000
3100
0000
0020
0000
0002
0030
,  // measure 41
1003
0000
0010
0100
0001
0000
0100
0000
1000
0000
0100
0000
0000
0000
1001
0000
,  // measure 42
0000
0000
0001
0010
0100
0000
2M00
0000
3000
0000
0010
0100
0001
0000
002M
0000
,  // measure 43
0130
0000
0001
0000
0000
0000
0100
0000
0000
0000
1000
0010
0100
0010
1000
0100
,  // measure 44
0010
0000
0010
0001
0000
0100
0000
0001
1000
0000
1000
0010
0000
0100
0000
0001
,  // measure 45
0100
1000
0100
0001
0000
0010
0000
1100
,  // measure 46
0000
0000
1000
0001
0100
0010
1000
0000
1000
0100
0000
0100
0010
0000
0010
0001
,  // measure 47
1000
0000
0100
0010
0001
0000
0000
0000
0110
0000
0010
1000
0001
0000
0000
0000
,  // measure 48
2000
0000
0000
0000
0000
0000
0000
0000
0000
0000
0000
0000
0000
0000
0000
0000
0000
0000
0000
0000
0000
0000
0000
0000
0000
0000
0000
0000
0000
0000
0000
0000
0000
0000
0000
0000
3100
0000
0000
0000
0000
0000
0000
0000
0000
0000
0000
0000
0010
0000
0000
0000
0000
0000
0000
0000
0000
0000
0000
0000
0001
0000
0000
0000
0000
0000
0000
0000
0000
0000
0000
0000
1000
0000
0000
0000
0000
0000
0000
0000
0000
0000
0000
0000
0001
0000
0000
0000
0000
0000
0000
0000
0000
0000
0000
0000
0100
0000
0000
0000
0000
0000
0000
0000
0010
0000
0000
0000
0000
0000
0000
0000
0100
0000
0000
0000
0000
0000
0000
0000
0010
0000
0000
0000
0000
0000
0000
0000
0100
0000
0000
0000
0000
0000
0000
0000
0010
0000
0000
0000
0000
0000
0000
0000
0200
0000
0000
0000
0000
0000
0000
0000
0000
0000
0000
0000
0000
0000
0000
0000
0000
0000
0000
0000
0000
0000
0000
0000
0000
0000
0000
0000
0000
0000
0000
0000
0000
0000
0000
0000
0000
0000
0000
0000
0000
0000
0000
0000
0000
0300
0000
0000
,  // measure 49
1M01
0000
0000
0000
;
