#TITLE:Of Course You Need and nEed and neEd and neeD and NEED ME;
#SUBTITLE:;
#ARTIST:t+pazolite;
#TITLETRANSLIT:;
#SUBTITLETRANSLIT:;
#ARTISTTRANSLIT:;
#GENRE:HARDCORE;
#CREDIT:;
#MENUCOLOR:;
#NEWMETERSYSTEM:NO;
#BANNER:Of Course You Need and nEed and neEd and neeD and NEED ME.png;
#BACKGROUND:Of Course You Need and nEed and neEd and neeD and NEED ME-bg.png;
#LYRICSPATH:;
#CDTITLE:!prof.png;
#MUSIC:Of Course You Need and nEed and neEd and neeD and NEED ME.ogg;
#OFFSET:-0.042;
#SAMPLESTART:63.966;
#SAMPLELENGTH:16.420;
#SELECTABLE:YES;
#LISTSORT:;
#BPMS:0.000=240.000,96.000=60.000,104.000=120.000,120.000=240.000,155.750=120.000,157.750=240.000,161.750=120.000,163.750=240.000,168.000=135.000,170.250=240.000,178.000=120.000,194.000=240.000;
#STOPS:;
#BGCHANGES:;
#ATTACKS:;

//---------------dance-single - K. Hirokazu----------------
#NOTES:
     dance-single:
     K. Hirokazu:
     Challenge:
     13:
     0.933,1.000,0.611,0.128,0.502: // measure 1
0000
0000
0000
0000
,  // measure 2
0000
0000
0000
0000
,  // measure 3
0000
0000
0000
0000
,  // measure 4
0000
0000
0000
0000
,  // measure 5
0000
0000
0000
0000
,  // measure 6
0000
0000
0000
0000
,  // measure 7
0000
0000
0000
0000
,  // measure 8
0000
0000
0011
0110
,  // measure 9
1000
1001
1000
1010
,  // measure 10
1000
0000
1100
0000
1000
0000
1000
0100
,  // measure 11
0010
0011
0010
0110
,  // measure 12
0010
0000
0000
0000
1010
0000
0000
0000
0010
0001
0010
0000
0001
0000
1000
0000
,  // measure 13
0100
0101
0100
0110
,  // measure 14
0100
0000
1100
0000
0100
0000
0100
0010
,  // measure 15
0001
1001
0001
0101
,  // measure 16
0001
0010
0001
0100
0010
0000
1000
0010
,  // measure 17
0100
1000
0100
0001
0100
1000
0100
0001
,  // measure 18
0100
1000
0100
0001
0100
0000
0010
0000
,  // measure 19
1000
0100
0001
0100
1000
0100
0001
0100
,  // measure 20
1000
0000
0100
1000
0100
0000
1000
0000
0100
0000
1000
0000
0100
0000
0010
0000
,  // measure 21
0001
0100
1000
0100
0001
0100
1000
0100
,  // measure 22
0001
0100
1000
0100
0001
0100
1000
0100
,  // measure 23
0001
0100
0001
0100
0001
0100
0001
0100
,  // measure 24
0010
1000
0010
0100
0001
0000
0010
0000
,  // measure 25
2200
0000
0000
0000
0000
0000
0000
3000
,  // measure 26
0020
0000
0000
0000
0000
0000
0000
0300
0002
0000
0000
0000
0000
0030
0003
0000
,  // measure 27
1000
0000
0100
0000
0011
0000
0001
0100
0000
0001
0010
0000
1010
0000
1000
0100
,  // measure 28
0010
0001
0101
0100
0010
1000
1100
0000
,  // measure 29
0001
0000
0100
0000
1010
0000
1000
0000
0100
0000
0010
0000
0100
1000
0100
0010
,  // measure 30
0100
0000
0000
0000
1100
0000
0000
0000
0001
0000
0000
0000
0100
0000
0001
0010
0100
0000
0000
0000
0000
0001
0010
0001
0000
0000
0000
0100
0010
0100
0000
0000
,  // measure 31
0010
0000
1000
0000
0100
0010
0100
0000
1000
0000
0001
0000
0100
0000
0010
0000
,  // measure 32
0100
0010
1000
0000
0100
0000
0010
0000
0002
0003
0200
0300
0002
0103
0002
0003
,  // measure 33
0010
0000
0100
0000
0001
1000
0010
0000
0100
0000
0001
0000
0200
0000
0320
0000
,  // measure 34
0130
0010
0100
0000
0001
0000
0010
0000
0100
1000
0100
0000
2000
0000
0000
0000
,  // measure 35
3001
0100
0001
0100
0001
0000
1000
0000
0100
0000
0010
0000
0100
0000
1000
0000
,  // measure 36
0001
0000
0010
0000
0001
0000
0100
0010
0100
0010
0100
0000
0001
1000
0001
0000
,  // measure 37
0010
0000
0100
0000
1000
0010
1000
0000
0100
0000
0020
0000
0000
0032
0000
0000
,  // measure 38
0103
0001
0100
0001
0100
0000
0010
0000
1000
0000
0100
0000
0010
0100
0010
0000
,  // measure 39
0001
0000
1000
0000
0010
0000
1000
0100
1000
0000
0010
0000
0100
0000
0000
0001
,  // measure 40
0000
0001
0000
1000
0000
0100
0010
0001
0000
1000
0000
0010
0100
0010
0000
1000
,  // measure 41
0100
0000
0000
0000
1000
0000
0000
0000
0000
0000
0000
0000
0010
0000
0000
0000
0000
0000
0000
0000
0001
0000
0000
0000
0000
0000
0000
0000
0010
0000
0000
0000
1000
0000
0000
0000
0001
0000
0000
0000
0010
0000
0000
0000
0000
0100
0000
0000
0000
0000
0000
0000
0000
0000
1000
0000
0000
0000
0000
0000
0001
0000
0000
0000
,  // measure 42
0100
0001
0100
0001
0100
0000
0010
1000
0000
0100
0000
0010
0000
0001
0000
0000
,  // measure 43
1000
0000
0000
0000
0000
0000
0000
0000
0000
0000
0000
0000
0000
0000
0000
0000
0001
0000
0000
0000
0000
0000
0000
0000
0000
0000
0000
0000
0000
0000
0000
0000
0000
0000
0000
0000
0000
0000
0000
0000
0000
0000
0100
0000
0000
0000
0000
0000
0000
0000
0000
0000
0000
0000
0000
0000
0000
0000
0000
0000
0000
0000
0000
0000
0000
0000
0010
0000
0000
0000
0000
0000
0000
0000
0000
0000
0000
0000
0000
0000
0000
0000
0000
0000
0100
0000
0000
0000
0000
0000
0000
0000
0000
0000
0000
0000
0001
0000
0000
0000
0000
0000
0000
0000
0000
0000
0000
0000
0100
0000
0000
0000
0000
0000
0000
0000
0000
0000
0000
0000
0010
0000
0000
0000
0000
0000
0000
0000
0000
0000
0000
0000
0100
0000
0000
0000
0000
0000
0000
0000
0000
0000
0000
0000
0010
0000
0000
0000
0000
0000
0000
0000
0000
0000
0000
0000
1000
0000
0000
0000
0000
0000
0000
0000
0000
0000
0000
0000
0000
0000
0000
0000
0000
0000
0000
0000
0000
0000
0000
0000
0100
0000
0000
0000
0000
0000
0000
0000
0000
0000
0000
0000
,  // measure 44
0010
0001
1000
0001
0100
0100
0100
0100
,  // measure 45
0100
0100
0010
0000
1001
1001
1001
1001
,  // measure 46
1001
1001
1001
0000
1100
1100
1100
1100
,  // measure 47
1100
1100
1100
0000
0101
0101
0101
0101
,  // measure 48
0101
0101
0101
0000
0110
0110
0110
0110
,  // measure 49
0110
0000
0110
0000
0110
0100
0010
0010
1000
0000
1000
0000
0100
0000
0001
0000
,  // measure 50
0M00
1000
0100
0001
0M00
1000
0100
0001
,  // measure 51
0100
1000
0100
1000
0010
0000
0100
0000
0001
0000
0001
0000
0100
0000
1000
0000
,  // measure 52
0M00
0001
0100
1000
0M00
0001
0100
1000
,  // measure 53
0100
0001
0100
0001
1000
0000
0001
0000
0100
0000
0010
0000
1000
0000
0100
0000
,  // measure 54
M000
0010
1000
0100
M000
0010
1000
0100
,  // measure 55
0010
0001
0010
0001
0100
0000
0010
0000
1000
0000
0100
0000
0010
0000
0001
0000
,  // measure 56
00M0
0100
0010
0001
00M0
0100
0010
0001
,  // measure 57
1000
0001
1000
0010
1000
0100
1000
0000
0010
0000
0010
0000
1000
0000
0100
0000
,  // measure 58
M000
0010
1000
0100
M000
0010
1000
0100
,  // measure 59
0010
0100
0010
0100
1000
0000
0001
0000
0010
0000
0010
0000
0100
0000
1000
0000
,  // measure 60
0M00
0010
0100
1000
0M00
0010
0100
1000
,  // measure 61
0001
0100
0001
0100
0001
0000
1000
0000
0010
0000
1000
0000
0010
0000
0001
0000
,  // measure 62
00M0
1000
0010
0001
00M0
1000
0010
0001
,  // measure 63
0010
1000
0010
1000
0010
0000
0100
0000
0001
0000
1000
0000
0001
0000
0100
0000
,  // measure 64
000M
1000
0001
0100
0010
0100
0010
1000
,  // measure 65
0100
0000
0101
0000
1000
1000
0100
0010
,  // measure 66
0M10
0001
0010
0100
01M0
1000
0100
0010
,  // measure 67
0001
0010
0001
0010
0001
0000
0100
0000
0010
0000
0010
0000
1000
0000
0001
0000
,  // measure 68
00M1
1000
0010
0100
M100
0010
1000
0001
,  // measure 69
0010
0100
0010
0100
0010
0000
0100
0000
1000
0000
0010
0000
0100
0000
0001
0000
,  // measure 70
00M1
0100
0010
1000
1M00
0010
0100
0001
,  // measure 71
0010
0001
0010
0100
1000
0000
0010
0000
0100
0000
0001
0000
0010
0000
0100
0000
,  // measure 72
01M0
1000
0001
0010
M010
0100
1000
0010
,  // measure 73
0100
0010
0100
0010
0100
0000
0010
0000
1001
0000
0000
0000
0100
0000
0100
0000
,  // measure 74
0110
0000
0001
0001
0101
0000
1000
1000
,  // measure 75
1100
0000
0110
0000
0011
0000
0100
0100
,  // measure 76
0110
0000
0001
0001
1001
0000
0010
0010
,  // measure 77
1010
0000
0110
0000
1100
0100
0010
0001
,  // measure 78
0100
0010
1000
0010
1000
0100
0010
0001
,  // measure 79
0010
0000
0100
0000
0010
0000
0001
0000
0100
0010
0100
0001
1000
0100
0010
0000
,  // measure 80
0001
0100
0010
0100
0001
0010
0100
0000
0010
0100
1000
0100
0010
0001
0010
0100
,  // measure 81
1000
0100
0010
0001
0010
0100
1000
0100
0010
0000
0000
0000
0000
0000
0000
0000
,  // measure 82
0101
0000
0000
0000
0000
0000
0010
0000
0000
0100
0000
0000
1010
0000
0000
0000
M0M0
0000
0000
0000
0000
0000
0000
0000
;
