#TITLE:Nightmare;
#SUBTITLE:(Sinister Strings Mix);
#ARTIST:Brainbug;
#TITLETRANSLIT:;
#SUBTITLETRANSLIT:;
#ARTISTTRANSLIT:;
#CREDIT:;
#BANNER:Nightmare (Sinister Strings Remix).png;
#BACKGROUND:Nightmare (Sinister Strings Remix)-bg.png;
#LYRICSPATH:;
#CDTITLE:!prof.png;
#MUSIC:Nightmare (Sinister Strings Mix).ogg;
#OFFSET:-0.040;
#SAMPLESTART:48.010;
#SAMPLELENGTH:11.900;
#SELECTABLE:YES;
#BPMS:0.000=140.100;
#STOPS:;
#BGCHANGES:;

//---------------dance-single - Profraine----------------
#NOTES:
     dance-single:
     Profraine:
     Challenge:
     9:
     0.680,0.860,0.371,0.685,0.105:
0000
0000
0000
0000
,
0000
0000
0000
0000
,
0000
0000
0000
0000
,
0000
0000
0000
0000
,
1000
1000
0000
0001
0000
0010
0000
1100
,
0000
0010
0000
0101
0000
1000
0100
1000
,
0010
0010
0000
0100
0000
0001
0000
1100
,
0000
0001
0000
0110
0000
1000
0100
0001
,
0110
0000
0000
0001
0110
0000
0000
0001
,
0110
0000
0000
0001
0110
0000
0000
0001
,
0100
1000
0100
0001
0100
1000
0100
0001
,
0100
1000
0100
1000
0100
1000
0100
1000
0100
0010
0100
0010
0100
0010
0100
0010
,
0100
1000
0000
0010
0010
0010
0100
0102
,
0000
0013
0100
2001
0000
3010
0100
0001
,
0010
0010
0000
0100
0100
0100
1000
1020
,
0000
0130
0001
0210
0000
1300
0100
0010
,
0001
0001
0000
0010
0010
0010
0100
2100
,
0000
3001
0100
1020
0000
0130
0001
1000
,
0100
0100
0000
0010
0010
0010
0001
0201
,
0000
1300
0100
0012
0000
0103
0010
1000
,
0100
0100
0000
1000
0010
1000
0010
1100
,
0100
0010
0100
0011
0000
1000
0100
0010
,
0001
0001
0000
0000
0100
0010
0100
1010
,
1000
0100
1000
0110
0000
0010
0001
0100
,
0010
0010
0000
0000
1000
0100
1000
0110
,
0010
0100
0010
0011
0000
0001
1000
0010
,
0100
0100
0000
0000
0100
0010
0100
0010
,
1001
0000
0110
0000
1001
0000
0110
0100
,
0001
0000
0000
0000
0000
0000
0000
0000
2000
0000
0000
0000
0000
0000
0000
0000
3200
0000
0000
0000
0000
0000
0000
0000
0302
0000
0000
0000
0000
0000
0000
0000
0203
0000
0000
0000
0000
0000
0000
0000
0320
0000
0000
0000
0000
0000
0000
0000
0032
0000
0000
0000
0000
0000
0000
0003
0201
0000
0000
0000
0000
0000
0000
0000
,
0300
0010
0100
2100
3002
0203
0302
0023
,
0130
0000
0000
0000
0000
0000
0000
0000
0200
0000
0000
0000
0000
0000
0000
0000
2300
0000
0000
0000
0000
0000
0000
0000
3020
0000
0000
0000
0000
0000
0000
0000
0230
0000
0000
0000
0000
0000
0000
0000
0302
0000
0000
0000
0000
0000
0000
0000
0023
0000
0000
0000
0000
0000
0000
0030
0210
0000
0000
0000
0000
0000
0000
0000
,
0300
1000
0001
1020
0230
0302
0023
0230
,
1300
0000
0000
0000
0000
0000
0000
0000
2000
0000
0000
0000
0000
0000
0000
0000
3020
0000
0000
0000
0000
0000
0000
0000
0230
0000
0000
0000
0000
0000
0000
0000
0302
0000
0000
0000
0000
0000
0000
0000
0023
0000
0000
0000
0000
0000
0000
0000
0230
0000
0000
0000
0000
0000
0000
0300
2100
0000
0000
0000
0000
0000
0000
0000
,
3000
0010
0100
1002
0023
0032
2003
3020
,
0130
0000
0000
0000
0000
0000
0000
0000
0200
0000
0000
0000
0000
0000
0000
0000
0302
0000
0000
0000
0000
0000
0000
0000
2003
0000
0000
0000
0000
0000
0000
0000
3200
0000
0000
0000
0000
0000
0000
0000
2300
0000
0000
0000
0000
0000
0000
0000
3020
0000
0000
0000
0000
0000
0000
0030
0210
0000
0000
0000
0000
0000
0000
0000
,
0300
0001
0010
1200
0320
0032
0203
0320
,
1030
0100
0100
0001
0001
0100
0100
0020
,
0001
0001
0000
0130
0001
0100
0010
0001
,
0100
0010
0010
1000
1000
0001
0001
0020
,
0100
0100
0000
0031
1000
0001
0100
1000
,
0010
0100
0100
0001
0001
0010
0010
0200
,
1000
1000
0000
0310
1000
0010
0001
0100
,
0010
1000
1000
0100
0100
0010
0010
0002
,
0100
0100
0000
1003
0010
1000
0100
0001
,
0200
0000
0300
0000
1000
0000
0010
0100
0000
0100
0010
0000
1000
0000
0200
0000
,
0320
0000
0030
0000
0001
0000
0100
0010
0000
0010
0100
0000
0010
0000
0000
0000
,
2000
0000
3000
0000
0100
0000
0010
0001
0000
0001
0010
0000
0001
0000
2000
0000
,
3020
0000
0030
0000
0100
0000
0001
1000
0000
1000
0001
0000
0010
0000
0000
0000
,
0200
0000
1300
0000
0100
0000
0010
0001
0000
0100
0010
0000
1000
0000
0200
0000
,
0320
0000
0031
0000
0100
0000
0010
1000
0000
0001
0100
0000
0010
0000
1000
0000
,
0100
0000
0001
0000
0100
0000
1000
0100
0000
0001
0100
0000
0010
0000
0002
0000
,
2003
3010
0100
0000
0001
0010
0100
1000
,
0100
0100
0110
0000
0001
0000
0100
0010
,
1000
0000
0100
0010
0001
0000
0010
0100
,
1000
1000
1100
0000
0010
0000
0001
0010
,
0100
0000
0010
1000
0001
0000
0100
0010
,
0100
0100
0101
0000
0010
0000
0100
1000
,
0010
0000
0100
0001
0010
0000
0100
1000
,
0010
0010
1010
0000
0001
0000
0100
0010
,
1000
0000
0100
0010
0002
0000
0000
0103
,
0010
0010
1001
0000
0000
0000
0000
0000
;
