#TITLE:Lose Control;
#SUBTITLE:(StoneBridge Club Mix);
#ARTIST:Missy Elliot feat. Ciara & Fat Man Scoop;
#TITLETRANSLIT:;
#SUBTITLETRANSLIT:;
#ARTISTTRANSLIT:;
#GENRE:HIP-HOP CLUB;
#CREDIT:;
#MENUCOLOR:;
#NEWMETERSYSTEM:NO;
#BANNER:Lose Control (StoneBridge Club Mix).png;
#BACKGROUND:Lose Control (StoneBridge Club Mix)-bg.png;
#LYRICSPATH:;
#CDTITLE:!prof.png;
#MUSIC:Lose Control (StoneBridge Club Mix).ogg;
#OFFSET:-6.766;
#SAMPLESTART:24.000;
#SAMPLELENGTH:12.000;
#SELECTABLE:YES;
#LISTSORT:;
#BPMS:0.000=125.460,84.000=62.730,92.000=125.460,112.000=62.730,112.500=125.460,120.000=250.920,123.500=125.460,167.500=250.920,171.500=125.460;
#STOPS:120.000=0.120
,120.500=0.120
,121.000=0.120
,121.500=0.120
,122.000=0.120
,122.500=0.120
,123.000=0.120
,167.500=0.120
,168.000=0.120
,168.500=0.120
,169.000=0.120
,169.500=0.120
,170.000=0.120
,170.500=0.120
,171.000=0.120
;
#BGCHANGES:-100.000=Lose Control (StoneBridge Club Mix)-bg.png=1.000=0=0=1,
-0.106=Lose Control (StoneBridge Club Mix).avi=1.000=0=0=1,
172.000=Lose Control (StoneBridge Club Mix)-bg.png=1.000=1=0=1,
99999=-nosongbg-=1.000=0=0=0 // don't automatically add -songbackground-
;
#ATTACKS:;

//---------------dance-single - K. Hirokazu----------------
#NOTES:
     dance-single:
     K. Hirokazu:
     Challenge:
     9:
     0.555,0.730,0.174,0.564,0.318: // measure 1
0000
0000
0000
0000
0000
1000
0100
0010
,  // measure 2
0002
0000
1003
0000
0010
0100
0002
0003
,  // measure 3
0100
0000
0000
0000
0020
0000
0000
0000
1030
0000
0000
0000
0100
0010
0001
0000
,  // measure 4
2000
0000
3010
0010
0200
0000
0301
0000
,  // measure 5
1000
0100
0001
0100
1000
0010
0100
0000
,  // measure 6
2001
3010
0210
0301
,  // measure 7
0001
0010
0100
0000
1100
0000
0000
0000
2010
0000
0000
0000
3100
0000
0000
0000
,  // measure 8
1000
0000
0001
0000
0100
0000
0010
0000
2010
0000
0000
3001
0100
0000
0000
0000
,  // measure 9
0010
0000
0100
0000
0001
0000
1000
0000
0010
0000
0100
0001
0000
0100
0001
0000
,  // measure 10
1000
0010
0100
0010
1010
0000
1000
0100
,  // measure 11
0010
0001
0200
M0MM
0320
0030
1000
0100
,  // measure 12
0020
MM0M
0031
0010
0100
1000
0010
1000
,  // measure 13
0100
0000
0001
0000
0101
0000
000M
0000
1100
0000
1000
0001
0000
1000
0001
0000
,  // measure 14
0100
0000
0001
0000
1000
0000
0100
0000
0020
MM0M
0030
MM0M
0020
MM0M
0030
0000
,  // measure 15
0100
0000
1000
0000
0001
0000
1000
0000
0200
M0MM
0300
M0MM
0200
M0MM
0300
0000
,  // measure 16
0010
0000
0001
0000
1000
0000
0010
0000
2000
0MMM
3000
0MMM
2000
0MMM
3000
0000
,  // measure 17
0100
0000
0010
0000
0001
0000
0100
0000
0020
MM0M
0030
0000
1000
0000
0100
0000
,  // measure 18
0000
0100
0010
0000
0001
0001
0100
0010
,  // measure 19
0000
0010
1000
0000
0100
0100
0010
0001
,  // measure 20
0000
0001
0010
0001
1000
1000
0010
0100
,  // measure 21
0000
0000
0100
0000
0001
0000
0010
0000
0100
0000
0100
0000
0000
1000
0100
0000
,  // measure 22
0020
0000
0002
0030
0200
0003
2000
0300
0020
3000
0002
0030
0200
0003
2000
0300
,  // measure 23
0001
0000
3000
0000
0010
0100
0001
0100
0010
0000
1000
0100
0000
0001
0100
1000
0010
0000
0100
0001
0100
1000
0100
0000
0001
0000
0010
0100
0000
0000
0010
0000
,  // measure 24
1001
0000
0000
0001
0100
0000
1000
0100
0001
0000
0010
0200
2000
0000
0000
0000
,  // measure 25
0011
3300
0000
0000
0100
0000
0010
0001
0100
0000
0020
0000
0200
0000
0000
0000
,  // measure 26
1001
0330
0000
0000
0010
0000
1000
0000
0100
0000
0010
0000
0002
0000
0000
0000
,  // measure 27
0100
0003
0000
0000
1000
0000
0010
0000
0100
0000
0002
0000
0200
0000
0000
0000
,  // measure 28
1010
0303
0000
0000
0001
0000
0100
0000
0010
1000
0100
0010
0001
0000
0100
0000
,  // measure 29
2020
0000
3030
M0M0
0010
0000
1000
0100
0001
0100
1000
0000
0010
0000
0202
0000
,  // measure 30
0303
0M0M
0001
0000
0100
0000
1000
0000
0100
0000
0001
0000
1000
0000
0010
0000
,  // measure 31
0100
0001
1000
0010
0100
0001
0100
0010
,  // measure 32
1000
0100
0010
0011
0000
1000
0010
0100
,  // measure 33
0001
2000
0MMM
3200
0300
0010
0001
0200
,  // measure 34
M0MM
0310
1000
0001
0100
0001
0001
0100
,  // measure 35
1000
0000
1100
0000
M000
0000
0101
0000
0001
1000
0000
0001
1000
0000
0010
0000
,  // measure 36
1000
0000
0100
0000
0010
0000
0002
MMM0
0003
MMM0
0002
MMM0
0003
0000
0100
0000
,  // measure 37
0010
0000
1000
0000
0001
0000
0200
M0MM
0300
M0MM
0200
M0MM
0300
0000
0010
0000
,  // measure 38
1000
0000
0100
0000
1000
0000
0020
MM0M
0030
MM0M
0020
MM0M
0030
0000
0100
0000
,  // measure 39
0001
0000
1000
0000
0010
0000
0200
M0MM
0300
0010
0000
0000
1000
0000
0100
0000
,  // measure 40
0010
0000
0000
0002
0000
0000
0000
0000
0000
0000
0000
0000
0000
0000
0000
0000
1003
0000
0000
0010
0000
0000
0000
0000
0200
0000
0000
0000
0000
0000
0000
0000
0000
0000
0000
0000
0000
0000
0000
0000
0300
0000
0000
0000
0000
0000
0000
0000
0001
0000
0000
0000
0000
0000
0000
0000
1000
0000
0000
0000
0000
0000
0000
0000
,  // measure 41
0010
0000
0000
0200
0000
0000
0000
0000
0000
0000
0000
0000
0000
0000
0000
0000
0301
0000
0000
0010
0000
0000
0000
0000
0200
0000
0000
0000
0000
0000
0000
0000
0000
0000
0000
0000
0000
0000
0000
0000
1300
0000
0000
0000
0000
0000
0000
0000
0100
0000
0000
0000
0000
0000
0000
0000
1000
0000
0000
0000
0000
0000
0000
0000
,  // measure 42
0010
0000
0000
0200
0000
0000
0000
0000
0000
0000
0000
0000
0000
0000
0000
0000
0301
0000
0000
1000
0000
0000
0000
0000
0020
0000
0000
0000
0000
0000
0000
0000
0130
0000
0000
0000
0000
0000
0000
0000
0001
0000
0000
0000
0000
0000
0000
0000
1000
0000
0000
0000
0000
0000
0000
0000
0010
0000
0000
0000
0000
0000
0000
0000
,  // measure 43
0010
0100
0100
0001
0001
1000
1000
0200
,  // measure 44
0000
0301
0000
0000
0000
0000
0000
0000
;
