#TITLE:Groundhog;
#SUBTITLE:(Beat Juggle);
#ARTIST:Noisia;
#TITLETRANSLIT:;
#SUBTITLETRANSLIT:;
#ARTISTTRANSLIT:;
#CREDIT:Wide for BPM, everyone who played it and gave feedback;
#BANNER:Groundhog (Beat Juggle).png;
#BACKGROUND:Groundhog (Beat Juggle)-bg.png;
#LYRICSPATH:Groundhog (Beat Juggle).lrc;
#CDTITLE:!prof.png;
#MUSIC:Groundhog (Beat Juggle).ogg;
#OFFSET:0.000;
#SAMPLESTART:106.410;
#SAMPLELENGTH:16.600;
#SELECTABLE:YES;
#BPMS:0.000=67.660,16.000=135.320,48.000=67.660,56.000=135.320,88.000=67.660,104.000=135.320,110.000=67.660,111.000=135.320,117.500=67.660,117.750=135.320,124.000=67.660,125.000=135.320,146.000=67.660,147.000=135.320,163.000=67.660,179.000=135.320,290.750=32.240;
#STOPS:117.500=0.332
,139.333=0.443
;
#BGCHANGES:;

//---------------dance-single - Profraine----------------
#NOTES:
     dance-single:
     Profraine:
     Challenge:
     12:
     0.744,0.838,0.595,0.506,0.835: // measure 1
0000
0000
0000
0000
,  // measure 2
0000
0000
0000
0000
,  // measure 3
0000
0000
0000
0000
,  // measure 4
0000
0000
0000
0000
,  // measure 5
1000
0000
0100
0010
0001
1000
0002
0000
0013
0100
1000
0000
0000
0101
0000
0000
,  // measure 6
1000
0000
0010
0100
0001
0010
0002
0000
0003
0000
1000
0000
0101
0000
0000
0000
,  // measure 7
0100
0000
0010
1000
0001
0100
0001
0010
0100
1000
0100
0000
0000
0101
0000
0000
,  // measure 8
1000
0000
0010
1000
0001
0010
0100
0000
0000
1000
0010
0000
1010
0000
0000
0000
,  // measure 9
0001
0000
0010
0100
0010
0100
1000
0000
0000
0001
0010
0000
0000
0101
0000
0000
,  // measure 10
1000
0000
0010
0100
0010
1000
0001
0100
0010
1000
0001
0000
1010
0000
0000
0000
,  // measure 11
0100
0000
1000
0010
1000
0001
0010
0000
0000
0100
1000
0000
0001
0100
0000
0000
,  // measure 12
0010
0000
0100
0001
0000
0000
0010
0000
0001
0100
0000
0000
1100
0000
0000
0000
,  // measure 13
0002
0000
0023
0230
,  // measure 14
2300
3020
0230
0320
0032
0023
2030
0000
,  // measure 15
3100
0000
0000
0100
0010
0000
0001
0100
0000
0100
0000
0100
0010
0000
1000
0000
,  // measure 16
0100
0000
0000
0000
1000
0000
0010
0000
0100
0000
0000
0000
0010
0000
0100
0000
0002
0000
0000
2003
0000
0000
3002
0000
0000
0003
0000
0000
0010
0000
0000
0000
,  // measure 17
0100
0000
2000
0000
0000
3000
0001
0000
0001
0000
0010
0100
1000
0000
0000
0001
,  // measure 18
0010
0000
0100
0000
0010
0000
0001
0000
0010
0000
0100
0000
0020
0000
0000
0000
0000
0000
0130
0000
0000
1000
0000
0000
0001
0000
0000
0000
0000
0000
0100
0000
0000
0000
0000
0000
0010
0000
0000
0000
0000
0000
1000
0000
0000
0000
0000
0000
,  // measure 19
1001
0000
0000
0002
0013
0000
0100
1000
0000
1000
0000
1000
0010
0000
0100
0000
,  // measure 20
0001
0000
1000
0000
0001
0000
0010
0000
0200
0000
0000
0000
0000
0000
0000
0000
1300
0000
0000
0001
0000
0000
0100
0000
0000
0000
0000
0000
0002
0000
0000
0000
,  // measure 21
1003
0000
0100
0001
0100
0000
1000
0000
0010
0000
0100
0010
0000
0000
0100
1000
,  // measure 22
0100
0000
0000
0000
0000
0000
0001
0000
0000
0010
0000
0000
0001
0000
0000
0000
0000
0000
0000
0000
0000
0010
0000
0000
0200
0000
0000
0000
0000
0000
0000
0000
0000
0000
0000
0000
2300
0000
0000
0000
0000
0000
0000
0000
3000
0000
0000
0000
,  // measure 23
0101
0000
0000
0000
0000
0000
0000
0000
0001
0000
1000
0100
0000
0000
0000
0000
0010
0000
0100
0000
0010
0000
0001
0000
0000
0000
0100
0000
0000
0000
0010
0000
,  // measure 24
1000
0010
0100
0000
0002
0000
1003
0000
1000
0100
0010
0001
0010
0100
1000
0000
,  // measure 25
0020
0000
0230
0302
,  // measure 26
0023
0000
0000
0000
0030
0000
0220
0330
,  // measure 27
2010
0000
0100
3000
1010
0000
0000
0000
0102
0000
1000
0003
0101
0000
0000
0000
,  // measure 28
1200
0000
0010
0300
1100
0000
0000
0000
2002
3003
M00M
0000
0102
0000
0010
0003
,  // measure 29
0101
0000
0000
0000
0120
0000
1000
0030
0110
0000
0000
0000
1002
0000
0010
0003
,  // measure 30
1001
0000
0000
0000
2200
0000
3300
MM00
0021
0000
0100
0030
0011
0000
0000
0000
,  // measure 31
0210
0000
1000
0300
0110
0000
0000
0000
2100
0000
0001
3000
1100
0000
0000
0000
,  // measure 32
0202
0303
0M0M
0000
0110
0000
0010
0100
0000
0000
0010
1000
0000
0000
1000
0100
,  // measure 33
0000
0000
0010
0001
0000
0000
0010
1000
0000
0000
0010
0002
0000
0000
0000
0000
,  // measure 34
0103
0000
0000
1001
1000
0100
0001
0100
1000
1001
0001
0100
,  // measure 35
1000
0100
0001
1001
1000
0100
0001
0100
1000
1001
0000
0000
,  // measure 36
0110
0010
1000
0100
1000
0010
0110
0100
0001
0010
0001
0100
,  // measure 37
0110
0010
1000
0100
1000
0010
01M0
0MM0
0MM0
0101
0001
1000
,  // measure 38
0010
1000
0001
0101
0100
0010
1000
0010
0100
0101
0001
1000
,  // measure 39
0010
0000
1000
0000
0001
0000
0101
0000
0000
0000
1000
0100
1000
0000
0000
0000
0000
0000
1100
0000
0100
0000
0010
0000
,  // measure 40
0001
0010
0100
1100
1000
0001
0010
0001
1000
1100
0100
0010
,  // measure 41
0001
0010
0100
1100
1000
0100
0010
0001
0010
0200
0000
0000
,  // measure 42
0000
0000
0000
2300
,  // measure 43
0000
0000
0000
0000
0000
0000
0000
0000
3020
0230
0302
0000
0000
0000
0000
0000
,  // measure 44
0000
0203
0320
2030
,  // measure 45
0000
0000
0000
0000
0000
0000
0000
0000
3002
2003
3002
1003
1001
0000
1000
0100
,  // measure 46
0010
0000
0000
0001
0000
0000
0010
0000
0000
0000
0000
0000
1001
0000
0000
0000
0000
0000
0002
0000
0000
0103
0000
0000
0002
0000
0000
1003
0000
0000
0100
0000
0000
0000
0000
0000
1001
0000
0000
0000
0000
0000
1000
0000
0001
0000
2000
0000
,  // measure 47
0000
0000
0000
0000
3001
0000
0000
0000
0001
0000
0000
0000
0100
0000
0010
0000
1000
0000
0001
0000
0200
0000
0000
0300
1001
0000
0000
0000
0001
0000
1000
0000
,  // measure 48
0100
0001
0100
0000
1001
0000
1000
0001
0010
0001
1000
0000
1001
0000
1000
0100
,  // measure 49
0010
0000
0001
0000
1001
0000
0000
0100
0020
0000
0000
0030
1001
0000
0100
0010
,  // measure 50
0100
0000
0000
0010
0000
0000
0100
0000
0000
0000
0000
0000
1001
0000
0000
0000
0000
0000
0020
0000
0000
0130
0000
0000
0020
0000
0000
0130
0000
0000
0010
0000
0000
0000
0000
0000
1001
0000
0000
0000
0000
0000
1000
0000
0100
0000
0020
0000
,  // measure 51
0000
0000
0000
0000
0000
0000
0130
0000
0000
0000
0000
0000
0001
0000
0000
0000
0000
0000
0100
0000
0000
0000
0000
0000
0010
0000
0000
0000
0000
0000
0002
0000
0000
0000
0003
0000
1001
0000
0000
0000
0000
0000
0001
0000
0000
0100
0000
0000
,  // measure 52
1000
0100
0001
0000
1001
0000
1000
0100
0001
0100
1000
0000
1001
0000
1000
0100
,  // measure 53
0010
0001
0100
0000
0010
0100
0000
0010
0100
0010
0100
0001
0000
1000
0100
0010
,  // measure 54
0M00
0001
0010
0100
00M0
1000
0100
0010
0M00
0001
0010
0100
10M0
0100
1000
0100
,  // measure 55
M010
0100
0010
0100
0010
0M01
0010
0001
10M0
0001
1000
0001
M000
0001
0100
1000
,  // measure 56
0M00
1000
0100
0001
0M00
0001
0100
1000
0M00
1000
0100
0001
0100
0001
0100
0001
,  // measure 57
0M10
0001
0010
0001
0010
0100
0010
0100
10M0
0100
1000
0100
M010
0000
2002
3003
,  // measure 58
0010
0000
0202
0303
1000
0000
0220
0330
0001
0000
2200
3300
0010
0000
0001
0000
,  // measure 59
0101
0000
1010
0000
1100
0000
0101
0000
0001
0000
1001
0000
1000
0001
1000
0001
,  // measure 60
1000
0001
1000
0001
1000
0001
1000
0001
1000
0001
1000
0001
2000
000M
3002
M000
,  // measure 61
2003
000M
3002
M000
0M00
00M0
0M00
M000
0M00
00M0
0M00
M003
1001
0000
0000
0000
,  // measure 62
1100
0000
0000
1000
0100
1000
0000
0100
0010
0100
0000
0000
0011
0000
0000
0001
0000
0000
1010
0000
0000
1000
0000
0000
,  // measure 63
0001
0100
0001
0000
0100
0010
0100
0000
0001
0100
0000
0000
0110
0000
0000
0010
0000
0000
1001
0000
0000
0000
0000
0000
,  // measure 64
1000
0001
1000
0000
0001
0010
0001
0000
0000
1000
0000
0000
1100
0000
0000
0100
0000
0000
0011
0000
0000
0001
0000
0000
,  // measure 65
0100
0010
0100
0000
0010
1000
0020
0000
0000
0130
0000
0000
0110
0000
0000
1001
0000
0000
0110
0000
0000
0000
0000
0000
,  // measure 66
0001
0010
0001
0000
0010
0100
0010
0000
0000
0001
0000
0000
0101
0000
0000
0100
0000
0000
0110
0000
0000
0010
0000
0000
,  // measure 67
1000
0010
1000
0000
0010
0100
0010
0000
1000
0100
0000
0000
0110
0000
0000
0000
0000
0000
0101
0000
0000
0000
0000
0000
,  // measure 68
0100
0001
0100
0000
0001
1000
0001
0000
0000
1000
0000
0000
1100
0000
0000
0100
0000
0000
1010
0000
0000
0010
0000
0000
,  // measure 69
0100
0000
0001
0000
0100
0000
0000
0000
0000
0000
0000
0000
0101
0000
0000
0000
0000
0000
0001
0000
0000
0000
0000
0000
0011
0000
0000
0000
0000
0000
0010
0000
0000
0000
0000
0000
1100
0000
0000
0000
0000
0000
1000
0000
0000
0100
0000
0000
,  // measure 70
0001
0000
0001
0000
0100
0010
0100
0010
0110
0000
0010
0000
0101
0000
0001
0100
,  // measure 71
1000
0000
0100
0000
0010
0100
0010
0100
0110
0000
0010
0000
1010
0000
1000
0001
,  // measure 72
0010
0100
0010
0100
0010
0000
0001
0100
0010
0100
0010
0000
1000
0100
0001
0100
,  // measure 73
1000
0000
0001
0000
0100
0000
1000
0000
0100
0000
0001
0000
0010
0000
0100
0000
1000
0000
0100
0000
0010
0000
0002
0003
0000
0000
0000
0000
0000
0000
0000
0000
;
