#TITLE:G59;
#SUBTITLE:;
#ARTIST:Ikare Ru Kin No Shishi;
#TITLETRANSLIT:;
#SUBTITLETRANSLIT:;
#ARTISTTRANSLIT:;
#CREDIT:;
#BANNER:G59.png;
#BACKGROUND:G59-bg.png;
#LYRICSPATH:;
#CDTITLE:!profsirius.png;
#MUSIC:G59.ogg;
#OFFSET:-0.664;
#SAMPLESTART:21.800;
#SAMPLELENGTH:13.680;
#SELECTABLE:YES;
#BPMS:0.000=85.000,14.000=170.000,42.000=85.000,44.000=170.000,91.000=680.000,92.000=170.001,155.000=680.004,156.000=170.003;
#DISPLAYBPM:85.00:170.00;
#STOPS:91.938=0.265
,155.938=0.265
;
#BGCHANGES:;

//---------------dance-single - Profraine----------------
#NOTES:
     dance-single:
     Profraine:
     Challenge:
     11:
     0.950,0.856,0.866,0.120,0.827: // measure 1
0000
0000
0000
0000
,  // measure 2
0000
0000
0000
0000
,  // measure 3
0000
0000
0000
0000
0000
0000
0000
0000
0000
1001
0000
0000
0000
0000
0000
0000
,  // measure 4
0000
0000
0000
0000
0000
0000
0000
0000
0000
0000
0000
0000
0020
0000
0000
0000
0030
0000
0000
0000
0000
0000
0000
0000
1000
0000
0000
0100
0000
0000
0010
0000
0000
0000
0000
0000
0001
0000
0000
0010
0000
0000
0100
0000
0000
0000
0000
0000
,  // measure 5
1000
0010
0100
0000
0001
0100
0010
0000
1000
0100
0010
0000
0001
0010
0100
0000
,  // measure 6
1001
0000
0000
0000
0000
0000
0000
0000
0001
0000
0000
0000
0000
0000
0000
0000
0001
0000
0000
0000
0000
0000
0000
0000
0101
0000
0000
0000
0000
0000
0100
0000
0000
0010
0000
0000
1000
0000
0000
0000
0000
0000
0100
0000
0000
0010
0000
0000
,  // measure 7
0001
0000
0010
0100
1000
0000
0010
0100
0001
0000
0010
0100
1000
0000
0100
0000
,  // measure 8
1010
0000
0000
0000
0000
0000
0000
0000
0010
0000
0000
0000
0000
0000
0000
0000
0010
0000
0000
0000
0000
0000
0000
0000
1001
0000
0000
0000
0000
0000
0010
0000
0000
0000
0000
0000
0001
0000
0000
0010
0000
0000
0100
0000
0000
0000
0000
0000
,  // measure 9
1100
0000
0100
0000
0100
0000
0110
0000
0010
0000
0010
0000
,  // measure 10
0011
0000
0001
0000
0001
0000
1001
1000
0100
0010
0001
0010
,  // measure 11
0100
0000
0000
0000
1000
0000
0000
0000
0001
0000
0000
0000
0010
0000
0100
0000
1000
0000
0001
0000
0010
0000
0100
0000
1000
0000
0000
0000
0000
0000
0000
0000
0000
0000
0000
0000
0000
0000
0000
0002
0000
0000
0003
0000
0000
0000
0000
0000
,  // measure 12
1000
0100
0010
0000
0010
0001
0100
0000
0100
0010
1000
0000
1000
0001
0100
0000
,  // measure 13
0010
0101
1000
0110
0001
1100
0010
1001
,  // measure 14
0100
0000
0010
0001
0100
0000
0100
0010
1000
0000
1000
0100
0010
0000
0001
0010
,  // measure 15
0100
1000
0100
0000
0100
0010
0001
0000
0001
1000
0001
0000
0001
0100
0010
0000
,  // measure 16
1000
0100
0010
0000
0001
0010
0100
0000
0100
0010
1000
0000
1000
0001
0100
0000
,  // measure 17
0010
0101
1000
0011
0100
1010
0001
0110
,  // measure 18
1000
0000
0001
1000
0010
0000
0010
0100
0001
0000
0001
0010
0100
0000
0100
1000
,  // measure 19
0100
0010
0100
0000
0100
1000
0001
0000
0001
0100
0010
0000
0010
0100
1000
0000
,  // measure 20
0001
1000
1100
0100
0010
0011
0001
1000
,  // measure 21
1010
0010
0100
0101
0001
0010
0100
1000
,  // measure 22
0100
0001
1100
1000
0010
0110
0100
0001
,  // measure 23
0011
0000
0000
0000
0010
0000
0000
0000
0100
0000
0000
0000
1100
0000
0000
0000
1000
0000
0000
0000
0020
0000
0000
0030
2002
0000
0000
0000
0000
0000
0000
3003
,  // measure 24
1000
0010
0110
0100
0001
0011
0010
0100
,  // measure 25
1100
1000
0001
0101
0100
0010
0110
0100
,  // measure 26
0001
0000
0000
0000
0000
0000
0010
0000
0000
0000
0000
0100
1000
0000
0000
0000
0000
0000
1000
0000
0000
0000
0000
0000
0010
0000
0000
0000
0000
0001
0100
0000
0000
0000
0000
0000
0100
0000
0000
0000
0000
0000
0010
0000
0000
0000
0000
1000
,  // measure 27
0001
0000
0000
0000
0000
0000
0001
0000
0000
0000
0000
0000
0100
0000
0000
0000
0000
0010
1000
0000
0000
0000
0000
0000
1000
0000
0000
0000
0000
0000
0200
0000
0000
0000
0000
0000
0301
0000
0000
0100
0000
0000
0010
0000
0000
0001
0000
0000
,  // measure 28
1000
0000
0010
0100
0001
0000
1000
0100
0010
0000
0010
0100
1000
0000
0100
0010
,  // measure 29
0001
0000
0100
0010
1000
0000
1000
0001
0010
0000
0000
0110
0000
0000
1100
0000
,  // measure 30
1000
0100
0010
0000
0001
0010
0100
0000
0010
0001
0100
0000
0010
1000
0100
0000
,  // measure 31
0010
0001
0010
0000
0100
1000
0001
0000
0101
0000
0000
0110
0000
0000
1010
0000
,  // measure 32
1000
0000
0100
0010
0001
0000
0010
0100
1000
0000
0001
0100
1000
0000
0100
0010
,  // measure 33
1000
0000
1000
0100
0010
0000
0001
0100
0010
0000
0000
1010
0000
0000
1100
0000
,  // measure 34
0110
0000
0000
0101
0000
0000
1001
0000
0110
0000
0000
1010
0000
0000
0011
0000
,  // measure 35
0110
0000
0000
1100
0000
0000
1001
0000
0101
0000
0100
0000
0110
0000
0010
0000
,  // measure 36
1010
1000
0100
0011
0001
1000
1010
0010
,  // measure 37
0100
1001
0001
0010
0110
0100
1000
0100
,  // measure 38
0110
0010
0001
1010
1000
0001
0101
0100
,  // measure 39
0010
0000
0000
0000
0000
0000
0000
0000
1100
0000
0000
0000
0000
0000
0000
0000
1000
0000
0000
0000
0000
0000
0000
0000
0100
0000
0000
0000
0000
0000
0000
0000
0110
0000
0000
0000
0000
0000
0000
0000
0020
0000
0000
0000
0030
0000
0000
0000
0202
0000
0000
0000
0000
0000
0000
0000
0000
0000
0000
0000
0000
0000
0000
0303
,  // measure 40
1001
1000
0010
0110
0100
0001
1100
1000
,  // measure 41
0010
0101
0001
0010
0110
0100
0001
0100
,  // measure 42
1100
1000
0010
0110
0100
0001
1010
1000
,  // measure 43
0100
0011
0001
0100
0110
0010
1000
0100
,  // measure 44
1000
0100
0001
0100
0010
0001
0100
0010
0100
1000
0100
0001
,  // measure 45
0020
0000
0030
0000
,  // measure 46
1000
0100
0010
0000
0001
0000
0100
0000
0010
1000
0010
0000
0100
0000
0001
0000
,  // measure 47
0010
0100
1000
0000
0100
0000
0010
0000
0001
0100
1000
0000
0100
0000
0001
0000
,  // measure 48
0100
1000
0010
0000
0100
0000
0001
0000
1000
0100
0010
0000
0001
0000
0010
0000
,  // measure 49
0100
0010
0001
0000
1000
0000
0010
0000
0100
0001
1000
0000
0100
0010
0001
0000
,  // measure 50
0100
0000
0010
0000
1000
0001
0100
0000
0010
1000
0100
0010
0001
0010
0100
0000
,  // measure 51
1000
0100
0010
0001
1000
0100
0010
0001
1000
0000
0000
1010
0000
0000
0011
0000
,  // measure 52
0001
1000
0010
1000
0100
0000
0010
0000
0001
0100
0010
0100
0000
0010
0000
0000
,  // measure 53
1000
0100
0010
0000
0001
0010
0001
0000
0001
0100
1000
0000
0001
0100
1000
0000
,  // measure 54
0001
0100
1000
0000
0001
0100
1000
0000
0101
0000
0000
0110
0000
0000
1100
0000
,  // measure 55
1000
0001
0100
0010
1000
0100
0010
0000
0001
0100
0010
1000
0000
0100
0000
0000
,  // measure 56
0010
0001
0100
0010
1000
0000
0001
0000
1000
0100
0010
0001
0010
0100
1000
0100
,  // measure 57
0010
0001
1000
0100
0010
0100
1000
0000
0010
0001
0010
0000
0010
0001
0010
0000
,  // measure 58
0010
0001
0010
0000
0010
0001
0010
0000
1100
0000
0000
0101
0000
0000
0011
0000
,  // measure 59
1000
0001
1000
0100
0010
0001
0010
0000
1000
0010
0100
0001
0000
0010
0000
0000
,  // measure 60
0100
1000
0001
0000
0100
1000
0001
0000
0011
0000
0000
0110
0000
0000
1100
0000
,  // measure 61
1001
0000
0000
0101
0000
0000
0110
0000
1010
0000
0000
1100
0000
0000
0110
0000
,  // measure 62
0010
0001
0010
0100
1000
0010
0100
0001
0100
0010
1000
0100
,  // measure 63
0020
0000
0002
0000
,  // measure 64
1000
0000
0000
0000
0033
0000
0000
0000
M0MM
0000
0000
M0MM
0000
0000
0000
0000
;
