#TITLE:From Time To Time;
#SUBTITLE:;
#ARTIST:sanodg;
#TITLETRANSLIT:;
#SUBTITLETRANSLIT:;
#ARTISTTRANSLIT:;
#GENRE:;
#CREDIT:;
#MENUCOLOR:;
#METERTYPE:DDR;
#BANNER:From Time To Time.png;
#BACKGROUND:From Time To Time-bg.png;
#LYRICSPATH:;
#CDTITLE:!profempr.png;
#MUSIC:From Time To Time.ogg;
#OFFSET:-0.044;
#SAMPLESTART:27.460;
#SAMPLELENGTH:13.740;
#SELECTABLE:YES;
#LISTSORT:;
#BPMS:0.000=140.000;
#STOPS:;
#BGCHANGES:;
#ATTACKS:;

//---------------dance-single - Profraine----------------
#NOTES:
     dance-single:
     Profraine:
     Hard:
     8:
     0.361,0.406,0.435,0.010,0.000:
0000
0000
0000
0000
,
0000
0000
0000
0000
,
0000
0000
0000
0000
,
0000
0000
0000
0000
,
0001
0000
0000
1000
0000
0000
0110
0000
,
0000
0000
0000
0000
,
1000
0000
0000
0100
0000
0000
0011
0000
,
0000
0000
0000
0000
,
0010
0000
0010
0100
0000
0100
1000
0000
,
0000
0000
0010
0100
,
0001
0000
0001
0100
0000
0100
0010
0000
,
1000
0000
0001
0000
,
0100
0000
0100
0010
0000
0010
1000
0000
,
0000
0100
0010
0001
,
1000
0000
1000
0100
0000
0100
0010
0000
,
0000
0000
0000
0100
,
1010
0000
0000
0011
0000
0000
1100
0000
,
0001
0010
0100
0000
1000
0001
0100
0000
,
1001
0000
0000
1100
0000
0000
0110
0000
,
0001
0100
0010
0000
0000
0000
1000
0100
,
0110
0000
0000
0101
0000
0000
1010
0000
,
1000
0100
0001
0000
0100
0000
0010
0000
,
0011
0000
0000
1100
0000
0000
1010
0000
,
0000
0010
0100
0000
0001
0010
0100
0000
,
1010
0000
0000
0011
0000
0000
1100
0000
,
0100
0010
0100
0010
0000
0001
0100
0000
,
1001
0000
0000
1010
0000
0000
0110
0000
,
0100
0001
0010
0001
0000
0000
1000
0000
,
1100
0000
0000
0101
0000
0000
0110
0000
,
0010
0000
1000
0000
0100
0010
0001
0000
,
0101
0000
0000
1010
0000
0000
0101
0000
,
0000
1010
0000
0000
1001
0000
0001
1000
,
0100
0000
0010
0000
0000
0001
0100
0000
,
0000
0000
0010
0000
1000
0010
0100
0000
,
0000
0001
0010
0100
,
0010
0001
0100
0000
0010
1000
0100
0000
,
0000
1000
0010
0000
0100
0000
0001
0000
,
0000
1000
0100
0010
0000
0001
0100
0000
,
0000
0000
0010
1000
0000
1000
0001
0100
,
0000
0000
0010
0000
1000
0100
0010
0000
,
0001
0001
0001
0000
0100
0100
0100
0000
,
0000
0010
0010
0010
0000
1000
0000
0000
,
0100
0000
0010
0001
0100
0000
0100
0001
,
0000
0000
1000
0000
0010
0100
0010
0000
,
1000
0100
1000
0100
1000
0000
0001
0000
,
0010
0000
0010
0000
0010
0000
0100
1000
,
0002
0000
0000
0100
0000
0000
0010
0000
,
0000
0000
0000
0000
0000
0000
1003
1000
,
1001
0000
0000
1100
0000
0000
0101
0000
,
0001
0010
0100
1000
0000
0000
0010
0000
,
0110
0000
0000
0101
0000
0000
0011
0000
,
0010
0100
0010
0000
0000
0001
1000
0010
,
1010
0000
0000
0011
0000
0000
1100
0000
,
0000
0000
0000
0001
0000
0100
0010
0100
,
0110
0000
0000
1001
0000
0000
0110
0000
,
0000
1001
0000
0000
0110
0000
0000
1000
,
0100
0000
0000
0000
;

//---------------dance-single - Profraine----------------
#NOTES:
     dance-single:
     Profraine:
     Medium:
     5:
     0.258,0.290,0.031,0.145,0.000:
0000
0000
0000
0000
,
0000
0000
0000
0000
,
0000
0000
0000
0000
,
0000
0000
0000
0000
,
0002
0000
0000
0103
,
0000
0000
0000
0000
,
0200
0000
0000
1300
,
0000
0000
0000
0000
,
0020
0000
0000
0001
0000
0000
0130
0000
,
0010
0000
0001
0000
,
2000
0000
0000
0010
0000
0000
3100
0000
,
0010
0000
0100
0000
,
0002
0000
0000
0010
0000
0000
0103
0000
,
1000
0010
0000
0000
,
0200
0000
0000
0010
0000
0000
1300
0000
,
0010
0000
0000
1001
,
1000
0000
0000
0010
0000
0000
0100
0000
,
0001
0000
0010
0000
0000
0001
0100
0000
,
0010
0000
0000
1000
0000
0000
0100
0000
,
0001
0010
0001
0100
,
0010
0000
0000
0001
0000
0000
0100
0000
,
1000
0000
0010
0000
0000
0100
0001
0000
,
1000
0000
0000
0010
0000
0000
0100
0000
,
0000
0010
0100
0000
1000
0000
0001
0000
,
0020
0000
0000
0230
0000
0000
0301
0000
,
1000
0000
0000
0010
0000
0100
0001
0000
,
0020
0000
0000
0230
0000
0000
0310
0000
,
1000
0000
0001
0000
0010
0000
0000
0100
,
2000
0000
0000
3002
0000
0000
0013
0000
,
1000
0000
0000
0001
0000
0010
0100
0000
,
1000
0000
0000
0001
0000
0000
1000
0000
,
0000
0001
0000
0000
1000
0000
0110
0000
,
0001
0000
0010
0000
0000
1000
0010
0000
,
0000
0100
0010
1000
,
0000
0100
0010
0001
,
0000
1000
0001
0100
,
0000
0010
1000
0000
0001
0000
1000
0000
,
0000
0100
0010
0000
0100
0000
0001
0000
,
0000
1000
0010
0001
,
0000
0010
0100
0001
,
1000
1000
0000
0001
,
0001
0001
0000
0100
,
0010
1000
0010
0001
,
0000
1000
0010
0100
,
0001
0001
0001
0000
,
1000
0100
0010
0001
,
1000
0000
0000
0001
0000
0000
1000
0000
,
0000
0000
0000
1001
,
0010
0000
0000
0100
0000
0000
0001
0000
,
0010
0000
0100
1000
0000
0000
0010
0000
,
0100
0000
0000
0001
0000
0000
1000
0000
,
0000
0000
0010
0000
0100
0000
0000
0010
,
2000
0000
0000
3200
0000
0000
0301
0000
,
0010
0000
0000
0100
0000
1000
0001
0000
,
0100
0000
0000
0010
0000
0000
0100
0000
,
0000
0010
0000
0000
0100
0000
0001
1000
;
