#TITLE:Freezing Warehouse;
#SUBTITLE:;
#ARTIST:Yoshihiro Tsukahara;
#TITLETRANSLIT:;
#SUBTITLETRANSLIT:;
#ARTISTTRANSLIT:;
#GENRE:TRANCE FUSION;
#CREDIT:;
#MENUCOLOR:;
#NEWMETERSYSTEM:NO;
#BANNER:Freezing Warehouse.png;
#BACKGROUND:Freezing Warehouse-bg.png;
#LYRICSPATH:;
#CDTITLE:!prof.png;
#MUSIC:Freezing Warehouse.ogg;
#OFFSET:-0.102;
#SAMPLESTART:23.306;
#SAMPLELENGTH:23.000;
#SELECTABLE:YES;
#LISTSORT:;
#BPMS:0.000=124.100;
#STOPS:;
#BGCHANGES:;
#ATTACKS:;

//---------------dance-single - K. Hirokazu----------------
#NOTES:
     dance-single:
     K. Hirokazu:
     Challenge:
     11:
     0.673,0.721,0.479,0.235,0.925: // measure 1
0000
0000
0000
0000
,  // measure 2
0000
0000
0000
0000
,  // measure 3
0000
0000
0000
0000
,  // measure 4
0000
0000
0000
0000
0000
0000
0000
0000
0000
1000
0100
0010
0001
1000
0100
0010
,  // measure 5
0001
0000
0000
1000
0010
0000
0010
0100
0000
0100
0010
0000
1000
0100
0010
0100
,  // measure 6
1000
0000
0000
0101
0000
0001
1000
0000
0000
0010
0000
0100
0000
0000
0000
0000
,  // measure 7
0101
0000
0000
0000
0100
0000
0010
0100
0000
0001
0010
0000
0100
1000
0010
0100
,  // measure 8
0001
0010
0000
0100
0000
1000
0010
0000
0100
0000
0001
0100
0001
0100
0001
0000
,  // measure 9
1010
0000
0000
0000
1100
0000
1000
0100
0000
0010
0001
0000
0001
0100
0000
0010
,  // measure 10
1000
0010
0000
0100
0010
0100
0001
0010
0000
1100
0000
1000
0010
0100
0010
0100
,  // measure 11
0010
1000
0000
1000
0100
0000
0001
0100
0000
1000
0100
0000
0010
0001
0100
0010
,  // measure 12
1000
0100
1000
0100
0010
0001
0000
0110
0000
1001
0000
1000
0010
0100
0001
1000
,  // measure 13
1001
0000
0000
0101
0000
0000
1100
0000
0000
0001
0000
0100
0010
0100
0010
1000
,  // measure 14
0100
0000
0000
0011
0000
1000
0010
0000
0000
0100
0000
0000
0010
0000
1100
0000
,  // measure 15
1001
0000
0000
0000
0100
0000
0010
0100
0000
0001
0010
0001
0010
0100
0000
1000
,  // measure 16
0001
1000
0000
0001
1000
0010
0100
0010
0000
1000
0000
0100
0010
0001
0010
0001
,  // measure 17
0011
0000
0000
1001
0000
0000
1010
0000
0000
0010
0000
0100
0001
0100
0000
0010
,  // measure 18
1000
0100
0000
0010
0001
0010
0000
1100
0000
0011
0000
1000
0010
1000
0100
0010
,  // measure 19
0001
0100
0000
0010
0000
0000
0100
0010
0000
1000
0000
0100
0010
0001
0100
0010
,  // measure 20
1000
0100
1000
0100
1000
0100
0000
0101
0000
1001
0000
0010
0000
0000
0000
0000
,  // measure 21
1010
0000
0000
0110
0000
0000
0101
0000
0000
1000
0000
0100
0010
0001
0100
0010
,  // measure 22
0100
0000
0000
0001
0000
1000
0010
0000
0000
0100
0000
0010
1000
0000
1001
0000
,  // measure 23
0101
0001
1000
0001
1000
0000
1000
0010
0000
0110
0000
0101
0000
0001
0000
1000
,  // measure 24
0100
0010
0000
0010
0001
1000
0010
0100
0000
1010
0000
1001
0000
0001
0010
0100
,  // measure 25
1100
0000
0000
0000
0000
0000
1001
0000
0000
0100
0000
0101
0000
0001
0000
0010
,  // measure 26
0100
1000
0100
1000
0010
0100
0000
0101
0000
1001
0000
1000
0000
0000
0000
0000
,  // measure 27
1100
0000
0000
0100
0010
0001
0100
0000
0000
0110
0000
1010
0000
1000
0000
0100
,  // measure 28
0001
0100
1000
0010
0100
0001
0100
1000
0000
0101
0000
0001
1000
0100
1000
0100
,  // measure 29
2000
0001
0010
0100
,  // measure 30
3002
0000
M010
0203
1000
000M
0001
0000
,  // measure 31
0320
0000
0M01
2030
0100
00M0
3001
0000
,  // measure 32
1000
0001
0100
0000
0010
0000
1000
0000
0000
0000
0100
0010
0001
1000
0020
0130
,  // measure 33
0002
0000
0100
0023
1000
000M
0001
0000
,  // measure 34
0100
0000
0001
0000
0230
2300
0010
0M00
,  // measure 35
3002
0000
1000
0203
0010
000M
0302
0000
,  // measure 36
1M03
0000
0000
0000
010M
0010
1000
0000
0100
0010
0001
0010
0100
1000
0200
0320
,  // measure 37
0230
0000
0001
2300
0010
0M00
3002
0000
,  // measure 38
M100
0010
0100
1000
,  // measure 39
0023
0000
100M
0230
1000
00M0
0001
0000
,  // measure 40
0310
0001
0100
0000
0000
0000
0010
0000
0000
0000
2000
3000
0001
1000
0001
0000
,  // measure 41
2000
000M
0100
0000
0010
0000
3002
0000
,  // measure 42
M100
0010
0203
100M
,  // measure 43
0302
0010
1000
0010
,  // measure 44
0103
0010
0000
0000
0010
1000
0100
1000
0100
0010
0100
0000
1000
0100
0010
0001
,  // measure 45
1000
0010
0100
0010
0100
0001
0010
0100
0000
0000
1100
0000
0000
0011
0000
0000
,  // measure 46
1001
1000
0000
0000
0010
0100
0000
0100
0001
0010
0100
0000
1000
0001
1000
0100
,  // measure 47
0010
0001
0000
0001
1000
0000
1000
0010
0000
0010
0100
0001
1000
0100
0010
0100
,  // measure 48
1100
0000
0000
1001
0000
0000
0101
0000
0000
0100
0010
0100
0001
0010
0100
1000
,  // measure 49
0100
0000
0100
0010
0100
0010
0001
1000
0000
0000
1001
0000
0000
1010
0000
0000
,  // measure 50
0110
0000
0000
0011
0001
0010
0100
0010
0001
0100
0010
1000
0100
1000
0001
0000
,  // measure 51
0100
0000
0010
1000
0010
0000
0010
0100
0000
0000
0101
0000
0000
1010
0000
0000
,  // measure 52
1000
0000
0001
1001
0000
0000
0000
0000
0000
0000
0000
0000
0000
0000
0000
0000
;
