#TITLE:FLUTE MAN;
#SUBTITLE:;
#ARTIST:SPARKER;
#TITLETRANSLIT:;
#SUBTITLETRANSLIT:;
#ARTISTTRANSLIT:;
#CREDIT:;
#BANNER:FLUTE MAN.png;
#BACKGROUND:FLUTE MAN-bg.png;
#LYRICSPATH:;
#CDTITLE:!profiidx.png;
#MUSIC:FLUTE MAN.ogg;
#OFFSET:-0.379;
#SAMPLESTART:46.154;
#SAMPLELENGTH:12.000;
#SELECTABLE:YES;
#BPMS:0.000=130.000,208.000=65.000;
#STOPS:;
#BGCHANGES:;

//---------------dance-single - K. Hirokazu----------------
#NOTES:
     dance-single:
     K. Hirokazu:
     Hard:
     10:
     0.714,0.817,0.528,0.201,1.000:
0000
0000
0000
0000
,
0000
0000
0000
0000
,
0000
0000
0000
0000
,
0000
0000
0000
0000
,
1001
1000
0100
0010
,
0001
0010
1100
1100
,
1100
0001
0100
0010
,
1000
0010
0101
0M01
,
0101
0000
0001
0000
1000
1000
0010
0010
,
0100
0100
0001
0001
1001
100M
1001
M001
,
0011
0001
0010
0100
1000
0001
1000
0001
1000
0001
0010
0100
,
0100
0010
0100
0010
0000
0000
0001
1000
0001
1000
0000
0000
0010
0100
0010
0100
0000
0000
0001
0010
0100
1000
0100
0010
,
0001
0000
0000
0000
0000
1000
0100
0000
0000
0000
0000
0000
0011
0000
0000
0000
0000
0000
0010
0000
1000
0000
0000
1000
,
0000
0000
0001
0000
0000
1010
0000
0000
0000
0001
0010
0100
1000
0000
0000
0000
0000
0000
1000
0100
1000
0100
1000
0100
,
0000
0000
0000
0000
0000
0100
0010
0000
0000
0000
0000
0000
1001
0000
0000
0000
0000
0000
0010
0000
1000
0000
0000
0001
,
0000
0000
0100
0000
0000
1001
0000
0000
0000
1000
0100
0010
0001
0000
0000
0000
0000
0001
0100
0001
0100
0001
0100
0001
,
1000
0000
0000
0000
0000
0100
1000
0000
0000
0000
0000
0000
0011
0000
0000
0000
0000
0000
0001
0000
1000
0000
0000
0001
,
0000
0000
0100
0000
0000
0101
0000
0000
0000
1000
0100
0010
0001
0000
0000
0000
0000
0000
0010
0100
0010
0100
0010
0100
,
0010
0000
0000
0000
0000
0001
0010
0000
0000
0000
0000
0000
0110
0000
0000
0000
0000
0000
0100
0000
1000
0000
0000
0001
,
0000
0000
0100
0000
0000
0011
0000
0000
0000
0001
0010
0100
1000
0000
0000
0001
0000
0010
0000
0000
0001
0000
0000
1000
,
0000
0000
0001
0000
0000
0200
0000
0000
0000
0000
0000
0000
0300
0000
0000
0000
0000
0000
1100
0000
1100
0000
0000
0011
,
0000
0000
0011
0000
0000
1100
0000
0000
0000
0000
0000
1000
0100
1000
0100
0010
0001
0010
0001
0010
0100
1000
0100
1000
,
02MM
0000
0000
0000
0000
0000
M3MM
0000
0000
0M00
0000
0000
M2MM
0000
0000
0000
0000
0000
M3MM
0000
0000
0M00
0000
0000
M2MM
0000
0000
0000
0000
0000
M3MM
0000
0000
0M00
0000
0000
0101
0000
0000
0000
0101
0000
0000
0000
0000
0000
1010
0000
,
0000
0000
1010
0000
0000
0011
0000
0000
0000
1000
0100
0010
0002
0000
0000
0000
0000
0000
0003
0000
0000
100M
0100
0010
,
0100
0000
0000
0000
0000
0000
1001
0000
0000
0001
0010
0001
1000
0001
0100
0001
0000
0000
0101
0000
0101
0000
0000
1010
,
0000
0000
1010
0000
0000
0010
0000
0000
0000
1000
0100
0010
0001
0000
0000
0000
0000
0000
2000
0000
0000
0200
0000
0000
,
0002
0000
0000
00M3
0000
0000
0000
0000
0000
0000
0000
0000
0020
0000
0000
003M
0000
0000
0000
0000
0000
0000
0000
0000
0002
0000
0000
00M3
0000
0000
3300
0000
0000
0000
0000
0000
1100
0000
0000
0000
1100
0000
0000
0000
0000
0000
0011
0000
,
0000
0000
0011
0000
0000
0100
0000
0000
0000
0001
0010
0100
1000
0000
0000
0001
0000
0000
0010
1000
0010
0000
0000
10M0
,
0000
0000
0000
0000
1001
0000
0000
0000
1000
0000
0100
0000
0001
M000
0010
0M00
,
1000
000M
0010
M000
0001
00M0
0100
000M
1000
0M00
0001
0000
0010
0000
0100
0000
,
0000
1000
0100
0010
0001
0100
0010
1000
0100
0010
0001
1000
,
0010
1000
0010
1000
0000
0000
0001
0100
0001
0100
0000
0000
1000
0001
1000
0001
0000
0000
1000
0100
1000
0100
1000
0100
,
0010
0000
0000
0000
0000
0000
1001
0000
0000
0000
0000
0000
0100
0000
0000
0000
0000
0000
0110
0000
0110
0000
0000
1001
,
0000
0000
1001
0000
0000
0110
0000
0000
0000
0000
0000
0010
0000
0000
1000
0000
0000
0001
0000
0000
0100
0000
0000
1000
,
0000
0000
0100
0001
0000
0000
0200
0000
0000
0000
0000
0000
0300
0000
0000
0000
0000
0000
1010
0000
1010
0000
0000
0101
,
0000
0000
0011
0000
0000
1100
0000
0000
0000
0001
0100
0010
1000
0000
0000
0000
0000
0100
0010
0000
0000
0000
0000
0000
,
0000
0000
0000
0000
1000
0000
0001
0000
0010
0000
1000
0000
0010
0000
0000
0000
0000
0000
0000
0000
0000
0000
0000
0000
0000
0000
0000
0000
0010
0000
1000
0000
0001
0000
0100
0000
0010
0000
0000
0000
0000
0000
0000
0000
1000
0100
1000
0100
,
0010
0000
0000
0000
0000
0000
0000
0000
0000
0000
0010
0000
1000
0000
0001
0000
1000
0000
0100
0000
0000
0000
0000
0000
0000
0000
0000
0000
0000
0000
0000
0000
0000
0000
0001
0010
0001
0000
0000
0000
0010
0000
0000
0000
0000
0000
0100
0000
,
0000
0000
0100
0000
0000
0000
0000
0000
0000
0000
0000
0000
1000
0100
0010
0001
0010
0000
0000
0000
0000
0000
0000
0000
,
1000
0100
0010
0100
1000
0100
0010
0001
0010
0100
0010
0001
0010
0100
1000
0100
0010
0100
1000
0000
1000
0000
0000
1000
,
0000
0000
0000
0000
0000
1000
0001
0000
0000
0000
0000
0000
0001
0000
0000
0000
0000
1000
0001
0000
0000
0000
0000
0000
,
0001
0000
0000
0000
0000
1000
0001
0000
0000
0000
0000
0000
0001
0000
0000
0000
0000
1000
0001
0000
0000
0000
0000
0000
,
0001
0000
0000
0000
0000
1000
0001
0000
0000
0000
0000
0000
0001
0000
0000
0000
0000
1000
0001
0000
0000
0000
0000
0000
,
0001
0000
0000
0000
0000
1000
0001
0000
0000
0000
0000
0000
0001
0000
0000
0000
0000
1000
0001
0000
0000
0000
0000
0000
,
1001
1000
0100
0010
,
0001
0010
1100
1100
,
1100
0000
0001
0000
1000
1000
0010
0010
,
0100
0100
0001
0001
1001
100M
1001
M001
,
0011
0001
0010
0001
0010
0100
0010
0100
0010
0100
1000
0100
,
0000
1000
0100
1000
0100
0010
0100
0010
0001
0010
0001
0010
,
0000
0001
M010
0100
M010
0001
M010
0100
0000
1000
010M
0010
010M
1000
010M
0010
,
1000
0100
0010
0001
0000
0000
1000
0010
0100
0001
0000
0000
1000
0100
0010
0001
0000
0000
1000
0010
0100
0001
1000
0000
,
2000
0000
0MM1
3000
2000
0000
0MM1
3000
2000
0000
0MM1
3000
2000
0000
0MM1
3000
2000
0000
0MM1
3000
2000
0000
0MM1
3000
2000
0000
0MM1
3000
2000
0000
0MM1
3000
,
2000
0000
0MM1
3000
2000
0000
0MMM
3000
0000
0000
0000
0000
0000
0000
0000
0000
0000
0000
0000
0000
0000
0000
0000
0000
0000
0000
0000
0000
0000
0000
0000
0000
;

//---------------dance-single - K. Hirokazu----------------
#NOTES:
     dance-single:
     K. Hirokazu:
     Medium:
     9:
     0.525,0.686,0.269,0.297,0.537:
0000
0000
0000
0000
,
0000
0000
0000
0000
,
0000
0000
0000
0000
,
0000
0000
0000
0000
,
1001
1000
0100
0010
,
0001
0010
0100
1000
,
1100
0001
0100
0010
,
1000
0010
0100
0001
,
0101
0000
0001
0000
1000
0010
0100
0001
,
1000
0010
0100
0001
1000
0100
0010
0001
,
0011
0001
0010
0100
1000
0001
0010
0100
1000
0100
0010
0001
,
2000
3001
0002
1003
2000
3001
1001
1000
,
1001
0000
0000
0000
0000
1000
0100
0000
0000
0000
0000
0000
1010
0000
0000
0000
0000
0000
0010
0000
1000
0000
0000
1000
,
0000
0000
0001
0000
0000
0010
0000
0000
0000
0020
0000
0000
0130
0000
0000
0000
0000
0000
2000
0000
0000
0200
0000
3000
,
1300
0000
0000
0000
0000
0100
0010
0000
0000
0000
0000
0000
1001
0000
0000
0000
0000
0000
0010
0000
1000
0000
0000
0001
,
0000
0000
0100
0000
0000
0001
0000
0000
0000
0020
0000
0000
0130
0000
0000
0000
0000
0000
0200
0000
0000
2000
0000
0300
,
3100
0000
0000
0000
0000
0100
1000
0000
0000
0000
0000
0000
0011
0000
0000
0000
0000
0000
0001
0000
1000
0000
0000
0001
,
0000
0000
0100
0000
0000
0001
0000
0000
0000
2000
0000
0000
3010
0000
0000
0000
0000
0000
0020
0000
0000
2000
0000
0030
,
3100
0000
0000
0000
0000
0001
0010
0000
0000
0000
0000
0000
0110
0000
0000
0000
0000
0000
0100
0000
1000
0000
0000
0001
,
0000
0000
0100
0000
0000
0010
0000
0000
0000
2000
0000
0000
3100
0000
0000
0010
0000
0001
0000
0000
0100
0000
0000
0010
,
0000
0000
2000
0000
0000
0200
0000
0000
0000
0000
0000
0000
3300
0000
0000
0000
0000
0000
1100
0000
1100
0000
0000
0011
,
0000
0000
0011
0000
0000
1100
0000
0000
0000
0000
0000
1000
0100
0000
0100
0000
0000
0010
0001
0000
0001
0000
1000
0000
,
0110
0000
0000
0000
0000
0000
1001
0000
0000
0000
0000
0000
0110
0000
0000
0000
0000
0000
1000
0000
0001
0000
0000
0100
,
0000
0000
0000
0000
0010
0000
0000
0000
0000
0000
1000
0000
0000
0000
0000
0000
0000
0000
2000
0000
0000
0000
0000
0000
3002
0000
0000
0000
0000
0000
0000
0000
0000
0000
0000
0000
0003
0000
0000
0000
0000
0000
1000
0000
0000
0010
0000
0000
,
0100
0000
0000
0000
0000
0000
0000
0000
0000
0000
0000
0000
0001
0000
0000
0000
0000
0000
1000
0000
0000
0010
0000
0000
1000
0000
0000
0100
0000
0000
0010
0000
0000
0000
0000
0000
0001
0000
0000
0000
0100
0000
0000
0000
0000
0000
0010
0000
,
0000
0000
1000
0000
0000
0010
0000
0000
0000
2000
0000
0000
3100
0000
0000
0000
0000
0000
2000
0000
0000
3001
0000
0000
,
0020
0000
0000
0000
0000
0000
0100
0000
0000
0000
0000
0000
0100
0000
0000
0030
0000
0000
0001
0000
1000
0000
0000
0010
,
0000
0000
1000
0000
0000
0100
0000
0000
0000
0020
0000
0000
0031
0000
0000
0001
0000
0000
1000
0000
0010
0000
0000
0100
,
0000
0000
1001
0000
1000
0001
0100
0010
,
0100
0001
1000
0010
0100
0010
0100
0001
,
0000
1000
0100
0010
0001
0100
0010
1000
0100
0010
0001
1000
,
0020
0130
0200
0310
0020
0130
0110
0010
,
0110
0000
0000
0000
0000
0001
1000
0000
0000
0000
0000
0000
0100
0000
0000
0000
0000
0000
0001
0000
1000
0000
0000
0010
,
0000
0000
0100
0000
0000
0010
0000
0000
0000
0000
0000
0010
0000
0000
1000
0000
0000
0001
0000
0000
0100
0000
0000
0001
,
0000
0000
1000
0010
0000
0000
0200
0000
0000
0000
0000
0000
0300
0000
0000
0000
0000
0000
0010
0000
1000
0000
0000
0100
,
0000
0000
0000
0000
0010
0000
0000
0000
0000
0000
0100
0000
0000
0000
0000
0000
0000
0000
1000
0000
0000
0001
0000
0000
1000
0000
0000
0000
0000
0000
0000
0000
0000
0000
0000
0000
0100
0000
0000
0000
0000
0000
0000
0000
0000
0000
0000
0000
,
0000
1000
0001
0100
0000
0000
0000
0000
1000
0100
0010
0001
0000
0000
0000
1000
,
0001
0000
0000
0000
0000
0000
0000
0000
0000
1000
0000
0000
0001
0000
0000
1000
0000
0000
0000
0000
0000
0000
0000
0000
0000
0000
0000
0000
0000
0000
0000
0000
0000
0000
0001
0000
0010
0000
0000
0000
0000
0000
0100
0000
0000
0000
1000
0000
,
0000
0000
0000
0000
0010
0000
0000
0000
0000
0000
0000
0000
0000
0000
0000
0000
0000
0000
0000
0000
0000
0000
0000
0000
1000
0000
0000
0100
0000
0000
0010
0000
0000
0000
0000
0000
0000
0000
0000
0000
0000
0000
0000
0000
0000
0000
0000
0000
,
0100
0010
0001
1000
0010
0100
0010
1000
,
1001
0001
1000
0010
,
0100
0000
0000
0000
0000
0000
0001
0000
0000
0000
0000
0000
1000
0000
0000
0000
0000
0000
0100
0000
0000
0000
0000
0010
,
0001
1000
0010
0100
,
0010
0000
0000
0000
0000
0000
1000
0000
0000
0000
0000
0000
0100
0000
0000
0000
0000
0000
0010
0000
0000
0000
0000
0001
,
1000
1000
0100
0010
,
0001
0010
0100
1000
,
1100
0000
0001
0000
1000
0100
0010
0001
,
1000
0100
0010
0001
1000
0010
0100
0001
,
1000
0100
0010
0001
0010
0100
1000
0100
0010
0001
0010
0100
,
0000
1000
0100
0010
0001
0010
0100
1000
0100
0010
0001
0010
,
0000
1001
1000
1001
0000
0110
0010
0110
,
2000
3001
0020
0130
2000
3010
0200
0310
,
2002
0000
0000
0000
,
3003
0000
0000
0000
;

//---------------dance-single - K. Hirokazu----------------
#NOTES:
     dance-single:
     K. Hirokazu:
     Challenge:
     13:
     0.830,0.942,0.595,0.364,1.000: // measure 1
0000
0000
0000
0000
,  // measure 2
0000
0000
0000
0000
,  // measure 3
0000
0000
0000
0000
,  // measure 4
0000
0000
0000
0000
,  // measure 5
1001
0000
0000
0000
0000
0000
1000
0000
0000
0000
0000
1000
0100
0000
0000
0000
0000
0000
0010
0000
0000
0000
0000
0000
,  // measure 6
0001
0000
0000
0000
0000
0001
0010
0000
0000
0000
0000
0000
1100
0000
0000
0000
0000
1000
0100
0000
0000
0000
0000
0000
,  // measure 7
1100
0000
0000
0000
0000
1000
0001
0000
0000
0000
0000
0000
0100
0000
0000
0000
0000
0100
0010
0000
0000
0000
0000
0000
,  // measure 8
1000
0000
0000
0000
0000
1000
0010
0000
0000
0000
0000
0000
0101
0000
0000
0000
0000
0100
0001
0000
0000
0000
0000
0000
,  // measure 9
0101
0000
0000
0000
0000
0100
0001
0000
0000
0000
0000
0000
1000
0000
0000
1000
0000
1000
0010
0000
0000
0010
0000
0000
,  // measure 10
0100
0000
0000
0100
0000
0100
0001
0000
0000
0001
0000
0000
1001
0000
0000
1000
0000
0001
1000
0000
0000
0001
0000
0000
,  // measure 11
0011
0000
0001
0000
0010
0100
1000
0000
0001
0000
1000
0000
0001
0000
1000
0000
0001
1000
0001
0000
0010
0000
0100
0000
,  // measure 12
0100
0010
0100
0010
0000
0000
0001
1000
0001
1000
0000
0000
0010
0100
0010
0100
0000
0000
0001
0010
0100
1000
0100
0010
,  // measure 13
0002
0000
0000
0000
0000
0000
0000
0000
0000
0100
0000
0000
0100
0000
0000
0000
0000
0000
0000
0000
0000
0000
0003
0000
1010
0000
0000
0000
0000
0000
0000
0000
0000
0000
0000
0000
0010
0000
0000
0000
0010
0000
0000
0000
0000
0000
1001
0000
,  // measure 14
0000
0000
0100
0000
0000
1010
0000
0000
0000
0001
0010
0100
1000
0000
0000
0000
0000
0000
1000
0100
1000
0100
1000
0200
,  // measure 15
0000
0000
0000
0000
0000
0000
0000
0000
0000
0001
0000
0000
0001
0000
0000
0000
0000
0000
0000
0000
0000
0000
0300
0000
1010
0000
0000
0000
0000
0000
0000
0000
0000
0000
0000
0000
0010
0000
0000
0000
0010
0000
0000
0000
0000
0000
1100
0000
,  // measure 16
0000
0000
0001
0000
0000
1010
0000
0000
0000
1000
0100
0010
0001
0000
0000
0000
0000
0001
0100
0001
0100
0001
0100
0001
,  // measure 17
2000
0000
0000
0000
0000
0000
0000
0000
0000
0000
0000
0000
0000
0000
0000
0000
0000
0000
0000
0000
0000
0000
0000
0000
0000
0000
0000
0000
0000
0000
0000
0000
0000
0000
0000
0000
0010
0000
0000
0000
0000
0000
0000
0000
0000
0000
0000
0000
0010
0000
0000
0000
0000
0000
0000
0000
0000
0000
0000
0000
0000
0000
0000
0000
0000
0000
0000
0000
0000
0000
0000
0000
0000
0000
0000
0000
0000
0000
0000
0000
0000
0000
0000
0000
0000
0000
0000
0000
0000
0000
3000
0000
0000
0000
0000
0000
0101
0000
0000
0000
0000
0000
0000
0000
0000
0000
0000
0000
0000
0000
0000
0000
0000
0000
0000
0000
0000
0000
0000
0000
0000
0000
0000
0000
0000
0000
0000
0000
0000
0000
0000
0000
0000
0000
0000
0000
0000
0000
0000
0000
0000
0000
0000
0000
0001
0000
0000
0000
0000
0000
0000
0000
0000
0000
0000
0000
0000
0000
0000
0000
0001
0000
0000
0000
0000
0000
0000
0000
0000
0000
0000
0000
0000
0000
0000
0000
0000
0000
0000
0000
0000
0000
0000
0000
1010
0000
0000
0000
0000
0000
0000
0000
,  // measure 18
0000
0000
0100
0000
0000
1001
0000
0000
0000
1000
0100
0010
0001
0000
0000
0000
0000
0000
0010
0100
0010
0100
0010
0100
,  // measure 19
0020
0000
0000
0000
0000
0000
0000
0000
0000
0001
0000
0000
0001
0000
0000
0000
0000
0000
0000
0000
0030
0000
0000
0000
1100
0000
0000
0000
0000
0000
0000
0000
0000
0000
0000
0000
0100
0000
0000
0000
0100
0000
0000
0000
0000
0000
1010
0000
,  // measure 20
0000
0000
0001
0000
0000
1100
0000
0000
0000
0001
0010
0100
1000
0000
0000
0002
0000
0200
0003
0000
2000
0300
0000
0020
,  // measure 21
3000
0000
0002
0030
0000
2000
0003
0000
0000
0000
0000
3001
1000
0000
0000
0000
0000
0000
1001
0000
1001
0000
0000
1010
,  // measure 22
0000
0000
1100
0000
0000
1010
0000
0000
0000
0000
0000
0001
1000
0010
0100
0001
0010
0100
0010
0100
1000
0001
0010
0200
,  // measure 23
2000
0000
0000
0000
0000
3300
0202
0000
0000
0000
0000
0303
2200
0000
0000
0000
0000
3300
0101
0000
0101
0000
0000
0011
,  // measure 24
0000
0000
1010
0000
0000
0011
0000
0000
0000
1000
0100
0010
0002
0000
0000
0000
0000
0000
0003
0000
0000
1000
0100
0010
,  // measure 25
0200
0000
0000
0000
0000
0000
0300
0000
0000
1000
0100
1000
0001
1000
0010
1000
0000
0000
0101
0000
0101
0000
0000
1010
,  // measure 26
0000
0000
0011
0000
0000
1010
0000
0000
0000
0001
0010
0100
1000
0000
0000
0000
0000
0000
2000
0000
0000
0200
0000
0000
,  // measure 27
001M
0000
0000
0000
0000
0000
00M1
0000
0000
0000
0000
0000
331M
0000
0000
0000
0000
0000
1100
0000
1100
0000
0000
0011
,  // measure 28
0000
0000
0011
0000
0000
0100
0000
0000
0000
0001
1000
0010
0100
0000
0000
0001
0000
0000
1000
0010
0100
0000
0000
0100
,  // measure 29
0000
0000
0000
0000
0000
0001
1000
0000
0000
0000
0000
0000
1000
0000
0000
1000
0000
1000
0001
0000
0000
0001
0000
0000
,  // measure 30
0100
0000
0000
0100
0000
0100
0010
0000
0000
0010
0000
0000
1000
0000
0000
1000
0000
1000
0010
0000
0000
0010
0000
0000
,  // measure 31
0000
0000
1000
0000
0001
0100
0001
0000
1000
0000
0001
0000
1000
0000
0001
0000
1000
0010
1000
0000
0001
0000
1000
0000
,  // measure 32
0001
0100
0010
0100
0000
0000
0010
1000
0010
0100
0000
0000
0010
1000
0100
1000
0000
0000
0001
1000
0010
0100
0001
1000
,  // measure 33
0020
0000
0000
0000
0000
0000
0000
0000
0000
0030
0000
0000
1001
0000
0000
0000
0000
0000
0000
0000
0000
0000
0001
0000
0100
0000
0000
0000
0000
0000
0000
0000
0000
0000
0000
0000
1100
0000
0000
0000
1100
0000
0000
0000
0000
0000
0110
0000
,  // measure 34
0000
0000
0011
0000
0000
0110
0000
0000
0000
0000
0000
0010
0000
0000
0001
0000
0000
1000
0010
0000
0100
0000
0000
0010
,  // measure 35
0000
0000
0100
0001
0000
0001
0200
0000
0000
0000
0000
0000
0300
0000
0000
0000
0000
1000
0010
0000
1010
0000
0000
0101
,  // measure 36
0000
0000
0011
0000
0000
1000
0100
0000
0000
0001
0100
0010
1000
0000
0000
0000
0000
0001
0100
0000
0000
0000
0010
0000
,  // measure 37
0000
0000
0000
0000
1000
0000
0001
0000
0010
0000
1000
0000
0010
0000
0000
0000
0000
0000
0000
0000
0000
0000
0000
0000
0000
0000
0000
0000
0010
0000
1000
0000
0001
0000
0100
0000
0010
0000
0000
0000
0000
0000
0000
0000
1000
0100
1000
0100
,  // measure 38
0010
0000
0000
0000
0000
0000
0000
0000
0000
0000
0010
0000
1000
0000
0001
0000
1000
0000
0100
0000
0000
0000
0000
0000
1000
0000
0100
0000
0010
0000
0001
0000
0000
0000
0001
0010
0001
0000
0000
0000
0010
0000
0000
0000
0000
0000
0100
0000
,  // measure 39
0000
0000
0100
0000
0000
1000
0001
0000
0000
0000
0000
0000
1000
0100
0010
0001
0010
0000
1001
0000
1010
0000
0000
1100
,  // measure 40
1000
0100
0010
0100
1000
0100
0010
0001
0010
0100
0010
0001
0010
0100
1000
0100
0010
0100
1000
0000
1000
0000
0000
1000
,  // measure 41
1001
0000
0000
0001
0000
1000
0001
0000
0000
0001
0000
0000
0001
0000
0000
0001
0000
1000
0001
0000
0000
0001
0000
0000
,  // measure 42
0001
0000
0000
0001
0000
1000
0001
0000
0000
0001
0000
0000
0001
0000
0000
0001
0000
1000
0001
0000
0000
0001
0000
0000
,  // measure 43
0001
0000
0000
0001
0000
1000
0001
0000
0000
0001
0000
0000
0001
0000
0000
0001
0000
1000
0001
0000
0000
0001
0000
0000
,  // measure 44
1001
0000
0000
0001
0000
1000
0001
0000
0000
0001
0000
0000
0001
0000
0000
0001
0000
1000
0001
0000
0000
1001
0000
0000
,  // measure 45
1001
0000
0000
0000
0000
0001
1000
0000
0000
0000
0000
0000
0100
0000
0000
0000
0000
0100
0010
0000
0000
0000
0000
0000
,  // measure 46
0001
0000
0000
0000
0000
0001
0010
0000
0000
0000
0000
0000
1100
0000
0000
0000
0000
1000
1100
0000
0000
0000
0000
0000
,  // measure 47
1100
0000
0000
0000
0000
1000
0001
0000
0000
0000
0000
0000
1000
0000
0000
1000
0000
1000
0010
0000
0000
0010
0000
0000
,  // measure 48
0100
0000
0000
0100
0000
0100
0001
0000
0000
0001
0000
0000
1001
0000
0000
1000
0000
0001
1001
0000
0000
0001
0000
0000
,  // measure 49
0011
0000
0001
0000
0010
0100
1000
0000
0001
0000
0010
0000
0100
0000
1000
0000
0001
0010
0100
0000
1000
0000
0001
0000
,  // measure 50
0000
0000
1000
0000
0100
0010
0001
0000
1000
0000
0100
0000
0010
0000
0001
0000
1000
0100
0010
0000
0001
0000
1000
0000
,  // measure 51
0000
0001
0010
0100
0010
0001
0010
0100
0000
1000
0100
0010
0100
1000
0100
0010
,  // measure 52
1000
0000
0001
0000
1000
0000
0100
0000
0000
0000
0000
0000
0100
0000
0010
0000
0100
0000
1000
0000
0000
0000
0000
0000
1000
0000
0001
0000
1000
0000
0010
0000
0000
0000
0000
0000
0010
0000
1000
0000
0010
0000
0100
0000
0000
0010
0000
0000
,  // measure 53
2000
0000
0000
0000
0200
0000
0000
3000
0002
0000
0000
0300
0020
0000
0000
0003
2000
0000
0000
0000
0230
0000
0000
3000
0002
0000
0000
0300
0020
0000
0000
0003
2000
0000
0000
0030
0200
0000
0000
3000
0002
0000
0000
0300
0020
0000
0000
0003
2000
0000
0000
0030
0200
0000
0000
3000
0002
0000
0000
0300
0020
0000
0000
0000
,  // measure 54
0003
0030
0000
0000
0000
0000
0000
0000
0000
0000
0000
0000
0000
0000
0000
0000
;
