#TITLE:FIRE FIRE;
#SUBTITLE:;
#ARTIST:StripE;
#TITLETRANSLIT:;
#SUBTITLETRANSLIT:;
#ARTISTTRANSLIT:;
#CREDIT:;
#BANNER:FIRE FIRE.png;
#BACKGROUND:FIRE FIRE-bg.png;
#LYRICSPATH:;
#CDTITLE:!profgold.png;
#MUSIC:FIRE FIRE.ogg;
#OFFSET:-0.014;
#SAMPLESTART:52.819;
#SAMPLELENGTH:22.386;
#SELECTABLE:YES;
#BPMS:0.000=150.000,28.000=75.000,30.000=150.000,62.000=75.000,64.000=150.000,128.000=75.000,130.000=150.000,230.000=75.000;
#STOPS:;
#BGCHANGES:;

//---------------dance-single - K. Hirokazu----------------
#NOTES:
     dance-single:
     K. Hirokazu:
     Hard:
     10:
     0.711,0.810,0.891,0.190,0.255: // measure 1
0000
0000
0000
0000
,  // measure 2
0000
0000
0000
0000
,  // measure 3
0000
0000
0000
0000
,  // measure 4
0000
0000
0000
0000
,  // measure 5
0001
0000
0000
0000
0100
0000
0000
0010
0000
0010
0000
0010
1000
0100
0010
0000
,  // measure 6
0001
0000
0000
0000
0100
0000
0000
0010
0000
0010
0000
0010
0100
0001
1000
0000
,  // measure 7
1000
0100
1000
0000
1000
0100
1000
0000
1000
0100
0000
0000
1000
0100
1000
0000
,  // measure 8
1000
0000
0000
0100
0000
0000
0000
0010
0000
0000
0001
0000
0000
0000
0000
0000
0001
0000
0000
0000
0000
0000
0001
0000
0000
0000
0000
0000
0001
0000
0000
0000
,  // measure 9
0002
0000
0000
1003
0000
0000
0001
0010
0001
0000
0000
1000
0000
0000
1000
0000
,  // measure 10
0000
0000
0010
0000
0100
0000
0001
0000
0010
0000
0000
0010
0000
0000
0010
0000
,  // measure 11
0020
0000
0000
0130
0000
0000
0010
0001
0010
0000
0100
0000
0000
0000
1000
0100
,  // measure 12
0010
0000
0001
0010
0100
0000
0000
0000
2000
0000
0000
3010
0000
0000
0200
0000
,  // measure 13
0000
0000
0301
0000
0010
0000
0100
0000
2000
0000
0000
3100
0000
0000
0100
0010
,  // measure 14
0001
0000
1000
0010
0100
0000
0001
0100
0001
0000
0010
0000
0100
0000
1000
0000
,  // measure 15
0200
0310
0002
0000
,  // measure 16
0000
1003
0000
0000
2002
3003
0000
0000
,  // measure 17
0001
0010
0100
0000
1000
0010
0100
0000
,  // measure 18
0001
1000
0001
0000
0010
0100
1100
0110
,  // measure 19
1001
1000
0010
0000
0100
0001
0010
0000
,  // measure 20
1100
0100
1010
0001
0110
0100
1100
0110
,  // measure 21
0011
0001
0100
0000
0010
1000
0001
0000
,  // measure 22
0010
0100
1000
0000
0100
0011
0001
1001
,  // measure 23
1010
0010
0100
0000
1000
0010
0100
0000
,  // measure 24
0011
0001
1010
0110
0011
0010
1010
1100
,  // measure 25
0101
0001
1000
0010
1010
1000
1100
0110
,  // measure 26
0011
0001
0100
0010
1010
1000
1100
0100
,  // measure 27
0011
0001
1000
1010
0110
0100
0001
0011
,  // measure 28
0110
0100
1000
1001
0110
0010
0100
1100
,  // measure 29
1001
1000
1001
0001
1001
1000
1001
0001
,  // measure 30
1001
1000
1001
0001
1001
1000
1001
0001
,  // measure 31
1001
1001
1001
1001
1001
1001
1001
1001
,  // measure 32
1000
0100
1000
0000
1000
0100
1000
0000
1000
0100
0000
0000
1000
0100
1000
0000
,  // measure 33
1000
0000
0000
0000
0000
0100
0000
0010
0000
0000
0001
0000
0000
0000
0000
0000
1001
0000
0000
0000
0000
0000
0000
0000
0110
0000
0000
0000
0000
0000
0000
0000
,  // measure 34
1001
0000
1100
0110
0011
0001
1000
0010
,  // measure 35
1000
0100
0010
0000
0001
0100
0010
0100
,  // measure 36
0001
1000
1100
0011
1100
0100
0010
0001
,  // measure 37
0100
0010
0100
0000
0001
1000
0100
0010
,  // measure 38
0100
1000
1010
0010
0100
0001
0010
0100
,  // measure 39
1000
0100
0010
0000
0100
1000
0001
0100
,  // measure 40
0010
1000
1001
0110
0011
0001
0010
0100
,  // measure 41
1010
1000
0001
0010
0110
1000
0010
0100
,  // measure 42
0011
0000
0001
0000
0011
0000
0110
0000
1000
0000
0000
1000
0000
0000
1000
0000
,  // measure 43
2000
0000
0000
3001
0000
0000
1000
0100
1000
0000
0001
0000
0000
0000
0001
0000
,  // measure 44
0000
0100
0000
0000
0010
0000
1000
0000
0100
0000
0000
0100
0000
0000
0100
0000
,  // measure 45
0200
0000
0000
0310
0000
0000
0100
1000
0100
0000
0010
0000
0000
0000
0001
0010
,  // measure 46
0100
0000
1000
0100
0020
0000
0030
0000
0001
0000
0000
0001
0000
0000
0001
0000
,  // measure 47
0002
0000
0000
0103
0000
0010
0100
0010
0100
0000
0001
0000
0010
0000
0100
0000
,  // measure 48
2000
0000
0000
0000
3001
0000
0000
0000
0010
0000
0000
0010
0000
0000
0010
0000
,  // measure 49
0020
0000
0000
0130
0000
0000
0000
0000
2000
0000
0000
0000
3001
0000
0000
0000
,  // measure 50
0002
0000
1003
0000
1100
0110
0011
0000
,  // measure 51
0101
0110
1010
0000
1000
0100
0010
0001
,  // measure 52
0010
0100
0010
0001
1010
0010
0100
0001
,  // measure 53
1000
0001
0100
0010
1010
1000
0100
0010
,  // measure 54
0011
0001
1001
1010
0110
0100
0001
0010
,  // measure 55
0100
1000
0100
0010
0001
0100
0010
0100
,  // measure 56
0010
1000
1100
0100
0110
0001
0100
0010
,  // measure 57
1001
0100
0010
0001
1100
0010
0101
1000
,  // measure 58
0110
0001
1100
0110
2002
0000
3003
0000
;

//---------------dance-single - K. Hirokazu----------------
#NOTES:
     dance-single:
     K. Hirokazu:
     Challenge:
     13:
     1.000,1.000,0.411,0.110,1.000:
0000
0000
0000
0000
,
0000
0000
0000
0000
,
0000
0000
0000
0000
,
0000
0000
0000
0000
,
0001
1000
0001
0000
0001
0010
0100
0010
0000
0010
0000
0010
0001
1000
0001
0000
,
0010
0100
1000
0000
0100
0010
0001
1000
0000
1000
0000
1000
0010
0100
0001
0000
,
0100
0010
0200
0000
0310
0100
0020
0000
0130
0020
0200
0030
0310
0100
0010
0100
,
001M
1000
0100
0010
0100
1000
0100
1000
0000
0100
0010
0001
0000
0001
0010
0100
1000
0000
0100
0000
1000
0000
0100
0000
1000
0000
0100
0000
1000
0000
0100
0000
,
0000
0100
0000
0100
0010
0001
1000
0010
0100
0001
0100
0001
0100
0001
0100
0001
,
0000
0001
0000
0001
0010
0100
1000
0000
0010
0100
0010
0100
0010
0100
0010
0100
,
0000
0000
0100
0000
0000
0000
0100
0000
0001
0000
0010
0000
0100
0000
0010
0000
0001
0000
1000
0000
0001
0000
1000
0000
0001
0000
1000
0000
0001
1000
0001
1000
,
0001
0000
0011
0000
1100
0000
0000
0000
1000
0010
1000
0010
1000
0010
1000
0001
,
0010
0001
0010
0000
0010
0000
0100
0000
1000
0001
1000
0001
1000
0001
1000
0100
,
1000
0000
0001
0100
0001
0000
0001
0010
0100
0010
0100
0010
0100
0010
0100
0010
,
0000
0010
0000
0010
0001
1000
0001
0100
0001
0010
0100
1000
0000
0100
0010
0001
,
0000
0000
0010
0000
0100
0000
1000
0000
0000
0000
0100
0000
0010
0000
0001
0000
10M0
0000
0000
0M00
0000
0000
0000
M0M0
0000
0000
0000
0M0M
0000
0000
0000
00M0
,
1000
0001
1000
0001
1000
0000
1000
0100
0010
0001
0010
0000
1100
0000
1000
0001
,
0100
0010
0100
0000
1001
0000
1000
0010
0100
0001
0010
0000
0001
0100
0001
0100
,
0001
0010
0001
0010
0001
0000
0010
0100
1000
0000
0101
0000
1100
0000
1000
0010
,
0100
0010
1000
0100
0010
0000
0101
0000
1010
0000
1000
0100
1000
0100
0010
0001
,
0010
0100
0010
0100
0010
0000
0001
1000
0010
1000
0100
0000
1001
0000
0001
0010
,
0100
1000
0010
1000
0010
0000
0010
0100
0010
0100
0010
0000
1000
0100
0010
0001
,
0010
0100
0010
0100
0010
0000
0001
0100
0010
1000
0100
0000
1010
0000
0001
0010
,
0100
1000
0100
0000
0011
0000
1100
0000
0001
0010
0100
0000
1000
0001
1000
0001
,
1000
0100
1000
0100
1000
0000
1000
0100
0010
0100
0010
0000
1001
0000
1000
0010
,
0100
0010
1000
0001
0010
0000
0010
0100
1000
0100
1000
0000
1010
0000
0100
0010
,
0001
0010
0100
1000
0100
0000
1010
0000
0001
0010
0100
1000
0100
0000
1010
0000
,
0001
0010
0100
1000
0100
0000
1010
0000
0001
0010
0100
1000
0100
0000
1010
0000
,
0010
1000
0001
1000
0001
0000
1010
0000
0010
1000
0001
1000
0001
0000
1010
0000
,
0010
1000
0001
1000
0001
0000
1010
0000
0010
1000
0001
1000
0001
0000
1010
0000
,
0010
1000
0001
1000
0010
1000
0001
1000
0010
1000
0001
1000
0010
1000
0001
1000
,
0010
0100
0020
0000
0130
0010
0200
0000
0310
0200
0020
0300
0130
0010
0100
0010
,
0100
0000
0000
0000
0000
0000
0000
0000
1000
0100
0010
0100
0010
0001
1000
0010
,
1000
0100
0010
0000
0010
0001
0010
0100
1000
0100
1000
0100
0010
0000
0010
0001
,
1000
0010
0100
0000
1001
0000
0001
0100
0001
0010
0100
0000
1100
0000
0001
0010
,
0100
0010
0001
0000
1000
0010
1000
0100
1000
0001
1000
0001
1000
0000
1000
0001
,
0010
0000
0110
0000
1100
0000
0001
0100
0010
0100
0010
0100
0010
0000
1100
0000
,
1000
0100
1000
0001
0100
0010
0100
0001
0010
0001
1000
0001
1000
0000
1000
0100
,
0010
0000
1001
0000
1010
0000
1000
0010
0100
0001
0010
0100
0010
0000
0100
1000
,
0100
0010
0001
1000
0001
1000
0010
1000
0010
0100
0001
0010
0100
0000
0100
1000
,
0100
0000
1010
0000
0011
0000
1000
0010
1000
0100
0010
0001
0010
0000
0001
0100
,
0010
0100
0010
0000
0011
0000
1000
0100
0010
0001
0010
0001
0010
0001
0010
0001
,
0000
0001
0000
0001
0010
0100
1000
0010
0100
0010
0100
0010
0100
0010
0100
0010
,
0000
0010
0000
0010
1000
0100
0010
0000
0100
1000
0100
1000
0100
1000
0100
1000
,
0000
1000
0000
1000
0100
0010
0100
0010
0001
0100
0001
0100
0001
0100
0001
0100
,
0010
0000
1000
0100
0010
0000
0000
0000
0001
1000
0001
1000
0001
1000
0001
1000
,
0000
1000
0000
1000
0100
0010
0001
1000
0010
0000
0010
0000
1010
0000
1000
0000
,
0020
0000
0000
0000
0130
0000
0000
0000
0001
0100
0001
0100
0001
0100
0001
0100
,
0000
0100
0000
0100
0010
1000
0100
1000
0100
1000
0100
0010
0001
0100
0010
0100
,
0000
0010
0001
0010
0000
0100
1000
0001
0100
0010
0100
0010
0100
0000
0001
1000
,
0100
0010
0100
0000
1010
0000
0010
0100
0001
0100
0001
0000
1010
0000
0010
0100
,
0010
0100
0010
0000
0010
1000
0100
0010
0001
0010
0100
1000
0100
0000
0100
1000
,
0010
1000
0001
0000
0011
0000
0010
0100
1000
0100
1000
0100
1000
0000
0101
0000
,
1000
0001
1000
0001
1000
0010
0100
0010
0100
0001
0100
0001
0100
0000
0100
0010
,
1000
0000
0011
0000
1100
0000
0100
0010
0001
0010
0001
0010
0001
0000
0001
1000
,
0010
1000
0100
1000
0100
1000
0100
0010
0001
0010
0001
0010
0001
0000
0100
0010
,
1000
0100
0010
0000
1100
0000
0001
0100
0001
0010
0100
1000
0100
0000
0100
0010
,
0001
0010
0001
0000
1010
0000
0100
0001
20M0
0200
0000
0000
3300
0000
0000
0000
;
