#TITLE:End Of The World;
#SUBTITLE:;
#ARTIST:Tomoya Ohtani;
#TITLETRANSLIT:;
#SUBTITLETRANSLIT:;
#ARTISTTRANSLIT:;
#CREDIT:;
#BANNER:End Of The World.png;
#BACKGROUND:End Of The World-bg.png;
#LYRICSPATH:;
#CDTITLE:!profsonic.png;
#MUSIC:End Of The World.ogg;
#OFFSET:-0.020;
#SAMPLESTART:33.482;
#SAMPLELENGTH:18.294;
#SELECTABLE:YES;
#BPMS:0.000=86.000,16.000=172.000,72.000=86.000,74.000=43.000,75.000=172.000,135.000=86.000,137.000=172.000,169.000=86.000,201.000=172.000;
#STOPS:;
#BGCHANGES:;

//---------------dance-single - Profraine----------------
#NOTES:
     dance-single:
     Profraine:
     Challenge:
     11:
     0.818,1.000,0.145,0.164,0.667:
0000
0000
0000
0000
,
0000
0000
0000
0000
,
1000
0100
0010
0000
0010
0001
0100
0000
0100
0010
1000
0000
1000
0001
0010
0000
0100
1000
0010
0000
0000
0000
0000
0000
0000
0000
0000
0000
0000
0000
0000
0000
,
0020
0030
0000
0000
0020
0030
0000
0000
0020
0030
0000
0000
0000
0000
0000
0000
,
100M
0100
0010
0000
0010
0001
0100
0000
0100
0010
1000
0000
1000
0001
0100
0000
,
0010
1000
0100
0010
0000
0010
0001
1000
,
1001
0001
0100
0010
0000
0010
1000
0100
,
1000
0001
0000
0001
1000
0100
0010
0100
,
0010
0001
1000
0000
1000
0010
0100
0000
0100
0001
0010
0000
0010
0100
1000
0000
,
0100
0010
0001
0100
0000
0100
0010
1000
,
1100
0100
0010
0001
0000
0001
1000
0010
,
0100
0010
1000
0100
0000
0100
0010
0001
,
1000
0010
0100
0000
0100
0001
0010
0000
0010
0100
1000
0000
1000
0010
0100
0000
,
0100
0000
0001
0000
0010
0000
0001
0000
1000
0001
1000
0000
0010
0000
0100
0000
,
0001
0000
0100
0000
0010
0000
1000
0000
0100
0010
0100
0000
0010
0000
0001
0000
,
0000
0000
0001
0000
1000
0000
0010
0000
0100
0001
0100
0000
0010
0000
1000
0000
,
0100
0010
0001
0000
0001
1000
0010
0000
0010
1000
0100
0000
0100
0010
0001
0000
,
1000
0000
0010
0000
0100
0000
0001
0000
0010
0100
0010
0000
0100
0000
1000
0000
,
0M20
0030
0000
0000
0020
0030
0000
0000
0020
0030
0000
0000
M100
0000
0001
0000
,
1000
0000
0010
0000
0100
0001
0010
0000
0100
0000
1000
0000
0100
0000
0010
0000
,
0100
1000
0010
0100
0010
0100
0001
0010
0100
0000
1000
0000
0010
0000
0100
0000
,
0010
0000
1000
0100
1000
0100
0010
0000
0001
0000
1000
0000
0010
0000
1000
0000
,
0100
0010
0001
0100
0001
0100
0010
1000
0100
0000
0010
0000
0001
0010
0100
0000
,
0100
1000
0010
0000
0010
1000
0001
0000
0001
0100
0010
0000
1000
0000
0100
0000
,
0010
0001
1000
0010
1000
0010
0100
0000
0001
0000
0010
0000
0100
0000
1000
0000
,
0100
0000
0001
0000
0100
0000
1000
0000
0100
0000
0001
0000
0100
1000
0010
0100
,
0001
1000
0010
0100
0001
1000
0100
0010
0001
1000
0100
0010
0001
0000
0000
0000
,
1000
0000
1100
0000
0100
0010
0001
0000
0100
0000
0010
0000
1000
0000
0001
0000
,
0100
0000
0010
1000
0100
0010
0001
0010
0100
0000
1000
0000
0001
0000
0000
0000
,
0100
0000
0101
0000
0001
1000
0010
0000
1000
0000
0100
0000
0010
0000
0001
0000
,
0001
0010
0001
0001
1000
1010
0010
0000
,
0100
0000
0110
0000
0010
1000
0100
0000
0010
0000
0001
0000
1000
0000
0010
0000
,
0100
0000
0001
0010
0100
1000
0100
0000
0010
0000
0100
0000
1000
0000
0001
0000
,
0100
0000
0010
1000
0100
0010
0001
0000
1000
0000
0010
0000
M100
0000
0000
0000
,
0000
0000
0000
0000
011M
0000
0000
0000
0010
0000
1000
0100
0010
0100
1000
0000
,
0001
0000
0100
0000
0010
0000
0000
0000
0010
0000
1000
0001
0100
0010
1000
0000
,
0100
0000
0010
0000
0011
0000
0001
1000
0001
0000
0100
0010
1000
0100
0010
0000
,
0001
0100
0010
1000
1000
0010
1000
1000
,
0010
0000
0010
0000
1010
0000
1000
0000
0100
0000
0010
0001
0010
0100
1000
0000
,
0001
0000
0100
0000
0010
0000
0100
0000
0010
0000
1000
0100
0010
0100
1000
0000
,
0001
0000
0100
0000
0110
0000
0010
0000
1000
0000
0100
0010
0001
0010
0100
0000
,
1000
0001
0100
0010
0000
0100
0000
0010
,
0100
0010
101M
1000
0100
0010
0100
1000
,
0100
0000
0000
0000
0010
0000
0000
0000
1100
0000
0000
0000
0001
0000
0000
0000
0100
0000
0000
0000
0010
0000
0200
0300
0010
0000
0000
0000
2000
3000
0000
0000
,
0001
0000
2000
3000
0001
0000
0000
0000
0120
0030
0000
0000
1000
0000
0000
0000
0200
0300
0000
0000
0010
0000
0000
0000
0001
0000
0000
0000
0100
0000
0000
0000
,
0001
1000
0110
0001
0010
0100
1000
0100
,
1000
0000
0010
0000
0100
0001
0000
1000
0100
0010
0001
0010
0100
1000
0100
0001
,
0100
0000
1000
0000
0010
0000
1000
0000
0100
0000
0010
0000
0100
0000
1000
0000
0010
0000
0100
0000
0001
0000
0020
0030
0001
0000
1000
0000
0200
0300
0001
0000
,
0100
0000
0020
0030
0001
0000
1000
0000
0002
0003
0100
0000
0010
0000
1000
0000
0020
0030
1000
0000
0100
0000
0010
0000
0100
0000
1000
0000
0001
0000
0100
0000
,
0010
1000
0100
0010
0001
0010
0100
1000
0001
0100
1000
0100
0001
1000
0010
0100
,
1000
0100
0010
1000
01M0
0000
0100
0010
0001
0000
0100
0010
1000
0010
0100
0001
,
0010
0000
0100
0000
1000
0000
0010
0000
0100
0000
0001
1000
0010
1000
0100
0000
,
0010
0000
0001
0000
0100
0010
1000
0000
0100
0000
0010
0001
1000
0001
0010
0000
,
0100
0000
1000
0000
0010
0000
0100
0000
0001
0000
1000
0010
1000
0100
0010
0000
,
0001
0000
1000
0000
1010
0000
0010
0000
0100
0000
0001
0010
0100
1000
0100
0000
,
0010
0000
0001
0000
0100
0000
0010
0000
0100
0000
0001
0010
0100
0010
0001
0000
,
0100
0000
0010
0000
1000
0000
0100
0000
0010
0000
0100
0010
0001
1000
0100
0000
,
0010
0000
0001
0000
0010
0100
0010
0100
0010
0100
0010
0100
1000
0001
1000
0001
,
0010
0100
1000
0100
0002
0000
0000
0000
0003
0000
0000
0000
0000
0000
0000
0000
;

//---------------dance-single - Profraine----------------
#NOTES:
     dance-single:
     Profraine:
     Hard:
     10:
     0.677,0.877,0.193,0.464,0.256:
0000
0000
0000
0000
,
0000
0000
0000
0000
,
1000
0100
0001
0100
1000
0100
0001
0100
1000
0100
0000
0000
0000
0000
0000
0000
,
0020
0030
0000
0000
0002
0003
0000
0000
0020
0030
0000
0000
0000
0000
0000
0000
,
010M
1000
0010
1000
0100
1000
0010
1000
,
0200
0000
0010
0310
0000
0010
0001
0000
,
2001
0000
0100
3100
0000
0001
0100
0000
,
0020
0000
0000
0000
2030
0001
0000
0001
,
3001
0100
0010
0100
0001
0100
0010
0100
,
0002
0000
1000
1003
0000
0100
0010
0000
,
0012
0000
0100
0103
0000
0001
1000
0000
,
1100
0000
0010
0001
0000
0001
0010
0100
,
1000
0100
0001
0100
1000
0100
0001
0100
,
2000
0000
0001
3001
1000
0010
0100
0000
,
0021
0000
0100
0130
0010
0001
1000
0000
,
0200
0000
0000
0000
0320
0001
0000
0001
,
0031
0010
0100
0010
0001
0010
0100
0010
,
0002
0000
1000
1003
0001
1000
0100
0000
,
M020
0030
0000
0000
0200
0300
0000
0000
0020
0000
0000
0000
0M32
0000
0000
0000
,
0100
0100
0000
0010
0010
0000
2003
0000
,
0100
0100
0000
0001
0001
0000
3020
0000
,
1000
1000
0000
0001
0001
0000
0230
0000
,
0010
0010
0302
1000
1000
0000
1003
0100
,
0001
0100
1000
0100
0001
0100
2000
0000
,
0010
0010
0000
0001
0001
0000
3010
0010
,
0010
0000
0010
0000
0010
0000
0010
0000
0010
0000
0010
0000
0010
0100
0010
0100
,
0010
0100
0010
0100
0010
0100
0010
0100
0010
0100
0010
0100
0010
0000
00M0
0000
,
00M0
0010
1010
1000
0100
0010
0010
00M0
,
00M0
0010
0011
0001
1000
1000
0010
00M0
,
00M0
0010
1010
1000
0100
0100
0010
0010
,
0001
0010
0010
0001
1000
1000
0010
00M0
,
00M0
0010
0110
0100
0001
0001
1000
M000
,
M000
1000
1100
0100
0010
0010
0001
000M
,
000M
0000
0000
0000
0001
0000
0000
0000
0100
0000
0000
0000
0010
0000
0000
0000
1000
0000
0000
0000
0001
0000
0000
0000
M010
0000
0000
0100
0000
0000
1000
0000
,
0010
0000
0000
0100
0000
0000
0001
0000
M010
0000
0000
0000
0000
0000
0000
0000
0100
0000
0000
0000
1000
0000
0001
0000
0000
0000
0001
0000
0010
0000
0000
0000
,
0100
0000
0010
0000
0001
0000
0000
0000
1000
0000
0010
0100
0000
0100
0001
0000
,
0100
0000
0010
0000
1010
0000
0000
0000
1000
0000
0100
0010
0000
0010
0001
0000
,
0001
0100
0010
1000
1000
0010
1000
1000
,
0100
0000
0010
0000
0011
0000
0000
0000
0001
0000
1000
0010
0000
0010
0100
0000
,
0001
0000
1000
0000
0100
0000
0000
0000
0010
0000
0100
1000
0000
1000
0010
0000
,
0100
0000
0000
0000
0101
0000
0000
0000
0001
0000
0100
0010
0000
0010
1000
0000
,
0100
0010
0001
0001
0000
0001
0000
0001
,
0010
0100
20M0
0001
0010
0100
0010
0100
,
0010
0000
0001
0000
3200
0000
0001
0000
1000
0000
0010
0320
0001
0000
0032
0000
,
1000
2003
0100
0000
3020
0000
0001
0000
0230
0000
1000
0000
0001
0000
0010
0000
,
0001
1000
0302
1000
0010
0100
0023
1000
,
0001
0000
0000
0000
0000
0000
0000
0000
1000
0000
0000
0000
0000
0000
0000
0030
0110
0000
0000
0000
0000
0000
0000
0000
0001
0000
0000
0000
0000
0000
0000
0000
0002
0000
0000
0000
0000
0000
0000
0000
0100
0000
0000
0000
0000
0000
0000
0000
1000
0000
0000
0000
0000
0000
0000
0000
0010
0000
0000
0000
0000
0000
0000
0003
,
1002
0000
0000
0000
0000
0000
0000
0000
0100
0000
0000
0000
0000
0000
0000
0000
0023
0000
0000
0000
0000
0000
0000
0000
0001
0000
0000
0000
0000
0000
0000
0030
0120
0000
0000
0000
0000
0000
0000
0000
0001
0000
0000
0000
0032
0000
0000
0000
0010
0000
0000
0000
0000
0000
0000
0000
2003
0000
0000
0000
0000
0000
0000
3000
,
2100
0000
0000
0000
3200
0000
0000
0000
0010
0000
0000
0000
0000
0000
0000
0000
0320
0000
0000
0000
0000
0000
0000
0000
1000
0000
0000
0000
0000
0000
0000
0030
0012
0000
0000
0000
0000
0000
0000
0000
1000
0000
0000
0000
0000
0000
0000
0000
0100
0000
0000
0000
0000
0000
0000
0000
0010
0000
0000
0000
0000
0000
0000
0003
,
0102
0000
0000
0000
0000
0000
0000
0000
1000
0000
0000
0000
0000
0000
0000
0000
0203
0000
0000
0000
0000
0000
0000
0000
1000
0000
0000
0000
0000
0000
0000
0300
0201
0000
0000
0000
0000
0000
0000
0000
0010
0000
0000
0000
0000
0000
0000
0000
0302
0000
0000
0000
0000
0000
0000
0000
0010
0000
0000
0000
0000
0000
0000
0003
,
0102
0000
1000
0000
01M3
0000
0001
0000
0010
0000
0100
0010
0100
0010
0100
0000
,
0010
0000
0001
0000
1000
0000
0010
0000
0100
0000
0010
1000
0010
1000
0010
0000
,
0100
0000
0001
0000
1000
0000
0100
0000
0010
0000
0001
1000
0001
1000
0001
0000
,
0100
0000
0010
0000
0100
0000
0001
0000
1000
0000
0100
0010
0100
0010
0100
0000
,
0010
0000
0001
0000
0100
0000
0010
0000
0100
0000
0010
1000
0010
1000
0010
0000
,
1000
0000
0100
0000
0010
0000
0100
0000
0010
0000
0001
1000
0001
1000
0001
0000
,
1000
0010
0100
0100
0100
0100
0100
0100
,
0100
0000
0100
0000
0100
0010
0100
0010
0100
0010
0100
0010
0100
0010
0100
0010
,
0100
0010
0100
0010
0200
0000
0000
0000
0300
0000
0000
0000
0000
0000
0000
0000
;

//---------------dance-single - Profraine----------------
#NOTES:
     dance-single:
     Profraine:
     Medium:
     8:
     0.447,0.509,0.503,0.454,0.019: // measure 1
0000
0000
0000
0000
,  // measure 2
0000
0000
0000
0000
,  // measure 3
1000
0100
0010
0100
1000
0100
0000
0000
,  // measure 4
0020
0100
0031
0000
,  // measure 5
100M
0100
0010
0001
,  // measure 6
0020
0000
0M00
0030
0102
0000
0M00
0003
,  // measure 7
2010
0000
00M0
3000
0021
0000
000M
0030
,  // measure 8
0200
0000
00M0
0000
0020
0000
0000
0330
,  // measure 9
0010
0001
0100
0010
,  // measure 10
1010
0000
000M
0010
0000
10M0
0010
0000
,  // measure 11
1100
0000
M000
0100
0000
0M01
0100
0000
,  // measure 12
0110
0000
0M00
0010
0000
00M1
0010
0001
,  // measure 13
1000
0001
1000
0100
,  // measure 14
1200
0000
M310
0000
1002
0M00
M013
0000
,  // measure 15
0201
0000
031M
0000
2100
00M0
3M01
0000
,  // measure 16
0020
0000
0100
0000
2000
0000
0000
3030
,  // measure 17
1000
0001
0010
0100
,  // measure 18
1100
0000
10M0
0000
0000
0M01
0010
0001
,  // measure 19
2000
0000
0000
0000
0002
0000
0000
0000
0010
3003
0000
0000
0200
0000
0000
0000
,  // measure 20
0000
1000
0000
0020
,  // measure 21
0000
0001
0000
2000
,  // measure 22
0000
0001
0000
0002
,  // measure 23
3000
0000
2000
3333
0000
0000
0002
0000
,  // measure 24
0000
0010
0000
0200
,  // measure 25
0000
1000
0000
0020
,  // measure 26
0000
1000
0000
2000
,  // measure 27
0003
0000
0002
3330
0003
0000
1010
0000
,  // measure 28
000M
1100
0000
M000
0101
0000
0110
0000
,  // measure 29
00M0
1100
0000
0M00
0011
0000
1001
0000
,  // measure 30
M000
0101
0000
000M
1100
0000
0002
M000
,  // measure 31
0000
0023
0000
000M
0030
0000
0110
0000
,  // measure 32
00M0
1100
0000
M000
0011
0000
0110
0000
,  // measure 33
000M
1010
0000
M000
0110
0000
0101
0000
,  // measure 34
0M00
0011
0000
000M
1010
0000
0002
0000
,  // measure 35
2000
0003
310M
0000
0010
0001
000M
0001
,  // measure 36
0001
0100
0010
0000
1000
0100
0M00
0100
,  // measure 37
0100
1000
0010
0000
0100
0010
00M0
0010
,  // measure 38
0010
1000
0200
0000
0000
0320
0000
0M00
,  // measure 39
0030
0000
0011
0000
0010
0100
0M00
0100
,  // measure 40
0100
1000
0010
0000
0100
0001
000M
0001
,  // measure 41
0001
0010
0100
0000
1000
0100
0M00
0100
,  // measure 42
0100
0010
0001
0000
0000
0011
0000
0000
,  // measure 43
1010
0000
0000
0000
0202
0000
0000
0000
1000
0000
0000
0000
0010
0000
0000
0003
,  // measure 44
0020
0000
0000
0000
1000
0000
0000
0000
0001
0000
0000
1000
0001
0000
1001
0000
,  // measure 45
0000
0000
0000
0001
0000
0000
0000
0000
0000
0000
0000
0000
1001
0000
0000
0000
0330
0000
0000
0000
0000
0000
0000
0000
2200
0000
0000
0000
0000
0000
0000
0000
0000
0000
0000
0000
0010
0000
0000
0000
0000
0000
0000
0000
0000
0000
0000
0000
,  // measure 46
0001
0000
0000
0300
0002
0000
0000
0000
0010
0000
0000
3000
0200
0000
0000
0000
,  // measure 47
1000
0303
0220
0000
1001
0000
0001
0300
,  // measure 48
2001
0000
0000
0000
0001
0000
0030
0000
0210
0000
0000
0001
0000
0000
0011
0000
,  // measure 49
0011
0000
0000
0010
0000
0000
0000
0000
0000
0000
0000
0000
0011
0000
0000
0000
3300
0000
0000
0000
0000
0000
0000
0000
0202
0000
0000
0000
0000
0000
0000
0000
0000
0000
0000
0000
0010
0000
0000
0000
0000
0000
0000
0000
0000
0000
0000
0000
,  // measure 50
1010
0300
2000
0000
0010
0003
0200
0000
,  // measure 51
0011
3300
1000
0100
1000
0000
0000
0101
,  // measure 52
0000
1000
0010
0100
0010
0000
0000
0011
,  // measure 53
0000
0100
1000
0010
0100
0000
0000
1100
,  // measure 54
0000
0010
1000
0001
0010
0000
0000
1001
,  // measure 55
0000
0001
0100
1000
0100
0000
0000
0011
,  // measure 56
0000
0001
1000
0100
1000
0000
0000
0110
,  // measure 57
0000
0010
1000
0100
0001
0100
1000
0100
,  // measure 58
0001
0100
1000
0100
0001
0100
1000
0100
,  // measure 59
0001
0100
0020
0000
0030
0000
0000
0000
;
