#TITLE:Dreams Of An Absolution;
#SUBTITLE:;
#ARTIST:Lee Brotherton;
#TITLETRANSLIT:;
#SUBTITLETRANSLIT:;
#ARTISTTRANSLIT:;
#GENRE:;
#CREDIT:;
#MENUCOLOR:;
#NEWMETERSYSTEM:NO;
#BANNER:Dreams Of An Absolution.png;
#BACKGROUND:Dreams Of An Absolution-bg.png;
#LYRICSPATH:;
#CDTITLE:!profsonic.png;
#MUSIC:Dreams Of An Absolution.ogg;
#OFFSET:0.000;
#SAMPLESTART:82.838;
#SAMPLELENGTH:14.500;
#SELECTABLE:YES;
#LISTSORT:;
#BPMS:0.000=138.000;
#STOPS:;
#BGCHANGES:;
#ATTACKS:;

//---------------dance-single - K. Hirokazu----------------
#NOTES:
     dance-single:
     K. Hirokazu:
     Challenge:
     9:
     0.439,0.502,0.069,0.466,0.060: // measure 1
0000
0000
0000
0000
,  // measure 2
0000
0000
0000
0000
,  // measure 3
0000
0000
0000
0000
,  // measure 4
0000
0000
0000
0000
,  // measure 5
1000
0000
0000
0001
0000
0010
0100
1000
,  // measure 6
0010
0000
0000
1000
0000
0100
0010
0001
,  // measure 7
0100
0000
0000
0010
0000
1000
0100
0001
,  // measure 8
0200
0000
0000
2000
0000
0000
0000
3300
,  // measure 9
0011
0000
0100
0001
1000
0010
0000
0010
,  // measure 10
0000
0100
0001
0020
0000
0200
0000
0001
,  // measure 11
0330
0000
0100
1000
0010
0100
0000
0001
,  // measure 12
0000
0100
0010
0200
0000
0002
0000
0010
,  // measure 13
0303
0000
0001
0100
0001
0010
0000
0100
,  // measure 14
0000
1000
0010
2000
0000
0002
0000
0010
,  // measure 15
3003
0000
0001
0010
0100
1000
0000
0110
,  // measure 16
0000
0001
1000
0002
0003
0002
0003
0002
,  // measure 17
0003
0000
0000
0010
0100
1000
0000
1000
,  // measure 18
0001
0000
0002
0200
0000
1000
0303
0000
,  // measure 19
0000
0000
0100
0010
1000
0100
0000
0200
,  // measure 20
0020
0000
0000
2000
0000
0000
0001
0000
0000
0000
0001
0000
0000
0000
0001
0000
,  // measure 21
3330
0000
0010
0001
0100
0010
0000
0010
,  // measure 22
1000
0100
2000
0020
0000
0002
3030
0000
,  // measure 23
0003
0000
0010
1000
0001
0010
0000
0200
,  // measure 24
2000
0000
0000
0020
0000
0000
0002
0000
0000
0000
0000
0000
3333
0000
0000
0000
,  // measure 25
0011
0000
0001
1000
0010
1000
0000
0100
,  // measure 26
0000
0010
0001
0200
0000
0002
0000
0010
,  // measure 27
0303
0000
0001
1000
0010
0100
0000
0001
,  // measure 28
0010
0000
0010
0200
0000
2000
0000
0001
,  // measure 29
3300
0000
1000
0010
1000
0100
0000
0010
,  // measure 30
0000
0001
0100
0020
0000
2000
0000
0001
,  // measure 31
3030
0000
1000
0100
0010
0100
0000
1000
,  // measure 32
0002
0000
0000
0200
0000
0000
2000
0000
3303
0000
2000
0000
3000
0000
2000
0000
,  // measure 33
3000
0000
0000
0001
0010
0100
0000
0100
,  // measure 34
1000
0000
2000
0200
0000
0010
3300
0000
,  // measure 35
0000
0000
0100
0010
0001
1000
0000
0002
,  // measure 36
0200
0000
0000
2000
0000
0000
0010
0000
0000
0000
0010
0000
0000
0000
0010
0000
,  // measure 37
3303
0000
0100
0001
0010
0100
0000
0100
,  // measure 38
1000
0010
0200
0002
0000
1000
0303
0100
,  // measure 39
0001
0010
0100
1000
0100
0010
0001
0100
,  // measure 40
0010
0000
0010
1000
0000
0000
0001
0000
0010
0100
0000
0100
1000
0000
0010
0000
,  // measure 41
1000
0000
0100
0000
0010
0000
0001
0000
0000
0000
0100
0000
0000
0010
0000
0000
,  // measure 42
2000
0000
0000
0200
0000
0000
0001
0000
3300
0000
0000
0000
0000
0000
1000
0000
,  // measure 43
0010
0100
0001
0010
0000
0100
0000
1000
,  // measure 44
0002
0000
0000
0200
0000
0000
0010
0000
0303
0000
0000
0000
0000
0000
0001
0000
,  // measure 45
1000
0100
0010
0001
0000
1000
0000
0010
,  // measure 46
0200
0000
0000
0002
0000
0000
0010
0000
0303
0000
0001
0000
1000
0000
0100
0000
,  // measure 47
1000
0000
0000
0000
0010
0100
0001
0010
,  // measure 48
0200
0000
2000
0300
3000
0001
0100
0010
,  // measure 49
1000
0001
0100
0010
0000
1000
0000
0001
,  // measure 50
0010
0000
0100
0000
0000
0000
1000
0000
0010
0000
0000
1000
0000
0000
0100
0000
,  // measure 51
0000
0001
0100
1000
0000
0010
0100
0001
,  // measure 52
0100
0000
0000
1010
0000
0100
0010
0001
,  // measure 53
0000
0000
0000
0000
1000
0000
0000
0000
0200
0000
0000
0000
0000
0000
2000
0300
,  // measure 54
0000
0000
0020
3000
0000
0000
0200
0030
0000
0000
0000
0000
0000
0000
0300
0000
,  // measure 55
0001
1000
0000
0100
0000
0010
0000
0100
,  // measure 56
1000
0000
0000
0001
0000
0100
0000
0010
,  // measure 57
1000
0100
0001
0100
0000
0000
1000
0000
,  // measure 58
0010
0000
0000
1001
0000
0000
0000
0001
,  // measure 59
0100
0010
0100
0001
0000
1000
0000
0100
,  // measure 60
0010
0000
0000
0011
0000
0000
0000
1000
,  // measure 61
0010
0000
0000
0100
0000
0000
0001
0000
0010
0000
0000
0100
0000
0000
0010
0000
,  // measure 62
0001
0000
0000
1001
0000
0010
0100
0001
,  // measure 63
0000
1000
0100
0010
0000
0000
0000
0000
,  // measure 64
0100
0000
0000
1100
0000
0000
0000
0000
,  // measure 65
0002
0000
0000
0000
0000
0003
0000
0000
;
