#TITLE:D;
#SUBTITLE:;
#ARTIST:Eagle;
#TITLETRANSLIT:;
#SUBTITLETRANSLIT:;
#ARTISTTRANSLIT:;
#CREDIT:;
#BANNER:D.png;
#BACKGROUND:D-bg.png;
#LYRICSPATH:;
#CDTITLE:!profsirius.png;
#MUSIC:D.ogg;
#OFFSET:-0.019;
#SAMPLESTART:16.000;
#SAMPLELENGTH:16.000;
#SELECTABLE:YES;
#BPMS:0.000=120.000,28.000=240.000,32.000=120.000,34.500=240.000,36.000=120.000,36.500=240.000,37.000=120.000,38.250=240.000,39.000=120.000,44.000=240.000,45.750=120.000,68.000=130.000,72.000=140.000,76.000=150.000,80.000=160.000,82.000=170.000,84.000=180.000,86.000=190.000,88.000=200.000,89.000=210.000,90.000=220.000,91.000=240.000,92.000=50.000,96.000=87.500,98.000=175.000,190.000=350.000,194.000=175.000,210.000=170.000,212.000=160.000,214.000=150.000,216.000=140.000,218.000=130.000,222.000=30.000,224.000=120.000,225.500=240.000,230.000=120.000,242.000=240.000,245.500=120.000;
#STOPS:28.000=0.188
,28.750=0.188
,29.500=0.063
,29.750=0.063
,30.000=0.063
,30.250=0.125
,30.750=0.063
,31.000=0.063
,31.250=0.063
,31.500=0.063
,31.750=0.063
,34.500=0.063
,34.750=0.063
,35.000=0.063
,35.250=0.063
,35.500=0.063
,35.750=0.063
,36.500=0.063
,36.750=0.063
,38.250=0.063
,38.500=0.063
,38.750=0.063
,44.000=0.063
,44.250=0.063
,44.500=0.063
,44.750=0.063
,45.000=0.063
,45.250=0.063
,45.500=0.063
,190.000=0.021
,190.125=0.021
,190.250=0.021
,190.375=0.021
,190.500=0.021
,190.625=0.021
,190.750=0.021
,190.875=0.021
,191.000=0.086
,191.500=0.043
,191.750=0.043
,192.000=0.043
,192.250=0.043
,192.500=0.171
,193.938=0.086
,225.500=0.125
,226.000=0.188
,226.750=0.188
,227.500=0.063
,227.750=0.063
,228.000=0.063
,228.250=0.125
,228.750=0.063
,229.000=0.063
,229.250=0.063
,229.500=0.063
,229.750=0.063
,242.000=0.031
,242.125=0.031
,242.250=0.063
,242.500=0.063
,242.750=0.063
,243.000=0.125
,243.500=0.063
,243.750=0.031
,243.875=0.031
,244.000=0.063
,244.250=0.031
,244.375=0.031
,244.500=0.063
,244.750=0.031
,244.875=0.031
,245.000=0.063
,245.250=0.031
,245.375=0.031
;
#BGCHANGES:;

//---------------dance-single - Profraine----------------
#NOTES:
     dance-single:
     Profraine:
     Challenge:
     12:
     0.774,0.864,0.076,0.345,1.000: // measure 1
0000
0000
0000
0000
,  // measure 2
0000
0000
0000
0000
,  // measure 3
0000
0000
0000
0000
,  // measure 4
0000
0000
0000
0000
,  // measure 5
0001
0010
0100
0010
0001
1000
0000
1000
0010
0100
0010
1000
0100
0010
0001
1000
,  // measure 6
0001
1000
0100
0010
0001
0100
0000
0100
0010
1000
0001
0100
1000
0100
0001
0010
,  // measure 7
0100
0000
1000
0000
0100
0000
0001
0000
0100
0000
0010
0000
0000
0000
0010
0000
0001
0000
1000
0000
0001
0000
0100
0000
0010
0000
0100
0000
0010
0000
0100
0010
,  // measure 8
0100
0000
0000
0001
0000
0000
0010
0100
1000
0010
0000
0001
0020
0000
0000
0030
,  // measure 9
2000
0000
0000
3100
0010
0000
0000
0011
0000
0000
0010
0100
0010
0001
0010
0100
,  // measure 10
1000
0000
0001
1000
0001
0000
0010
0100
0000
1000
0100
0010
0200
0000
0000
0000
,  // measure 11
1300
0000
0002
0000
0000
0003
0002
0000
0000
0000
0013
0000
0100
0000
2000
0000
,  // measure 12
3001
0000
1000
0000
0001
0000
1000
0000
0001
0000
1000
0000
0001
0000
2000
0000
0000
0000
0000
0000
0000
0000
0000
0000
3001
0000
1000
0000
0001
0010
0100
1000
,  // measure 13
0001
0000
0100
0010
0100
0001
0010
0100
0000
0100
1000
0010
0100
0001
0020
0000
,  // measure 14
0130
1000
0100
1000
0001
0000
0001
0100
0001
0100
0001
1000
0020
0000
0000
0000
,  // measure 15
0130
0000
0001
0010
0100
0010
0001
1000
0000
0001
1000
0000
2200
0000
0000
0300
,  // measure 16
3100
0000
0001
0100
0000
1000
0100
0010
0001
0100
0000
0100
0020
0000
0000
0000
,  // measure 17
1030
0000
0100
0000
0001
0100
0000
0100
0010
0001
0100
0010
2000
0000
0000
0000
,  // measure 18
310M
0000
0010
0000
0001
0100
0000
0010
1000
0100
0010
0001
0020
0000
0000
0000
,  // measure 19
013M
0000
0010
0000
0100
1000
0000
1000
0010
0100
0001
0010
0200
0000
0000
0000
,  // measure 20
130M
0000
0010
0100
0000
0000
0001
0000
0010
0100
0000
1000
0100
0010
0001
0100
,  // measure 21
M010
0000
0100
0000
0001
0010
0000
0000
010M
1000
0100
1000
0200
0000
0000
0000
,  // measure 22
M310
0001
0100
0010
100M
0001
2000
0000
,  // measure 23
310M
0010
010M
1000
010M
0010
0M01
1000
,  // measure 24
0M20
0M00
0M00
0M00
,  // measure 25
0M00
0000
0030
1000
0100
0010
0001
0010
M100
0000
0010
0000
0001
0000
0100
0000
,  // measure 26
0000
0010
0000
0000
1000
0100
0000
0100
0010
0000
0001
0010
0000
0010
0100
0000
,  // measure 27
0100
1000
0000
0001
0000
1000
0000
0010
0100
0000
0001
0000
0010
0000
0100
1000
,  // measure 28
0000
0010
0000
0100
0001
0000
0010
0000
0100
0000
1000
0010
0000
0010
0100
0000
,  // measure 29
0001
0010
0000
0100
1000
0000
0010
0000
0100
0000
0010
0000
1000
0000
0001
0000
,  // measure 30
0000
0010
0000
0000
0100
1000
0000
1000
0010
0000
0100
0001
0000
0001
0010
0000
,  // measure 31
0100
1000
0000
0100
0000
0010
0000
0100
1000
0000
0001
0000
0100
0000
0010
0100
,  // measure 32
0000
0001
0000
0010
0100
0000
1000
0000
0010
0000
0100
0001
0000
0001
1000
0000
,  // measure 33
0100
0010
0000
0001
0010
0000
0100
0000
1000
0000
0001
0000
0010
0000
0100
1000
,  // measure 34
0000
1000
0010
0000
0010
0100
0000
0100
0001
0000
0010
0100
0000
0000
1000
0000
,  // measure 35
0001
0100
0000
0000
0100
0000
0010
0000
1000
0000
0100
0000
0010
0000
0001
0010
,  // measure 36
0000
0100
0000
1000
0010
0000
0100
0000
0001
0000
0000
0100
0000
0010
1000
0000
,  // measure 37
0100
0010
0000
0000
0001
0000
1000
0000
0010
0000
1000
0000
0100
0000
0010
0001
,  // measure 38
0000
0010
0000
0000
0100
1000
0000
1000
0010
0000
0100
0000
0000
0001
1000
0000
,  // measure 39
0010
1000
0000
0100
0000
0010
0001
0000
0100
0000
0010
0000
0100
0000
0001
0010
,  // measure 40
0000
0100
0000
1000
0001
0000
0100
0000
0020
0000
0000
0000
2030
0000
0000
0000
,  // measure 41
3200
0000
0000
0300
0011
0000
0000
0000
0001
0000
1000
0000
0010
0000
0100
0001
,  // measure 42
0000
0010
0000
0100
1000
0001
0000
0001
0100
0000
0010
1000
0000
0000
0001
0000
,  // measure 43
0010
0100
0000
0010
0000
0001
0100
0000
0010
0000
1000
0000
0001
0000
0100
0010
,  // measure 44
0000
1000
0000
0100
0010
0000
0001
0000
0100
0000
0001
1000
0000
0100
0010
0000
,  // measure 45
0001
0100
0000
0010
0000
1000
0100
0000
0010
0000
0100
0000
1000
0000
0010
0100
,  // measure 46
0000
0001
0000
0000
0001
0010
0000
0010
0100
0000
1000
0000
0000
0001
0100
0000
,  // measure 47
0010
0000
0000
1000
0001
0000
0010
0000
0100
0000
1000
0000
0001
0000
0100
0010
,  // measure 48
0000
0100
0000
0001
0010
0000
0100
0000
2000
0000
3002
0000
0103
0000
0010
1000
,  // measure 49
0010
1000
0010
0000
0000
0000
0200
0000
0301
0010
0100
1000
0100
0010
0001
0010
,  // measure 50
0100
1000
0100
0000
0000
0000
1000
0010
0100
0001
0100
0010
1000
0010
0100
0001
,  // measure 51
0100
0010
1000
0000
0000
0000
0000
0000
1000
0000
1000
0000
0100
0000
0010
0000
,  // measure 52
0010
0100
1000
1000
0002
0103
0100
0020
,  // measure 53
1030
0000
1000
0000
0200
0000
0310
0000
M010
0001
0010
0100
1000
0100
0010
0001
,  // measure 54
M010
0100
1000
0000
0000
0000
1000
0010
M100
0001
0100
0010
1000
0010
0100
0001
,  // measure 55
M100
0010
1000
0000
0000
0000
0000
0000
100M
0000
1000
0000
0010
0000
0100
0000
,  // measure 56
0100
0001
0010
0010
220M
0000
000M
0000
,  // measure 57
000M
0000
0300
0000
0000
0000
3000
0000
0101
0000
0000
1000
0000
0000
0100
0010
,  // measure 58
0001
0100
0000
0100
0010
1000
0010
1000
001M
0000
0100
0000
0001
0000
0010
0100
,  // measure 59
0000
0100
0000
0100
0010
0100
2000
0M00
3001
0000
1000
0100
0010
0001
0010
0001
,  // measure 60
0000
0001
0000
0001
1000
0001
0020
000M
0130
0000
1000
0000
0001
0000
1000
0010
,  // measure 61
0000
0000
0010
0000
0000
0000
0010
0000
0100
0000
0010
0000
2000
0000
00M0
0000
3100
0010
0100
0000
0010
0000
0100
0000
0010
0000
0000
0000
0001
0000
2000
0000
,  // measure 62
3000
2000
3000
2000
3010
2000
3200
M000
0310
0000
0001
0000
0100
0000
0010
1000
,  // measure 63
0000
M010
0000
1000
0001
0010
0200
0000
0300
0000
1000
0100
0010
0000
0001
0010
,  // measure 64
0000
0100
0000
0M10
0001
0100
0020
0000
1030
0000
0001
0000
0100
0000
0010
1000
,  // measure 65
0000
M001
0000
1000
0010
0100
0001
0000
1000
0000
0010
0110
0000
0100
0101
0000
,  // measure 66
0001
1001
0000
1000
0100
0010
0001
0000
2020
0000
0000
0000
0000
0000
0000
0000
,  // measure 67
3030
M0M0
0000
0000
;
