#TITLE:Crisis City;
#SUBTITLE:~The Flame ~ Skyscraper ~ Whirlwind ~ Tornado~;
#ARTIST:Tomoya Ohtani;
#TITLETRANSLIT:;
#SUBTITLETRANSLIT:;
#ARTISTTRANSLIT:;
#GENRE:EPIC PROGRESSIVE;
#CREDIT:;
#MENUCOLOR:;
#NEWMETERSYSTEM:NO;
#BANNER:Crisis City.png;
#BACKGROUND:Crisis City-bg.png;
#LYRICSPATH:;
#CDTITLE:!profsonic.png;
#MUSIC:Crisis City.ogg;
#OFFSET:0.000;
#SAMPLESTART:14.798;
#SAMPLELENGTH:11.940;
#SELECTABLE:YES;
#LISTSORT:;
#BPMS:0.000=162.000;
#STOPS:;
#BGCHANGES:;
#ATTACKS:;

//---------------dance-single - K. Hirokazu----------------
#NOTES:
     dance-single:
     K. Hirokazu:
     Challenge:
     12:
     1.000,1.000,0.679,0.801,0.836: // measure 1
0000
0000
0000
0000
,  // measure 2
0000
0000
0000
2000
,  // measure 3
3100
0010
0001
0100
0010
0000
0100
0001
0000
0001
0010
0000
0110
0000
0100
0000
,  // measure 4
1000
0010
1000
0100
0010
0000
0001
0100
0000
0100
0010
0000
1010
0000
1000
0000
,  // measure 5
0100
0010
0001
0010
0100
0000
1000
0010
0000
0100
0001
0000
0011
0000
0010
0000
,  // measure 6
0100
1000
0100
0010
0001
0000
1000
0100
0000
0010
0001
0000
0101
0000
0100
0000
,  // measure 7
0110
0000
0010
1000
0100
0000
0010
0001
0010
0100
1000
0010
0100
0000
0001
0000
,  // measure 8
1001
0000
1000
0010
0100
0010
1000
0100
0010
0000
0011
0000
0001
1000
0100
0000
,  // measure 9
0110
0000
0010
0001
1000
0010
1000
0100
0010
0000
0001
0000
0101
0000
0100
0000
,  // measure 10
0010
1000
0100
0010
0001
0100
0010
1000
0001
0000
0101
0000
0100
0010
1000
0000
,  // measure 11
1100
0000
0000
0M00
0000
0000
0110
0000
0000
0M00
0000
0000
0101
0000
0000
0M00
,  // measure 12
0000
0000
0110
0000
0100
1000
0010
0000
0110
0000
0100
0000
0101
0000
0001
0000
,  // measure 13
0011
0000
0000
00M0
0000
0000
0110
0000
0000
00M0
0000
0000
1010
0000
0000
00M0
,  // measure 14
0000
0000
0110
0000
0010
0001
1000
0000
1010
0000
0010
0000
0110
0000
0100
0000
,  // measure 15
0101
0000
0000
000M
0000
0000
1001
0000
0000
000M
0000
0000
0011
0000
0000
000M
,  // measure 16
0000
0000
1001
0000
0001
0010
0100
0000
0110
0000
0010
0000
0011
0000
0001
0000
,  // measure 17
1001
0000
0000
M000
0000
0000
1010
0000
0000
M000
0000
0000
1100
0000
0000
M000
,  // measure 18
0000
0000
1010
0000
1000
0100
0010
0000
0010
0001
0100
0010
0100
0001
0010
0100
,  // measure 19
1000
0000
0010
0100
0010
0000
0100
0001
0010
0100
0010
0100
1000
0000
0001
1000
,  // measure 20
0001
0000
0101
0000
0100
0010
1000
0000
1100
0000
0100
0000
0110
0000
0010
0000
,  // measure 21
0011
0000
0001
0100
0001
0000
0010
0100
1000
0001
0100
0010
1000
0000
0100
0010
,  // measure 22
0100
0000
0110
0000
0010
0001
1000
0000
1001
0000
0001
0000
0101
0000
0100
0000
,  // measure 23
0110
0000
0010
1000
0010
0000
1000
0100
0010
0001
0010
0100
1000
0000
0001
0100
,  // measure 24
0001
0000
1001
0000
1000
0100
0010
0000
0011
0000
0001
0000
1001
0000
1000
0000
,  // measure 25
1100
0000
0100
0010
0100
0000
0010
0001
1000
0010
1000
0100
0010
0000
0001
0000
,  // measure 26
0100
0010
1000
0000
0001
0100
0010
1000
0100
1000
0010
0100
0001
0010
0100
1000
,  // measure 27
0010
0100
0010
0100
0002
0000
0000
0000
0013
0100
0010
0100
2000
0000
0000
0000
,  // measure 28
3001
0100
0001
0100
0020
0000
0000
0000
1030
0001
1000
0001
0200
0000
0000
0000
,  // measure 29
0310
1000
0001
0010
0200
2300
0000
0000
3010
0100
0001
0100
0020
0230
0000
0000
,  // measure 30
0301
0010
0100
1000
0200
0320
0000
0000
0031
1000
0010
0100
0001
0020
0000
0000
,  // measure 31
0130
1000
0001
0100
0020
0000
0000
0000
1030
0100
1000
0001
0020
0000
0000
0000
,  // measure 32
0130
1000
0100
0010
0002
0000
0000
0000
0103
0010
0100
0001
2000
0000
0000
0000
,  // measure 33
3100
0010
0001
0010
0002
0000
0000
0000
0103
0010
1000
0100
2000
0000
0000
0000
,  // measure 34
3010
0100
0001
0100
0010
0100
0010
1000
0010
1000
0100
0010
0001
0100
0010
1000
,  // measure 35
1001
0001
0001
0101
0100
0100
0110
0010
,  // measure 36
0010
1010
1000
1000
1100
0100
1100
1000
,  // measure 37
1010
0010
0010
0110
0100
0100
0101
0001
,  // measure 38
0001
0011
0010
0010
0110
0100
0120
0000
,  // measure 39
0031
0010
01M0
0M01
0010
01M0
0M01
0010
,  // measure 40
01M0
0M01
0010
01M0
0M01
0010
02M0
0000
,  // measure 41
1300
0100
0M10
10M0
0100
0M10
10M0
0100
,  // measure 42
0M10
10M0
0100
0M10
10M0
0100
0M20
0000
,  // measure 43
0031
0000
0000
0010
0000
0000
0100
0000
,  // measure 44
0000
1000
0000
0010
0100
0001
0010
0100
,  // measure 45
1000
0000
0000
0010
0000
0000
0100
0000
,  // measure 46
0000
0001
0000
0010
0100
1000
0010
0100
,  // measure 47
0101
0001
0010
0110
0100
1000
1010
0010
,  // measure 48
0100
0101
0001
0011
0010
0110
0100
2000
,  // measure 49
3020
0000
0000
0000
,  // measure 50
0130
0001
0010
0100
1000
0010
0100
0010
1000
0100
0020
0000
0000
0002
0000
0030
,  // measure 51
2003
0000
3000
0000
0010
0100
0010
0000
1000
0100
0010
0000
0010
0001
0100
0000
,  // measure 52
0002
0000
0003
0000
1000
0100
0010
0000
0001
0100
0010
0000
0010
0100
0001
0000
,  // measure 53
2000
0000
3000
0000
0001
0010
0100
0000
0100
1000
0010
0000
0100
0001
1000
0000
,  // measure 54
0020
0000
0030
0000
0100
0001
0010
0000
0010
0100
1000
0000
0001
0100
0010
0000
,  // measure 55
2000
0000
3000
0000
0002
0000
0000
0000
0013
0100
1000
0000
0010
1000
0001
0000
,  // measure 56
0200
0000
0300
0000
0020
0000
0000
0000
1030
0100
0010
0000
0010
0001
0010
0000
,  // measure 57
0020
0000
0001
0000
0000
0000
0100
0032
,  // measure 58
0000
0000
0000
0000
0000
0000
0003
0000
2000
0000
0000
0000
3020
2030
3020
2030
,  // measure 59
3020
2030
3020
2030
3020
2030
3020
2030
3020
2030
3020
2030
3020
2030
3020
2030
,  // measure 60
3020
2030
3020
0230
0000
0000
0000
0000
0302
0000
0000
0000
0000
0000
0000
0000
,  // measure 61
0000
0023
0000
0000
,  // measure 62
0001
0000
0000
0000
0000
0000
0000
0000
0000
0000
0000
0000
0000
0230
0000
0000
,  // measure 63
2300
3002
2003
3002
0203
0000
0320
2030
3200
0320
0032
2003
,  // measure 64
3004
0040
0000
0000
0000
0000
0000
0000
0000
0000
0000
0000
0000
0000
0000
0000
0000
0000
0000
0000
0000
0003
0032
0000
,  // measure 65
0000
0000
0000
0000
0000
0000
0203
0000
0320
0000
2030
0000
,  // measure 66
3200
0000
0000
0320
0032
2003
3020
0000
0230
0000
0302
0000
0203
0000
0000
0320
0000
0000
2030
0000
0000
3200
0000
0000
,  // measure 67
0310
0001
1001
1000
0010
0100
0101
0001
,  // measure 68
0010
0100
1100
1000
0001
0010
0110
0100
,  // measure 69
1100
0000
1000
0001
0100
0000
0010
0000
0110
0000
0100
0001
0010
0000
0100
0000
,  // measure 70
1100
0000
1000
0001
0100
0000
0010
0000
1010
0000
1000
0100
0010
0000
0001
0000
,  // measure 71
1001
0000
1000
0100
0010
0001
0010
0000
0110
0000
0100
1000
0010
0100
0001
0000
,  // measure 72
1001
0000
1000
0010
0100
0001
0010
0000
0110
0000
0100
1000
0100
0010
0001
0000
,  // measure 73
0101
0000
0100
0010
1000
0010
0100
0000
0110
0000
0010
1000
0100
1000
0100
0000
,  // measure 74
0110
0000
0010
0001
0100
0001
1000
0000
1100
0000
0100
0010
0001
0100
0010
1000
,  // measure 75
0002
0000
0000
0000
,  // measure 76
0000
0000
0000
0000
,  // measure 77
0000
0000
0000
0000
,  // measure 78
0003
0000
0000
0000
;
