#TITLE:Chain of pain;
#SUBTITLE:;
#ARTIST:kors k vs Nekomata Master+;
#TITLETRANSLIT:;
#SUBTITLETRANSLIT:;
#ARTISTTRANSLIT:;
#CREDIT:;
#BANNER:Chain of pain.png;
#BACKGROUND:Chain of pain-bg.png;
#LYRICSPATH:;
#CDTITLE:!profgold.png;
#MUSIC:Chain of pain.ogg;
#OFFSET:0.000;
#SAMPLESTART:40.700;
#SAMPLELENGTH:15.600;
#SELECTABLE:YES;
#BPMS:0.000=153.000,60.000=306.000,64.000=153.000,92.000=306.000,96.000=153.000,190.000=306.000,194.000=153.000,254.000=306.000,258.000=153.000;
#STOPS:60.000=0.098
,60.500=0.098
,61.000=0.098
,61.500=0.098
,62.000=0.098
,62.500=0.196
,63.500=0.098
,92.000=0.392
,94.000=0.294
,95.500=0.098
,156.000=0.588
,157.500=0.049
,157.625=0.049
,157.750=0.049
,157.875=0.049
,190.000=0.196
,191.000=0.196
,192.000=0.098
,192.500=0.294
,254.000=0.098
,254.500=0.098
,255.000=0.098
,255.500=0.098
,256.000=0.098
,256.500=0.196
,257.500=0.098
;
#BGCHANGES:;

//---------------dance-single - Profraine----------------
#NOTES:
     dance-single:
     Profraine:
     Challenge:
     8:
     0.311,0.410,0.125,0.048,0.086: // measure 1
0000
0000
0000
0000
,  // measure 2
0000
0000
0000
0000
,  // measure 3
0000
0000
0000
0000
,  // measure 4
0000
0000
0000
0000
,  // measure 5
1000
0000
0000
0000
0000
0000
0000
0010
,  // measure 6
0000
0000
0000
0000
0000
0000
0100
0001
,  // measure 7
0000
0000
0000
0000
0000
0000
0010
0100
,  // measure 8
0000
1000
0010
0100
0000
0001
0010
0000
,  // measure 9
0000
0000
0100
0000
0000
1000
0000
0010
,  // measure 10
0100
0000
0000
0000
0010
0000
0000
0100
,  // measure 11
0001
0010
0100
0000
1000
0000
0010
0000
,  // measure 12
0000
0100
0001
1000
0000
0000
0000
0000
,  // measure 13
0000
0100
0010
0001
0000
1000
0000
0010
,  // measure 14
0200
0000
0000
0000
,  // measure 15
0000
0000
0000
0000
,  // measure 16
0300
0000
0000
0000
,  // measure 17
0001
0000
0000
0000
0000
0000
1000
0000
0000
0000
0000
0000
0000
0000
0000
0000
0000
0000
1000
0000
0000
0000
0000
0000
0100
0000
0000
0000
0000
0000
0010
0000
0000
0000
0000
0000
0000
0000
0000
0000
0000
0000
0000
0000
0000
0000
0000
0100
,  // measure 18
0001
0000
0000
0000
0000
0000
0000
0000
0000
0000
0000
0001
0100
0000
0000
0000
0000
0000
0000
0000
0000
0000
0000
0000
0000
0000
0000
0000
0000
0000
0001
0000
0000
0000
0000
0000
0000
0000
0000
0000
0000
0000
1000
0000
0000
0000
0000
0000
,  // measure 19
0100
0010
0000
0100
0010
0001
0000
1000
,  // measure 20
0001
0000
0100
0000
0001
0000
0000
1000
,  // measure 21
0100
0000
0000
0010
0100
1000
0000
0001
,  // measure 22
0100
0000
0000
0000
0010
1000
0000
0100
,  // measure 23
0010
0000
0000
0001
0000
0000
0100
0000
,  // measure 24
0010
0000
0000
0000
1100
0000
0000
0100
,  // measure 25
0010
0000
0101
0000
,  // measure 26
0001
0000
0000
1000
0100
0000
0000
0010
,  // measure 27
0001
0000
1001
0000
,  // measure 28
1000
0100
0000
0010
0000
0000
0001
0000
,  // measure 29
0100
0000
0000
0010
0100
0000
0000
0000
,  // measure 30
0001
0000
0000
0000
1001
0000
0000
1000
,  // measure 31
0100
0000
0000
0000
0000
0000
0000
0000
0000
0000
0000
0000
0000
0000
0000
0000
0000
0000
0010
0000
0000
0000
0000
0000
0100
0000
0000
0000
0000
0000
0000
0000
0000
0000
0000
0000
0000
0000
0000
0000
0000
0000
0000
0000
0000
0000
0000
1000
,  // measure 32
0010
0000
0000
0000
0000
0000
0000
0000
0000
0000
0000
0010
1000
0000
0000
0000
0000
0000
0000
0000
0000
0000
0000
0000
0000
0000
0000
0000
0000
0000
0000
0000
0000
0000
0000
0000
1000
0000
0000
0000
0000
0000
0000
0000
0000
0000
0000
0000
,  // measure 33
0100
0000
0000
0010
0001
0000
0000
0000
,  // measure 34
0100
0000
0010
1000
0001
0000
0000
0000
,  // measure 35
1010
0000
0000
1000
0001
0000
0000
0010
,  // measure 36
0100
0000
1000
0010
,  // measure 37
0100
0000
0000
0001
1000
0000
0000
0000
,  // measure 38
0100
0000
0010
0001
0100
0000
0000
0001
,  // measure 39
1000
0000
0110
0000
,  // measure 40
2002
0000
0000
3003
1000
0000
0000
0000
,  // measure 41
0000
0000
0000
0010
0000
0000
0000
0000
,  // measure 42
0000
0000
0100
0001
0000
0000
0000
0000
,  // measure 43
0000
0000
0010
0100
0000
1000
0001
0100
,  // measure 44
0000
0010
0100
0000
0001
0000
0000
0000
,  // measure 45
0000
0000
0000
0010
0000
0000
0000
0000
,  // measure 46
0000
0000
0100
1000
0000
0000
0100
0000
,  // measure 47
0000
0010
0000
0001
,  // measure 48
0100
0001
1000
0000
,  // measure 49
0000
0000
0000
0000
0000
0000
0000
0000
0001
0000
0000
0000
0100
0000
0000
0010
,  // measure 50
0000
0000
0000
0000
1000
0000
0000
0100
0000
0000
0010
0000
0001
0000
0000
0000
,  // measure 51
0000
0000
0100
0000
0010
0000
0000
1000
0000
0000
0100
0000
0010
0000
0000
0000
,  // measure 52
0001
0000
0000
0000
1000
0000
0000
0100
0000
0010
0000
0000
0000
0000
0001
0000
,  // measure 53
0000
0000
0100
0000
0010
0000
0000
1000
0000
0000
0000
0000
0100
0000
0000
0010
,  // measure 54
0000
0000
0000
0000
0100
0000
0000
1000
0000
0000
0000
0000
0001
0000
0100
0000
,  // measure 55
0001
0000
0000
0000
0010
0000
0000
0000
0000
0000
0100
0000
1000
0000
0000
0010
,  // measure 56
0000
0000
0100
0001
1000
0000
0100
0010
,  // measure 57
0001
0000
0010
0100
1000
0000
1001
0000
,  // measure 58
0000
1000
0010
0100
0000
0001
1000
0000
,  // measure 59
0000
0000
0001
0000
1000
0000
0000
0100
0000
0000
0010
0000
0100
0000
0000
1000
,  // measure 60
0000
0000
0001
0000
0100
0000
0000
0010
0000
0100
0000
0000
0001
0000
0010
0000
,  // measure 61
0100
0000
0000
0000
1000
0000
0000
0001
0000
0000
0000
0000
0100
0000
0010
0000
,  // measure 62
0100
0000
1010
0000
,  // measure 63
1000
0000
1001
0000
,  // measure 64
0101
0000
0110
0000
,  // measure 65
0000
0000
2002
0000
,  // measure 66
0000
0000
0000
0000
0000
3003
0000
0000
;
