#TITLE:Aurora;
#SUBTITLE:(COLD DISTRICT TYPE L.E.D.-G MIX);
#ARTIST:Ryu*;
#TITLETRANSLIT:;
#SUBTITLETRANSLIT:;
#ARTISTTRANSLIT:;
#CREDIT:;
#BANNER:Aurora (COLD DISTRICT TYPE L.E.D.-G MIX).png;
#BACKGROUND:Aurora (COLD DISTRICT TYPE L.E.D.-G MIX)-bg.png;
#LYRICSPATH:;
#CDTITLE:!profsky.png;
#MUSIC:Aurora (COLD DISTRICT TYPE L.E.D.-G MIX).ogg;
#OFFSET:-0.080;
#SAMPLESTART:27.720;
#SAMPLELENGTH:22.320;
#SELECTABLE:YES;
#DISPLAYBPM:165.000;
#BPMS:0.000=82.500,16.000=165.000,48.000=82.500,54.000=165.000,69.667=110.000,70.333=330.000,71.000=165.000,114.000=330.002,114.667=165.001,118.000=41.250,120.000=82.500,144.000=165.001,156.667=330.002,157.000=165.001,157.667=330.002,158.000=165.001,159.000=330.002,160.000=165.001,160.000=82.500,162.000=165.001,169.000=330.001,169.667=165.001,174.667=330.001,178.000=165.001,185.000=330.001,186.000=165.001,196.667=82.501,197.000=330.002,197.667=165.001,200.667=82.501,201.000=330.002,201.667=165.001,203.667=330.002,204.000=165.001,205.667=330.002,206.000=165.001,212.667=82.501,213.000=330.002,213.667=165.001,216.667=82.501,217.000=330.002,217.667=165.001,221.000=330.002,221.667=165.001;
#STOPS:114.000=0.030
,114.167=0.030
,114.333=0.030
,114.500=0.030
,156.667=0.061
,157.667=0.061
,159.000=0.030
,159.167=0.030
,159.333=0.030
,159.500=0.030
,159.667=0.030
,159.833=0.030
,169.000=0.121
,174.667=0.182
,175.667=0.182
,176.667=0.121
,177.333=0.121
,185.000=0.121
,185.667=0.061
,203.667=0.061
,205.667=0.061
,221.000=0.030
,221.167=0.030
,221.333=0.030
,221.500=0.030
;
#BGCHANGES:;

//---------------dance-single - Profraine----------------
#NOTES:
     dance-single:
     Profraine:
     Challenge:
     11:
     0.687,1.000,0.371,0.209,1.000: // measure 1
0000
0000
0000
0000
,  // measure 2
0000
0000
0000
0000
,  // measure 3
1000
0000
0000
0000
0000
0010
0100
0001
,  // measure 4
0010
0100
1000
0010
,  // measure 5
0100
0100
0010
0010
,  // measure 6
1000
0000
0000
1000
0000
0000
0100
0000
0000
0001
0000
0100
,  // measure 7
0010
0010
0001
0001
,  // measure 8
0100
0000
1000
0100
0000
0000
0001
0000
0010
0100
0000
1000
,  // measure 9
0100
0000
0000
0100
0000
0000
0010
0000
0000
0010
0000
0001
,  // measure 10
0010
0000
0000
0001
0000
0000
0100
0000
0000
0010
0000
1000
,  // measure 11
0010
0000
0001
0100
0000
0020
0130
0000
0010
1000
0000
0200
,  // measure 12
0310
0000
0001
0200
0000
0000
0310
0000
1000
0000
0100
0000
,  // measure 13
0011
0000
0000
0000
0000
M000
0000
0M00
0000
00M0
0000
0000
0000
000M
0000
00M0
0000
0M00
0000
0000
0000
0000
0000
0000
,  // measure 14
1001
0000
0001
0100
0010
1000
1100
0000
0100
0010
0000
0010
0001
0000
0000
0000
0000
0000
1000
0000
0000
0000
0000
0000
,  // measure 15
1001
0000
0000
0001
0100
0001
0010
0000
0000
1100
0000
0100
,  // measure 16
0010
0000
0001
0100
0000
0100
0001
0000
0000
1100
0000
0000
,  // measure 17
0110
0000
0010
0001
1000
0010
0100
0000
0010
1000
0000
0100
,  // measure 18
0010
0000
0010
0001
1000
0001
0000
0000
0000
1001
0000
0000
,  // measure 19
1100
0000
1000
0010
0100
0001
0010
0000
0000
0110
0000
0100
,  // measure 20
1000
0000
0010
0100
0000
0001
0010
0000
0000
1001
0000
1000
,  // measure 21
0100
0000
0001
0100
1000
0010
0100
0000
0000
0101
0000
0001
,  // measure 22
1000
0000
1000
0100
0000
0000
0012
0000
0000
0103
0000
0000
,  // measure 23
0210
1300
1200
0301
,  // measure 24
2001
3100
0201
0310
,  // measure 25
0010
0010
0100
0100
,  // measure 26
0001
0000
0000
0010
0000
0100
1000
0100
0010
0001
0000
0100
,  // measure 27
0010
0000
0000
1100
0000
0001
0100
0010
0100
0001
0000
0000
,  // measure 28
0110
0000
1000
0100
0000
0010
0100
1000
0010
0100
0000
0001
,  // measure 29
0100
1000
0100
0001
0010
0100
0020
0000
0031
0010
0000
0100
,  // measure 30
1100
0000
0000
0000
0110
0000
0000
0000
0011
0000
0000
0000
0MM2
0003
0000
MM00
0000
0000
00MM
0000
0000
0MM0
0000
0000
,  // measure 31
100M
0010
1000
0010
0000
0010
0100
0000
0100
0001
0000
0001
0010
0100
0010
0100
0000
0100
1000
0000
1000
0010
0000
0010
,  // measure 32
0100
0001
0100
0000
0000
0010
1000
0000
1000
0100
0000
0020
0000
0000
0031
0100
0000
0001
1000
0000
1000
0010
0000
0100
,  // measure 33
0001
1000
0001
1000
0000
0100
0010
0001
0010
0100
0000
1000
0010
0100
0010
1000
0000
0001
0100
0010
1000
0100
0010
0001
,  // measure 34
1000
0001
0010
0100
0000
0010
0100
0000
1000
0100
0000
1000
0001
0100
0001
0010
0000
0100
0010
0001
0100
0010
1000
0100
,  // measure 35
0010
0001
0010
0001
0000
0001
0100
0010
0100
0010
0000
1000
0100
0000
0010
0001
0000
0001
0100
0000
0100
0010
0000
1000
,  // measure 36
0100
0010
0001
0100
0000
0010
1000
0000
0001
0010
0000
0100
1000
0010
1000
0010
0000
0010
0100
0000
0001
0010
0000
0010
,  // measure 37
M100
0000
0100
1000
0000
1000
0010
0000
0000
1001
0000
0100
,  // measure 38
0001
0000
0010
0100
0000
1000
0010
0100
0010
1000
0000
0100
,  // measure 39
0010
0000
0000
0101
0000
0010
1000
0000
1000
0100
0000
0010
,  // measure 40
0001
0000
2000
3010
0000
2000
3100
0000
2000
0002
0000
0000
,  // measure 41
3113
0000
0000
0000
0000
0000
0000
0000
0000
0010
0000
0010
1000
0000
0100
0000
0001
0000
0100
0000
0000
0000
0010
0000
,  // measure 42
0001
0000
0100
0010
1000
0100
0110
0000
0000
0011
0000
0000
,  // measure 43
1001
0000
0000
1010
0000
1000
1100
0000
0010
0100
0000
0001
,  // measure 44
0010
0000
1000
0100
0010
0001
0100
0000
0110
0000
0000
1010
,  // measure 45
0000
0000
0000
0000
0000
0000
0000
0000
0000
0000
0000
0000
0000
0000
0000
0000
0000
0000
0000
0000
0000
0000
0000
0000
0000
0000
0000
0000
0000
0000
0000
0000
1100
0000
0000
0000
0000
0000
0000
0000
0000
0000
0000
0000
0000
0000
0000
0000
0000
0000
0000
0000
0000
0000
0000
0000
0000
0000
0000
0000
0000
0000
0000
0200
0000
0000
0000
0000
0000
0000
0000
0000
0000
0000
0000
0000
0000
0000
0000
0000
0000
0000
0000
0000
0000
0000
0000
0000
0000
0000
0000
0000
0000
0000
0000
0000
0310
0000
0000
0000
0000
0000
0000
0000
0000
0000
0000
0000
0000
0000
0000
0000
0000
0000
0000
0000
0000
0000
0000
0000
0000
0000
0000
0000
0000
0000
0000
0000
0001
0000
0000
0000
0000
0000
0000
0000
0000
0000
0000
0000
0000
0000
0000
0000
0100
0000
0000
0000
0000
0000
0000
0000
0000
0000
0000
0000
0000
0000
0000
0000
0000
0000
0000
0000
0000
0000
0000
0000
0000
0000
0000
0000
0000
0000
0000
0000
0010
0000
0000
0000
0000
0000
0000
0000
0000
0000
0000
0000
0000
0000
0000
0000
,  // measure 46
1000
0000
1000
0100
0001
0100
0010
0000
0000
0011
0000
0000
,  // measure 47
1010
0000
0000
0000
0000
0000
2000
0000
0000
3000
2000
0000
3100
0000
0000
0000
0010
0000
0001
0000
0000
0000
0100
0000
,  // measure 48
0010
0000
0010
1000
0100
0010
0001
0000
0000
1001
0000
0000
,  // measure 49
1010
0000
0010
0100
0001
0010
0100
0000
1000
0010
0100
0001
,  // measure 50
0010
0000
0000
0000
0100
0000
0000
0M00
0000
0000
0100
0000
1000
0000
0010
0000
0100
0000
0010
0000
1000
0000
0100
0000
,  // measure 51
0010
0000
0000
0000
0001
0000
0000
000M
0000
0000
0002
0000
0103
0000
0010
0000
1000
0000
0010
0000
1000
0000
0200
0000
,  // measure 52
0310
0001
0010
0100
1000
0020
0130
0000
0010
0001
0000
0010
,  // measure 53
1000
0000
0100
0010
0001
0010
0001
0000
1000
0010
0100
0001
,  // measure 54
1000
0000
0000
0000
0010
0000
0000
00M0
0000
0000
0010
0000
1000
0000
0100
0000
0001
0000
0100
0000
0010
0000
0001
0000
,  // measure 55
0100
0000
0000
0000
1000
0000
0000
M000
0000
0000
1000
0000
0100
0000
0000
0000
0001
0000
0010
0000
0000
0000
0100
0000
,  // measure 56
1000
0000
1000
0020
0000
0130
0001
0000
0001
0100
0000
1010
,  // measure 57
0000
0000
1000
0100
0010
0001
0011
0000
0000
0000
0000
0000
;
