#TITLE:Aquatic Base;
#SUBTITLE:~Level 1~;
#ARTIST:Mariko Nanba;
#TITLETRANSLIT:;
#SUBTITLETRANSLIT:;
#ARTISTTRANSLIT:;
#CREDIT:;
#BANNER:Aquatic Base ~Level 1~.png;
#BACKGROUND:Aquatic Base ~Level 1~-bg.png;
#LYRICSPATH:;
#CDTITLE:!profsonic.png;
#MUSIC:Aquatic Base ~Level 1~.ogg;
#OFFSET:0.000;
#SAMPLESTART:29.078;
#SAMPLELENGTH:11.940;
#SELECTABLE:YES;
#BPMS:0.000=81.500,32.000=163.000,192.000=81.500;
#STOPS:;
#BGCHANGES:;

//---------------dance-single - K. Hirokazu----------------
#NOTES:
     dance-single:
     K. Hirokazu:
     Challenge:
     11:
     0.741,0.923,0.239,0.717,0.598: // measure 1
0000
0000
0000
0000
,  // measure 2
0000
0000
0000
0000
,  // measure 3
0001
0000
0100
0000
0000
0001
0000
0000
0010
0000
0000
0100
0000
0000
1000
0000
,  // measure 4
0020
0000
0000
0000
0100
0000
0000
0000
0000
0000
1000
0000
0000
0000
0000
0030
0100
0000
0000
0000
0000
0000
0001
0000
0000
0000
0000
0000
0010
0000
0000
0000
,  // measure 5
0000
0000
0100
0000
1000
0000
0000
0210
0000
0000
0010
0000
0300
0000
0000
0000
0001
0000
0000
0000
0000
0000
0010
0000
0000
0000
0000
0000
0001
0000
0000
0000
,  // measure 6
1000
0000
0001
0000
0000
0010
0000
0000
0100
0000
0000
1000
0000
0000
0010
0000
,  // measure 7
0100
0000
0001
0000
0000
1000
0000
0000
0001
0000
0000
0100
0000
0000
0010
0000
,  // measure 8
0200
0000
0000
0000
0001
0000
0000
0000
0000
0000
1000
0000
0000
0000
0000
0300
0010
0000
0000
0000
0000
0000
1000
0000
0000
0000
0000
0000
0100
0000
0000
0000
,  // measure 9
M020
0000
0032
0000
0103
0000
0010
0100
0010
0000
1000
0000
0200
0000
0310
0000
,  // measure 10
0200
0000
1300
0000
0001
0000
0000
0000
0001
0000
0100
0010
2000
0000
0000
0000
,  // measure 11
0000
0000
0000
0000
0000
0000
3010
0000
0000
0100
0001
0010
0100
0000
1000
0000
,  // measure 12
0001
0000
0200
0000
0300
0000
0001
0100
0001
0000
0010
0000
0001
0010
0100
1000
,  // measure 13
0001
0000
0100
0000
0010
0000
0000
2000
0000
0000
0001
3000
0010
0100
0010
0100
,  // measure 14
0001
0000
0000
0000
0000
0000
002M
0000
0000
0000
0000
0000
0030
0000
0000
0000
0000
0000
0M20
0000
0000
0000
0000
0000
0030
0000
0000
0000
0000
0000
M020
0000
0000
0000
0000
0000
0030
0000
0000
0100
0000
0000
0000
0000
0000
0000
0000
0001
,  // measure 15
1000
0000
0000
0000
0000
0000
0000
0000
0000
0100
0000
0000
0000
0000
0000
0000
0000
0000
0000
0000
1000
0001
0000
0000
0000
0000
0000
0000
0000
0000
1000
0000
0000
0100
0000
0000
0010
0000
0000
0000
0000
0000
0001
0000
0000
0000
0000
0000
,  // measure 16
0100
0000
0010
0000
2000
3000
0001
0000
0100
0000
0010
0000
0000
0010
0100
0010
,  // measure 17
2000
3000
0002
0003
2000
3000
0020
0030
0200
0300
0002
0013
0200
0300
2000
3000
,  // measure 18
0020
0000
0230
0000
0302
0000
0023
0030
2200
0300
0000
0000
0000
0000
0000
3000
,  // measure 19
1010
0000
0010
0100
0100
0002
0003
0020
,  // measure 20
0130
0000
0000
1000
0000
0000
0001
0000
0000
0100
0000
0000
0010
0000
0000
0100
0001
0100
0001
0000
0000
0010
0000
0000
,  // measure 21
0100
0000
1000
0000
0010
0000
0000
0200
0000
0000
0010
0300
0010
0000
1000
0000
,  // measure 22
0100
0000
2M00
0000
3000
0000
20M0
0000
3000
0000
200M
0000
3000
0010
0000
0000
,  // measure 23
0100
0001
0000
0000
0000
0000
0000
0000
0000
0000
0000
0010
1000
0000
0000
0000
0000
0000
0000
0000
0000
1000
0100
0000
0000
0000
0000
0000
0000
0000
0000
0000
0010
0001
0000
0000
0000
0000
0000
0000
0000
0000
0000
0000
0000
0000
0000
0000
,  // measure 24
0100
0000
0001
0010
0001
0000
0010
0000
0000
0000
0000
1100
0000
0000
0000
0000
,  // measure 25
2001
0000
0000
3000
0000
0000
0002
0000
0000
0003
0000
0000
0020
0000
0000
0030
0000
0000
0200
0000
0000
0300
0000
0000
0020
0000
0000
0030
0000
0000
0002
0000
1003
0000
0001
0000
2000
0000
0000
3000
0000
0000
0020
0000
0000
0130
0000
0000
,  // measure 26
0002
0003
0020
0030
0200
0300
2000
3000
0020
0000
0030
0200
0000
0000
0000
0300
,  // measure 27
0101
0000
0000
0000
0001
0010
0100
0010
0000
0000
0200
0000
0300
0000
2000
0000
,  // measure 28
3010
0000
0100
0000
0010
0000
2000
0000
3000
0000
0001
0000
0100
0010
0100
0010
,  // measure 29
0100
0000
0000
0000
0000
0000
0000
0000
0000
0000
0000
0000
0100
0000
0000
0000
0000
0000
0010
0000
0000
0000
0000
0000
1000
0000
0000
0000
0000
0000
0100
0000
0000
0010
0000
0000
0100
0000
0000
0000
0000
0000
0010
0000
0001
0000
0010
0000
,  // measure 30
0001
0100
0010
0000
1000
1000
0100
0020
,  // measure 31
0000
0000
0000
0000
0031
0010
0100
0000
1000
0000
0010
0100
0001
0000
1000
0001
,  // measure 32
1000
0000
0100
0000
0010
0000
0000
0000
0101
0000
0000
0000
1000
0100
0010
0001
,  // measure 33
0010
0110
0100
1100
1000
0000
1000
0100
,  // measure 34
0010
0000
0001
0100
0001
0010
0200
0000
1300
0010
1000
0100
0020
0000
0000
0030
,  // measure 35
0010
0001
0000
0000
0000
0000
0000
0000
0000
0000
0000
1000
0100
0000
0000
0000
0000
0000
0000
0000
0000
1000
0001
0000
0000
0000
0000
0000
0000
0000
0000
0000
1000
0001
0000
0000
0000
0000
0000
0000
0000
0000
0000
0000
0000
0000
0000
0000
,  // measure 36
0001
0000
0100
0001
0010
0000
0100
1000
0100
1000
0200
0300
0000
0000
0000
0000
,  // measure 37
0110
0000
0010
0000
0001
0000
1001
0000
1000
0000
0010
0100
0010
0000
1000
0100
,  // measure 38
0010
0000
0001
0100
0010
0000
1000
0001
1000
0001
0100
0000
0000
0010
0000
0000
,  // measure 39
2020
0000
3030
0000
1000
0100
1000
0000
0010
0000
0100
0001
0010
0100
0000
0000
,  // measure 40
1100
0000
0100
0000
0010
0000
0001
0000
0000
0000
1000
0000
0000
0010
0000
0000
,  // measure 41
0100
0000
0101
0000
0001
0000
0011
0000
0010
0000
0100
1000
0100
0000
1000
0000
,  // measure 42
0020
0030
0100
0000
0001
0000
1000
0000
0200
0300
0010
0000
0001
0000
1000
0000
,  // measure 43
0020
0130
0001
1000
1000
0100
0010
0001
,  // measure 44
0200
0000
0310
0000
1000
0000
0001
0000
0020
0000
0130
1000
0100
0000
0010
0000
,  // measure 45
0001
0011
0010
0110
0100
1000
0001
0101
,  // measure 46
0100
0000
0110
0000
0010
0000
1000
0000
0100
0010
0001
0010
0200
0000
0000
0300
,  // measure 47
1000
1010
0010
0110
0100
0001
0010
0110
,  // measure 48
0100
1100
1000
0010
0100
0000
0001
0010
,  // measure 49
M100
0000
0000
0000
1000
0000
0100
0000
0000
0000
0100
0000
0010
0000
0000
0000
0001
0000
0100
0000
0000
0000
0100
0000
0010
0000
1000
0000
0100
0000
0010
0001
,  // measure 50
0010
0000
0000
0000
0100
0000
1000
0000
0000
0000
1000
0000
0010
0000
0000
0000
0010
0000
0100
0000
0000
0000
0010
0000
1000
0000
0100
0000
0010
0000
0001
0100
,  // measure 51
0001
0000
0010
0000
0100
0000
0000
2000
0000
0000
0010
3000
0000
0000
0100
0000
0010
0000
00M2
0000
0003
0000
0M02
0000
0003
0000
M002
0000
0003
0000
0M02
0000
,  // measure 52
0003
0000
1000
0100
0000
0100
0001
0000
0001
0100
0000
0100
1000
0010
0200
0000
,  // measure 53
0000
0300
0000
0000
;
