#TITLE:Almagest;
#SUBTITLE:;
#ARTIST:Galderia;
#TITLETRANSLIT:;
#SUBTITLETRANSLIT:;
#ARTISTTRANSLIT:;
#CREDIT:;
#BANNER:Almagest.png;
#BACKGROUND:Almagest-bg.png;
#LYRICSPATH:;
#CDTITLE:!profsirius.png;
#MUSIC:Almagest.ogg;
#OFFSET:0.160;
#SAMPLESTART:38.940;
#SAMPLELENGTH:10.800;
#SELECTABLE:YES;
#BPMS:0.000=178.000,46.000=356.000,47.250=89.000,47.500=356.000,48.000=178.000,76.000=356.000,80.000=178.000,91.500=356.000,96.000=178.000,106.500=356.000,108.000=89.000,109.000=356.000,114.000=118.667,114.500=356.000,115.000=178.000,119.000=356.000,122.000=89.000,122.333=356.000,123.000=178.000,127.000=356.000,131.000=178.000,135.000=356.000,139.000=178.000,141.250=356.000,144.000=178.000,144.500=356.000,147.000=178.000,151.000=356.000,154.000=178.000,154.750=356.000,155.000=178.000,159.000=89.000,159.250=267.000,160.000=356.000,163.000=178.000,179.000=356.000,183.000=178.000,215.000=356.000,219.000=178.000,230.500=356.000,235.000=178.000,247.000=89.000,248.000=356.000,250.000=178.000;
#STOPS:46.000=0.042
,46.250=0.084
,46.750=0.084
,76.000=0.084
,76.500=0.169
,77.500=0.084
,78.000=0.021
,78.125=0.021
,78.250=0.021
,78.375=0.021
,78.500=0.084
,79.000=0.021
,79.125=0.021
,79.250=0.042
,79.500=0.021
,79.625=0.021
,79.750=0.042
,91.500=0.169
,92.500=0.169
,93.500=0.084
,94.000=0.042
,94.250=0.042
,94.500=0.084
,95.000=0.021
,95.125=0.021
,95.250=0.021
,95.375=0.021
,95.500=0.021
,95.625=0.021
,95.750=0.021
,95.875=0.021
,106.500=0.021
,106.625=0.021
,106.750=0.021
,106.875=0.021
,107.000=0.084
,107.500=0.021
,107.625=0.021
,107.750=0.021
,107.875=0.021
,109.000=0.021
,109.125=0.021
,109.250=0.021
,109.375=0.021
,109.500=0.042
,109.750=0.042
,110.000=0.042
,110.250=0.042
,110.500=0.042
,110.750=0.042
,111.000=0.021
,111.125=0.021
,111.250=0.021
,111.375=0.021
,111.500=0.021
,111.625=0.021
,111.750=0.021
,111.875=0.021
,112.000=0.021
,112.125=0.021
,112.250=0.021
,112.375=0.021
,112.500=0.021
,112.625=0.021
,112.750=0.021
,112.875=0.021
,113.000=0.021
,113.125=0.021
,113.250=0.021
,113.375=0.021
,113.500=0.021
,113.625=0.021
,113.750=0.021
,113.875=0.021
,119.000=0.084
,119.500=0.084
,120.000=0.042
,120.250=0.042
,120.500=0.042
,120.750=0.042
,121.000=0.084
,121.500=0.042
,121.750=0.042
,127.375=0.084
,127.500=0.080
,128.375=0.084
,128.500=0.080
,129.000=0.042
,129.250=0.042
,129.500=0.084
,130.000=0.084
,130.500=0.084
,135.000=0.042
,135.250=0.042
,135.500=0.042
,135.750=0.042
,136.000=0.028
,136.167=0.028
,136.333=0.028
,136.500=0.028
,136.667=0.028
,136.833=0.028
,137.438=0.084
,137.500=0.042
,137.750=0.042
,138.000=0.084
,138.500=0.021
,138.625=0.021
,138.750=0.021
,138.875=0.021
,141.250=0.042
,141.500=0.042
,141.750=0.042
,142.000=0.042
,142.250=0.042
,142.500=0.042
,142.750=0.042
,143.000=0.021
,143.125=0.021
,143.250=0.021
,143.375=0.021
,143.500=0.021
,143.625=0.021
,143.750=0.021
,143.875=0.021
,144.500=0.028
,144.667=0.028
,144.833=0.028
,145.000=0.042
,145.250=0.042
,145.500=0.042
,145.750=0.042
,146.750=0.169
,151.000=0.084
,151.500=0.084
,152.000=0.042
,152.250=0.042
,152.500=0.042
,152.750=0.042
,153.000=0.084
,153.500=0.042
,153.750=0.042
,154.750=0.042
,160.438=0.084
,160.500=0.084
,161.000=0.042
,161.250=0.042
,161.500=0.084
,162.000=0.084
,162.500=0.084
,179.000=0.084
,179.500=0.084
,180.000=0.084
,180.500=0.084
,181.000=0.042
,181.250=0.042
,181.500=0.042
,181.750=0.042
,182.000=0.042
,182.250=0.042
,182.500=0.042
,182.750=0.042
,215.000=0.084
,215.500=0.169
,216.500=0.084
,217.000=0.021
,217.125=0.021
,217.250=0.021
,217.375=0.021
,217.500=0.084
,218.000=0.021
,218.125=0.021
,218.250=0.042
,218.500=0.084
,230.500=0.169
,231.500=0.169
,232.500=0.084
,233.000=0.042
,233.250=0.042
,233.500=0.084
,234.000=0.084
,234.500=0.084
,248.000=0.021
,248.125=0.021
,248.250=0.021
,248.375=0.021
,248.500=0.084
,249.000=0.063
,249.375=0.063
,249.750=0.042
;
#BGCHANGES:;

//---------------dance-single - Profraine----------------
#NOTES:
     dance-single:
     Profraine:
     Challenge:
     13:
     1.000,1.000,0.530,0.234,1.000: // measure 1
0000
0000
0000
0000
,  // measure 2
0000
0000
0000
0000
,  // measure 3
1000
0100
0010
0001
0010
0100
1000
0100
0010
0001
0100
0010
1000
0010
0100
0001
,  // measure 4
0010
0100
1000
0100
0010
0100
1000
0100
0010
0001
0100
0010
1000
0001
0100
0001
,  // measure 5
1000
0100
0010
0001
0010
0100
1000
0100
0010
0001
0100
0010
1000
0010
0100
0001
,  // measure 6
0010
0100
1000
0100
0010
0100
1000
0100
0010
0001
0100
0010
1000
0001
0100
0001
,  // measure 7
1000
0010
0100
0010
1000
0100
0010
0001
0100
0001
0100
0010
1000
0100
0010
0100
,  // measure 8
1000
0001
0100
0010
0100
0001
1000
0010
1000
0100
0010
0001
1000
0001
0010
0100
,  // measure 9
1000
0100
0010
0001
0010
0100
1000
0100
0010
0001
0100
0010
1000
0010
0100
0001
,  // measure 10
0010
0100
1000
0100
0010
0100
1000
0100
0010
0001
0100
0010
1000
0001
0100
0001
,  // measure 11
1000
0100
0010
0000
0001
0010
0100
0000
1000
0010
0100
0001
0100
0010
1000
0100
,  // measure 12
0010
0001
0010
0100
1000
0010
0100
0010
1000
0100
0000
0100
0000
0110
0000
0000
,  // measure 13
0010
1001
0100
1001
0010
1001
0100
1001
,  // measure 14
0010
1100
0001
1100
0010
1100
0001
1100
,  // measure 15
0010
0101
1000
0101
0010
0101
1000
0101
,  // measure 16
1000
0011
0100
0011
1000
0011
0100
0011
,  // measure 17
1001
1010
0001
1010
0100
1010
0001
1010
,  // measure 18
0001
0110
1000
0110
0001
0110
1000
0110
,  // measure 19
0001
1100
0010
1100
0001
1100
0010
1100
,  // measure 20
0010
0000
0010
0000
0000
0000
0010
0000
0002
0000
0003
0000
0200
0300
2020
3030
,  // measure 21
0010
0000
0100
0000
0001
0010
0100
1000
0001
0100
0010
1000
0001
0010
0100
1000
,  // measure 22
0000
0000
0010
0100
1000
0100
0010
0001
1000
0010
0100
0001
1000
0100
0010
0001
,  // measure 23
0000
0000
0100
0010
0001
0010
0100
1000
0001
0100
0010
1000
0001
0010
0100
0000
,  // measure 24
0000
0000
0100
0000
0000
0000
0010
0000
1000
0100
0010
0000
0202
0000
0303
0000
,  // measure 25
0000
0000
0010
1000
0001
1000
0010
0100
0001
1000
0100
0010
0001
1000
0010
0100
,  // measure 26
0001
0000
0100
0001
1000
0001
0100
0010
1000
0001
0010
0100
1000
0001
0100
0010
,  // measure 27
1000
0000
0000
0000
0010
0000
1000
0000
0001
0000
1000
0000
0010
0000
0100
0000
0001
0000
1000
0000
0200
0000
0000
0000
0310
0000
0000
0000
0002
0000
0000
0003
,  // measure 28
1010
0000
0000
0000
0000
0000
0000
0000
1000
0001
1000
0001
1000
0000
0010
0000
0100
0000
0001
0000
0010
0000
0100
0000
2000
0000
0000
0000
0000
0000
0000
0000
,  // measure 29
0000
0000
0000
0200
0000
0000
0000
0000
0000
0000
0000
0000
0011
0000
3300
0000
0000
0000
1001
0000
0000
1001
0000
0000
,  // measure 30
1000
0000
0010
0100
0001
0000
0001
0010
0100
0000
0100
1000
0010
0000
0010
0000
,  // measure 31
0100
0001
0010
0100
1000
0000
1000
0100
0010
0000
0000
0000
0101
0000
0101
0000
,  // measure 32
0001
0000
1000
0100
0010
0000
0010
0001
1000
0000
0010
0100
0002
0000
0103
0000
,  // measure 33
0020
0000
0130
0000
0001
0010
0001
0000
0100
0000
0100
0000
1010
0000
1010
0000
,  // measure 34
1000
0000
0100
0010
0001
0000
0010
0100
1000
0000
0010
0100
0001
1000
0001
1000
,  // measure 35
0200
0000
0000
0000
0310
0000
0001
0100
1000
0000
0200
0000
0310
0000
0000
0000
,  // measure 36
1000
0000
0001
0000
0000
0100
0010
1000
0100
0010
0100
0010
0002
0000
0000
0000
,  // measure 37
2003
0000
3020
0000
0130
0001
0100
0010
2000
0000
3000
0000
1100
0000
1100
0000
,  // measure 38
0001
0010
0001
0010
0100
0010
0100
0010
0100
1000
0100
0010
0001
0000
0100
0000
,  // measure 39
0010
1000
0010
1000
0100
0000
0001
0100
1000
0000
0000
0000
0101
0000
0101
0000
,  // measure 40
1000
0000
0000
0010
0000
0000
1000
0000
0000
0010
0000
0000
0100
0000
0000
0010
0000
0000
0100
0000
0000
0010
0000
0000
0100
0000
0000
0001
0000
0000
0010
0000
0000
0100
0000
0000
2000
0000
3000
0000
0000
0000
0000
0000
0000
0000
0000
0000
,  // measure 41
0020
0000
0130
0000
0001
0010
0001
0000
1000
0000
0100
0000
0110
0000
0110
0000
,  // measure 42
0010
0001
0010
0100
1000
0100
0010
0001
0100
0010
0100
0010
1000
0100
0010
0001
,  // measure 43
0010
0100
1000
0010
0100
0010
1000
0001
0010
0100
1000
0001
0010
0100
0010
0100
,  // measure 44
0010
0000
0000
0100
0000
0000
0010
0000
0000
0100
0000
0000
1000
0000
0000
0100
0000
0000
1000
0000
0000
0100
0000
0000
1000
0000
0000
0100
0000
0000
1000
0000
0000
0100
0000
0000
1000
0000
0100
0000
0010
0000
0001
0000
0000
0000
0000
0000
,  // measure 45
0001
0000
0010
0000
0100
0000
1000
0000
0000
0000
0000
0000
1000
0000
0000
0100
0000
0000
0010
0000
0000
0001
0000
0000
0010
0000
0000
0100
0000
0000
1000
0000
0000
0010
0000
0000
0100
0000
0000
0000
0000
0000
0100
0000
0000
0000
0000
0000
,  // measure 46
0101
0000
1010
0000
1000
0001
0100
0001
0100
0010
0100
0010
1000
0100
0010
0001
,  // measure 47
1000
0100
0010
0001
1000
0010
0100
0001
1000
0010
0100
0001
1000
0000
0000
0000
,  // measure 48
0010
0100
0001
0010
0100
0000
1000
0001
0010
0100
0010
1000
0001
0010
0100
1000
,  // measure 49
0001
0010
0100
1000
0000
0000
0000
0010
0100
0001
1000
0100
0010
0001
0010
0001
,  // measure 50
0100
0001
0100
0001
0100
0010
0100
0010
1000
0010
1000
0010
0000
0000
0000
1000
,  // measure 51
0100
0010
0100
1000
0100
0000
0001
0100
0010
0100
0001
0010
0100
0000
0000
0010
,  // measure 52
1000
0010
1000
0100
0010
0000
0010
0001
0100
0010
1000
0100
0000
0000
0000
0100
,  // measure 53
0010
0001
0100
0010
0100
0001
0010
0100
1000
0001
0010
0100
1000
0000
0000
0000
,  // measure 54
0000
0010
1000
0001
1000
0010
0100
0001
0010
0100
1000
0001
1000
0000
1000
0000
,  // measure 55
0000
0000
0110
0000
0002
0000
0103
0000
0020
0030
1000
0000
1100
0000
0000
0100
,  // measure 56
0010
0001
0010
0100
1000
0100
0010
0100
1000
0001
0100
0010
1000
0001
0100
0010
,  // measure 57
0100
0001
0100
0010
0100
0001
1000
0010
0100
0001
0010
0100
1000
0100
1000
0100
,  // measure 58
1000
0010
1000
0010
1000
0100
0010
0001
0010
0100
0010
0000
0000
0000
0010
0000
,  // measure 59
0000
0000
0101
0000
0100
0010
0100
0000
0010
0000
1000
0000
1001
0000
0000
0000
,  // measure 60
0001
1000
0010
0100
0001
1000
0010
0100
0001
0010
0100
0000
0010
0100
1000
0000
,  // measure 61
0010
0100
0001
0000
0001
0010
0100
0000
1000
0100
0010
0000
0100
0010
0001
0010
,  // measure 62
0100
0010
0001
0010
0100
1000
0100
0010
0100
1000
0100
0010
0001
0000
0000
0000
,  // measure 63
1000
0001
1000
0001
1000
0000
0000
0000
0001
0000
0000
1000
0000
0000
0001
0000
1000
0000
0000
0000
0000
0000
1000
0000
0100
0000
0010
0000
0001
0000
0010
0000
,  // measure 64
0100
1000
0100
0000
1000
0001
0100
0001
0010
0100
1000
0100
0000
0100
0010
0000
,  // measure 65
0010
0001
0100
0010
1000
0000
0010
0000
0100
0000
0000
0001
0010
0100
1000
0100
,  // measure 66
0010
0001
0000
1000
0010
0100
0010
1000
0100
0010
0100
0000
0100
1000
0100
0010
,  // measure 67
0001
0100
0010
0001
1000
0001
0100
0010
1000
0100
0010
0001
0010
0100
1000
0000
,  // measure 68
0001
0100
0010
0000
0010
1000
0100
0010
0001
0010
0100
1000
0100
0010
0100
0010
,  // measure 69
0001
0010
0100
0000
0010
0100
1000
0100
0010
0001
0100
0010
1000
0010
0100
0001
,  // measure 70
0010
0100
1000
0000
0100
0010
0001
0010
0100
0000
0010
0100
0001
1000
0100
0010
,  // measure 71
0001
0100
0010
0100
0001
1000
0001
1000
0200
0000
0000
0000
0000
0000
0000
0000
,  // measure 72
0300
0000
0000
0000
;
