#TITLE:Alenjah Castle;
#SUBTITLE:(Royal Tower, Middle);
#ARTIST:Kota Hoshino;
#TITLETRANSLIT:;
#SUBTITLETRANSLIT:;
#ARTISTTRANSLIT:;
#CREDIT:;
#BANNER:Alenjah Castle (Royal Tower, Middle).png;
#BACKGROUND:Alenjah Castle (Royal Tower, Middle)-bg.png;
#LYRICSPATH:;
#CDTITLE:!prof.png;
#MUSIC:Alenjah Castle (Royal Tower, Middle).ogg;
#OFFSET:-0.380;
#SAMPLESTART:62.850;
#SAMPLELENGTH:15.600;
#SELECTABLE:YES;
#DISPLAYBPM:146.00;
#BPMS:0.000=145.980;
#STOPS:;
#BGCHANGES:;

//---------------dance-single - Profraine----------------
#NOTES:
     dance-single:
     Profraine:
     Challenge:
     10:
     0.764,0.696,0.137,0.254,0.435: // measure 1
0000
0000
0000
0000
,  // measure 2
0000
0000
0000
0000
,  // measure 3
0000
0000
0000
0000
,  // measure 4
0000
0000
0000
0000
,  // measure 5
1000
0000
0000
0000
0010
0100
0001
0000
0010
0100
1000
0000
0000
0000
1000
0000
,  // measure 6
0000
0000
0010
0000
0100
0010
0100
0000
0001
0010
0100
1000
0100
0000
0010
0000
,  // measure 7
0001
0100
0010
0100
0001
0010
0100
0010
,  // measure 8
0000
0000
0001
1000
0100
0000
0010
0000
0100
0000
1000
0000
0001
0000
0100
0000
,  // measure 9
0010
0000
1000
0000
0100
0000
0010
0000
0100
1000
0100
0000
0010
0000
0001
0000
,  // measure 10
0000
0000
0001
0000
1000
0100
0010
0001
0100
0010
1000
0000
0010
0000
0000
0000
,  // measure 11
0110
0000
0100
0001
0010
0100
1000
0010
,  // measure 12
0000
0000
0010
0100
0010
0000
1000
0000
0100
0000
0001
0000
0100
0000
0010
0000
,  // measure 13
0001
0000
0100
0000
1000
0000
0100
0000
0010
0100
0001
0000
0010
0000
0100
0000
,  // measure 14
0000
0000
0100
0000
1000
0100
1000
0000
0100
0010
0001
0000
0100
0000
0000
0000
,  // measure 15
0101
0000
0001
0000
1000
0100
0010
0000
0002
0000
0103
0010
1000
0000
0100
0000
,  // measure 16
0020
0000
0031
0100
0010
0000
1000
0000
0100
0000
0010
0000
0100
0000
1000
0000
,  // measure 17
0002
0000
0103
0001
0010
0000
0100
0000
1000
0000
0100
0000
0020
0000
0000
0000
,  // measure 18
0032
0000
0000
0000
1003
0001
1000
0001
1000
0000
0010
0000
0100
0000
0001
0000
,  // measure 19
0010
0000
0000
0000
0200
0000
0000
0000
1300
0000
0001
0100
0010
0000
0100
0000
,  // measure 20
0001
0020
0130
0020
0031
0010
0100
1000
,  // measure 21
0001
1000
0010
0100
0000
0000
0001
0100
0010
1000
0100
0000
0020
0000
0000
0000
,  // measure 22
0031
0000
1000
0000
0010
0100
0001
0000
0010
0100
1000
0100
0010
0000
0001
0000
,  // measure 23
1000
0001
1000
0000
0010
1000
0010
0000
0100
0001
0100
0000
0000
0000
0010
0000
,  // measure 24
0000
0000
1000
0100
0001
0100
0010
0001
,  // measure 25
0100
0000
1000
0000
0100
0000
0010
0000
1000
0000
0100
0010
0000
0000
0001
0000
,  // measure 26
0000
0100
0010
0100
0001
0010
0100
1000
,  // measure 27
1100
0000
0100
0010
0001
0100
0000
0010
,  // measure 28
0000
0000
0000
1000
0100
0010
0100
0010
,  // measure 29
0001
0000
0100
0000
0010
0000
1000
0000
0010
0000
1000
0001
0000
0000
0001
0000
,  // measure 30
0000
1000
0100
0001
0100
0010
0001
0100
,  // measure 31
0010
1000
0100
0000
0010
0000
0001
0000
1000
0000
0010
0000
0100
0000
0010
0000
,  // measure 32
2000
0000
0000
0000
3100
0010
0001
0000
0100
0000
0010
0000
1000
0000
0100
0000
,  // measure 33
0020
0000
0000
0000
0031
0000
0100
0000
0010
1000
0100
0000
0010
0001
0010
0100
,  // measure 34
0010
0001
0100
0010
2000
0000
0000
0000
3100
0000
0010
0000
0001
0000
0010
0000
,  // measure 35
0110
0000
0100
1000
0001
0000
0100
0000
0010
0000
1000
0001
0100
0000
0010
0000
,  // measure 36
1000
0000
0100
0010
0002
0000
0000
0000
0103
0000
0010
0000
0100
0000
0001
0000
,  // measure 37
0010
0000
0100
0000
1000
0000
0100
0000
0020
0000
0031
0000
1000
0001
1000
0010
,  // measure 38
0100
0001
1000
0001
0100
0010
1000
0100
0010
0011
0000
0000
,  // measure 39
0010
0100
1000
0000
0100
0010
0001
0000
0100
0010
1000
0000
0100
0000
0020
0000
,  // measure 40
0031
0000
0100
0010
1000
0000
0100
0000
0001
0000
0100
0000
0010
0000
0001
0000
,  // measure 41
0100
0010
0100
0000
0010
0000
1010
0000
1001
0000
0000
0000
0001
0000
0010
0100
,  // measure 42
1000
0001
0200
1300
0100
0020
0000
1030
,  // measure 43
0100
0010
0100
0000
0010
0001
0010
0000
0001
1000
0001
0000
1000
0000
0020
0000
,  // measure 44
0130
0000
0001
0010
0100
0000
1000
0000
0100
0000
0020
0000
0031
0000
0100
0000
,  // measure 45
0010
1000
0001
0000
0010
0000
0110
0000
1100
0000
0000
0000
1000
0000
0010
0100
,  // measure 46
0010
1000
0200
0301
0100
0010
0001
0100
,  // measure 47
0010
0100
0001
0000
1000
0100
0001
0000
0100
0010
0001
0000
0100
0000
0020
0000
,  // measure 48
1030
0000
0100
0010
0001
0000
1000
0000
0100
0000
0010
0000
0100
0000
1000
0000
,  // measure 49
0001
0100
0010
0000
1000
0000
1001
0000
0011
0000
0000
0000
0010
0000
0100
1000
,  // measure 50
0001
0100
0020
1030
0010
0200
0000
0301
,  // measure 51
0100
0001
1000
0000
0010
1000
0100
0000
0010
0001
1000
0000
0001
0000
0200
0000
,  // measure 52
0310
0000
1000
0100
1000
0000
0001
0000
0010
0000
1000
0000
0010
0000
0100
0000
,  // measure 53
1000
0010
0100
0000
0001
0000
0101
0000
0110
0000
0000
0000
0010
0000
1000
0001
,  // measure 54
0010
0100
2000
3010
0001
0010
0100
0001
,  // measure 55
0101
0000
0000
0000
0001
0000
1000
0000
0100
0000
0010
0000
0001
0000
0100
0001
,  // measure 56
0100
0000
0010
1000
0010
0000
0100
0000
0001
0000
0010
0100
1000
0000
0100
0000
,  // measure 57
0000
0000
1000
0001
0100
0000
0010
0000
0100
0000
0001
0000
0010
0000
0100
1000
,  // measure 58
0100
0000
1000
0000
0001
0100
0001
1000
0010
0000
0100
0000
0001
0000
1000
0000
,  // measure 59
0100
0000
0000
0000
0010
0000
0100
0000
1000
0000
0001
0000
0100
0000
0010
1000
,  // measure 60
0100
0000
1000
0001
0010
0000
0100
0000
1000
0000
0001
0100
0010
0000
1000
0000
,  // measure 61
0000
0000
0100
0010
0001
0000
0010
0000
1000
0000
0010
0000
0001
0000
1000
0010
,  // measure 62
0100
0000
0010
0000
1000
0010
0100
0001
0010
0000
0200
0000
1000
0300
0100
0000
;
