#TITLE:ACID VISION;
#SUBTITLE:(Allotropy Artcore Mix);
#ARTIST:L.E.D. vs TOMOSUKE;
#TITLETRANSLIT:;
#SUBTITLETRANSLIT:;
#ARTISTTRANSLIT:;
#GENRE:BREAKCORE;
#CREDIT:;
#MENUCOLOR:;
#NEWMETERSYSTEM:NO;
#BANNER:ACID VISION (Allotropy Artcore Mix).png;
#BACKGROUND:ACID VISION (Allotropy Artcore Mix)-bg.png;
#LYRICSPATH:;
#CDTITLE:!profdist.png;
#MUSIC:ACID VISION (Allotropy Artcore Mix).ogg;
#OFFSET:0.020;
#SAMPLESTART:59.320;
#SAMPLELENGTH:14.220;
#SELECTABLE:YES;
#LISTSORT:;
#BPMS:0.000=91.000,6.000=182.000,25.000=364.000,26.000=182.000,66.000=364.000,70.000=182.000,100.000=364.000,102.000=182.000,134.000=364.000,150.000=182.000,165.500=364.000,166.000=182.000,197.000=364.000,198.000=91.000,214.000=182.000,271.000=364.000,272.000=91.000;
#STOPS:25.000=0.041
,25.250=0.041
,25.500=0.041
,25.750=0.041
,66.000=0.041
,66.250=0.041
,66.500=0.041
,66.750=0.041
,67.000=0.082
,67.500=0.082
,68.000=0.041
,68.250=0.041
,68.500=0.041
,68.750=0.041
,69.000=0.041
,69.250=0.041
,69.500=0.041
,69.750=0.041
,100.000=0.165
,101.000=0.165
,134.000=0.165
,135.000=0.082
,135.500=0.165
,136.500=0.082
,137.000=0.041
,137.250=0.041
,137.500=0.041
,137.750=0.041
,138.000=0.041
,138.250=0.041
,138.500=0.165
,139.500=0.165
,140.500=0.082
,141.000=0.082
,141.500=0.082
,142.000=0.165
,143.000=0.082
,143.500=0.165
,144.500=0.082
,145.000=0.041
,145.250=0.041
,145.500=0.041
,145.750=0.041
,146.000=0.041
,146.250=0.041
,146.500=0.165
,147.500=0.165
,148.500=0.082
,149.000=0.082
,149.500=0.082
,165.500=2.720
,197.000=0.041
,197.250=0.041
,197.500=0.041
,197.750=0.041
,252.938=0.330
,257.000=0.247
,257.250=0.247
,258.000=0.165
,265.750=0.330
,270.000=0.247
,270.250=0.247
,270.500=0.082
,270.750=0.082
,271.000=0.082
,271.500=0.082
;
#BGCHANGES:;
#ATTACKS:;

//---------------dance-single - K. Hirokazu----------------
#NOTES:
     dance-single:
     K. Hirokazu:
     Challenge:
     12:
     0.826,0.829,0.394,0.368,0.556: // measure 1
0000
0000
0000
0000
,  // measure 2
0000
0000
0000
0000
1010
0000
0010
1010
,  // measure 3
0000
0000
0100
0010
0100
0000
0000
0000
0010
0000
0001
0000
0100
0000
0010
0000
,  // measure 4
0000
0010
1000
0000
1100
0100
0000
1100
,  // measure 5
0000
0100
0010
0000
0001
0100
0010
0100
,  // measure 6
0000
0100
0001
0000
1001
1000
0000
1001
,  // measure 7
0000
0100
0040
0000
1030
0100
0001
0100
,  // measure 8
0000
0000
0100
0000
1000
0000
0010
0100
0004
0000
0000
0000
1003
0000
1001
0000
,  // measure 9
0000
0000
0001
0000
0100
0010
0100
0000
0010
0000
1000
0000
0000
0000
0100
0000
,  // measure 10
0000
0000
0010
0000
0001
0000
0100
0010
0100
0000
0000
0000
0001
0100
0001
0000
,  // measure 11
0000
0000
0100
0010
0100
0000
0010
1000
0010
0000
1000
0000
0100
0000
0010
0000
,  // measure 12
0000
0000
0011
0000
0000
0000
0001
0010
0100
0000
0000
0000
1000
0100
1000
0000
,  // measure 13
0000
0000
0100
0010
0100
0000
0010
0001
0010
0000
0001
0000
0100
0000
0010
0000
,  // measure 14
0000
0000
1010
0000
0000
0000
1000
0100
0010
0000
0000
0000
0001
0100
0001
0000
,  // measure 15
0000
0000
0100
0010
0100
0000
0010
1000
0010
0000
1000
0000
0001
0000
0100
0000
,  // measure 16
0000
0000
0110
0000
0000
0000
0010
1000
0100
0000
0000
0000
0100
0010
0100
0000
,  // measure 17
0000
0000
0010
0001
0010
0000
0001
1000
0001
0100
0001
0100
0010
0000
1000
0000
,  // measure 18
0100
0010
0100
0010
0400
0000
0000
0000
0310
1000
0100
0010
0001
0010
0100
1000
,  // measure 19
0010
0100
0010
0100
0001
0010
0100
1000
0100
0010
0001
0100
0000
0100
0010
0000
,  // measure 20
0000
1001
0000
0100
0001
0000
0010
0100
,  // measure 21
0000
0000
1000
0000
0010
0000
0100
0000
0001
0000
0100
0000
0010
0000
0000
0010
,  // measure 22
1000
0000
0100
0000
0000
0000
0100
0000
0020
0000
0000
0000
0031
0100
0010
0100
,  // measure 23
0010
1000
0100
0010
0000
0001
0010
0100
0000
0010
0100
1000
0100
0010
0001
0000
,  // measure 24
0010
0001
1000
0000
0010
1000
0100
0000
0010
0001
0010
0000
0100
1000
0010
0000
,  // measure 25
0100
0001
1000
0000
0100
0010
0001
0000
1000
0000
0001
0000
1000
0000
0001
0000
,  // measure 26
4000
0000
3400
0000
0310
0100
0010
0001
,  // measure 27
0000
0000
1001
0000
1000
0100
1000
0100
0010
0000
0001
0000
0100
0000
0010
1000
,  // measure 28
0010
0000
1000
0001
1000
0000
0100
0000
0110
0000
0000
0000
0010
0000
0110
0000
,  // measure 29
0000
0000
0010
0000
0001
0000
0100
0010
0100
0000
0010
0000
0000
0000
1000
0100
,  // measure 30
1000
0100
0010
0001
1001
0001
1000
1001
,  // measure 31
0010
0000
0100
0000
0000
0000
0110
0000
1000
0100
1000
0000
0100
0000
0010
0001
,  // measure 32
0010
0000
0100
0010
0100
0000
1000
0000
1010
0000
0010
0000
1000
0000
1010
0000
,  // measure 33
0010
0000
0100
0000
0001
0000
0010
0100
1000
0000
0100
0000
0010
0000
0001
0000
,  // measure 34
1000
0100
1000
0000
0001
0000
0100
0000
1001
0000
0000
0000
0100
0000
1001
0000
,  // measure 35
0000
0000
0100
0000
0001
0010
0100
1000
0100
0010
0001
0000
0000
0000
1100
0000
,  // measure 36
0000
0100
0010
0010
1001
0000
0100
1001
,  // measure 37
0000
0000
0100
0000
0001
0010
0100
1000
0100
0010
0001
0000
0000
0000
1100
0000
,  // measure 38
0000
0100
0010
0010
1001
0001
0100
1001
,  // measure 39
0001
0000
0100
0000
0001
0010
0100
1000
0100
0010
0001
0000
0010
0000
1100
0000
,  // measure 40
1000
0100
0010
0010
1001
0001
0100
1001
,  // measure 41
0001
0000
0100
0000
0001
0010
0100
1000
0100
0010
0001
0000
0010
0000
1100
0000
,  // measure 42
1000
0000
0000
0000
0000
0000
0000
0000
0100
0000
0000
0000
0000
0000
0000
0000
0010
0000
0000
0000
0000
0000
0000
0000
MM1M
00M0
0000
0000
0000
0000
0000
0000
1001
0000
0000
0000
0000
0000
0000
0000
1000
0000
0000
0000
0000
0000
0000
0000
0100
0000
0000
0000
0000
0000
0000
0000
0010
0000
0000
0000
0000
0000
0000
0000
,  // measure 43
0000
0000
0010
0000
0100
0000
1000
0000
0100
0000
0010
0000
0001
0000
0010
0001
,  // measure 44
0010
0000
0001
1000
0001
0000
1000
0010
1000
0000
0000
0000
0100
0000
0010
0000
,  // measure 45
0001
0000
0100
0000
0010
0000
1000
0000
0000
0000
1000
0000
0100
0000
0010
0001
,  // measure 46
0010
0000
0001
0100
0001
0000
0100
0010
0100
0000
0001
0000
0010
0000
0100
0000
,  // measure 47
0000
0000
0100
0000
1000
0000
0010
0000
0100
0000
0010
0000
1000
0000
0100
0010
,  // measure 48
0100
0000
0010
0001
0010
0000
0001
0000
0001
0000
0100
0000
0010
0000
1000
0000
,  // measure 49
0000
0000
1000
0000
0100
0000
0010
0001
0010
0001
0010
0000
0100
0000
0000
1000
,  // measure 50
0100
0000
0000
0100
4000
0000
0000
0000
3M1M
0000
0101
0000
0010
0101
0000
0000
,  // measure 51
4000
0000
3000
0000
0010
0101
0000
0000
1000
0000
0101
0000
0010
0101
0000
0000
,  // measure 52
4000
3000
4000
3000
0000
4000
0000
3000
0010
0000
0101
0000
0010
0101
0000
0000
,  // measure 53
4000
0000
0000
0000
3000
0000
0000
0000
0010
0000
0101
0000
0000
0000
0000
0000
1000
0000
0000
0000
4000
0000
3000
0000
0000
0000
4000
0000
3000
0000
1000
0100
,  // measure 54
0040
0030
0040
0030
0400
0000
4300
0000
3010
0000
0000
0000
0101
0000
0000
0000
,  // measure 55
1000
0100
0010
0000
0001
0000
1100
0000
,  // measure 56
0010
0100
0001
0000
1000
0000
0101
0000
,  // measure 57
0010
1000
0100
0000
0010
0000
1100
0000
,  // measure 58
0001
0100
0010
0000
4000
3000
0400
0300
,  // measure 59
0040
0030
0004
0003
0410
0300
0040
0030
,  // measure 60
4000
3000
0400
0340
0034
0003
4000
3000
,  // measure 61
0040
0030
0400
0300
0004
0003
0040
0030
,  // measure 62
0400
0000
4300
0000
3004
0000
0403
0000
0310
1000
0100
1000
0100
0000
0010
0001
,  // measure 63
0100
0001
0100
0000
0010
0000
1000
0000
0100
0000
0010
0001
0010
0000
0100
1000
,  // measure 64
0100
0000
0000
0000
1000
0000
0000
0000
0010
0000
0000
0000
0000
0000
0000
M0MM
0100
0000
0000
0000
0000
0000
0000
0000
0001
0000
0000
0000
0010
0000
0000
0000
0001
0000
0000
0000
0000
0000
0000
0000
0010
0000
0000
0000
0000
0000
0000
0000
0100
0000
0000
0000
0000
0000
0000
0000
1000
0000
0000
0000
0000
0000
0000
0000
,  // measure 65
0010
0100
0001
0100
001M
100M
0100
0010
M100
0000
0000
0000
1000
0000
0100
0000
,  // measure 66
0010
0000
0100
0000
0010
0000
0001
0000
1000
0010
1000
0100
1000
0010
0100
0001
,  // measure 67
0010
0000
0100
1000
0100
0010
0001
M010
0100
0000
1000
0000
0010
0000
1000
0000
,  // measure 68
0100
0000
0010
0000
0001
0100
0001
0010
010M
100M
0010
0100
0004
0000
0403
0000
,  // measure 69
M310
0000
0010
0000
1000
0000
0100
0010
0001
0100
0010
1000
0100
0000
1000
0001
,  // measure 70
0100
0000
0100
0000
0010
0000
1000
0100
0010
0001
0100
0001
1000
0000
0010
0100
,  // measure 71
0002
0000
0000
0000
,  // measure 72
0203
0000
0000
0000
,  // measure 73
0320
0000
0000
0000
0000
0000
0000
0000
0000
0000
0000
0000
0000
0030
0000
0000
;
