#TITLE:A Deep Mentality;
#SUBTITLE:;
#ARTIST:Shoji Meguro;
#TITLETRANSLIT:;
#SUBTITLETRANSLIT:;
#ARTISTTRANSLIT:;
#GENRE:;
#CREDIT:;
#MENUCOLOR:;
#NEWMETERSYSTEM:NO;
#BANNER:A Deep Mentality.png;
#BACKGROUND:A Deep Mentality-bg.png;
#LYRICSPATH:;
#CDTITLE:!prof.png;
#MUSIC:A Deep Mentality.ogg;
#OFFSET:-0.015;
#SAMPLESTART:46.453;
#SAMPLELENGTH:15.500;
#SELECTABLE:YES;
#LISTSORT:;
#BPMS:0.000=124.000,127.000=248.000,135.000=124.000,139.000=248.000,143.000=124.000;
#STOPS:61.939=0.242
,62.418=0.121
,62.668=0.122
,127.000=0.060
,127.250=0.181
,128.000=0.060
,128.250=0.121
,128.750=0.060
,129.000=0.121
,129.500=0.060
,129.750=0.181
,130.500=0.060
,130.750=0.060
,131.000=0.060
,131.250=0.181
,132.000=0.060
,132.250=0.121
,132.750=0.060
,133.000=0.121
,133.500=0.060
,133.750=0.181
,134.500=0.060
,134.750=0.060
,139.000=0.060
,139.250=0.060
,139.500=0.121
,140.000=0.121
,140.500=0.060
,140.750=0.121
,141.250=0.060
,141.500=0.121
,142.000=0.121
,142.500=0.121
;
#BGCHANGES:;
#ATTACKS:;

//---------------dance-single - K. Hirokazu----------------
#NOTES:
     dance-single:
     K. Hirokazu:
     Challenge:
     11:
     0.840,0.810,0.600,0.407,1.000: // measure 1
0000
0000
0000
0000
,  // measure 2
0000
0000
0000
0000
,  // measure 3
0000
0000
0000
0000
,  // measure 4
0000
0000
0000
0000
0000
0000
0000
0000
0000
0000
0000
0000
0000
0000
0000
1000
,  // measure 5
0001
0000
0100
0000
0001
0010
0000
1010
0000
0000
20M0
0000
3000
2000
3000
0100
,  // measure 6
0010
0000
0001
0000
0100
0010
0000
1001
0000
0000
M002
0000
0003
0002
0003
0010
,  // measure 7
0100
0000
1000
0000
0001
0010
0000
0101
0000
0000
0M02
0000
0003
0002
0003
0100
,  // measure 8
0010
0000
1000
0000
0001
0010
0000
1010
0000
0000
20M0
0000
3000
2000
3000
1000
,  // measure 9
0001
0010
0001
0010
0100
0010
0001
1000
0000
0000
1010
0000
0000
1010
0000
0100
,  // measure 10
0001
0010
0100
0010
0001
1000
0010
0100
0000
0000
0011
0000
0000
0011
0000
1000
,  // measure 11
0010
0100
0010
1000
0100
0010
0001
0010
0000
0000
1100
0000
0000
1100
0000
1000
,  // measure 12
0001
0100
1000
0100
0001
0010
0100
1000
0000
0000
0101
0000
0000
0101
0000
0001
,  // measure 13
0100
0010
1000
0001
0010
0100
1000
0100
0000
0000
0101
0000
0000
1100
0000
0001
,  // measure 14
1000
0100
0001
0100
1000
0010
0001
0010
0000
0000
1010
0000
0000
0011
0000
0100
,  // measure 15
0010
1000
0100
0010
0100
1000
0001
0010
0000
0000
1100
0000
0000
0101
0000
0010
,  // measure 16
1000
0000
0001
0000
1000
0000
0100
0000
0010
0000
0001
0000
1000
0000
0001
0000
020M
0000
0300
0000
0020
0030
0020
0030
1010
0000
0000
0000
1010
0000
0000
0000
,  // measure 17
0010
0100
00M0
0100
0010
0100
00M0
0100
0010
0100
0000
0100
0001
0000
1010
0000
,  // measure 18
1000
0000
0100
0000
M000
0000
0100
0000
1000
0000
0100
0000
M000
0000
0100
0000
1000
0000
0100
0000
2000
3000
0200
0300
0020
0030
0000
0000
0101
0000
0000
0000
,  // measure 19
0001
1000
000M
1000
0001
1000
000M
1000
0001
1000
000M
1000
0010
0000
1100
0000
,  // measure 20
0010
0000
0000
0000
0000
0000
0000
0000
0000
0000
0000
0000
0001
0000
0000
0000
0000
0000
0000
0000
0000
0000
0000
0000
00M0
0000
0000
0000
0000
0000
0000
0000
0000
0000
0000
0000
0001
0000
0000
0000
0000
0000
0000
0000
0000
0000
0000
0000
0010
0000
0000
0000
0000
0000
0000
0000
0000
0000
0000
0000
0001
0000
0000
0000
0000
0000
0000
0000
0000
0000
0000
0000
00M0
0000
0000
0000
0000
0000
0000
0000
0000
0000
0000
0000
0001
0000
0000
0000
0000
0000
0000
0000
0000
0000
0000
0000
0010
0000
0000
0000
0000
0000
0000
0000
0000
0000
0000
0000
0001
0000
0000
0000
0000
0000
0000
0000
0000
0000
0000
0000
1000
0000
0000
0000
0000
0000
0000
0000
0100
0000
0000
0000
0000
0000
0000
0000
1000
0000
0000
0000
0000
0000
0000
0000
0100
0000
0000
0000
0000
0000
0000
0000
0000
0000
0000
0000
0000
0000
0000
0000
0000
0000
0000
0000
0000
0000
0000
0000
0000
0000
0000
0000
0000
0000
0000
0000
0000
0000
0000
0000
0010
0000
0000
0000
0000
0000
1000
0000
0000
0000
0000
0000
,  // measure 21
0010
0100
0000
0001
0100
0001
0M00
0001
0100
0001
0000
0010
0100
0000
0011
0000
,  // measure 22
0010
0000
0100
0000
00M0
0000
0100
0000
0010
0000
0100
0000
00M0
0000
0100
0000
0010
0000
0100
0000
0020
0030
0200
0300
2000
3000
0000
0000
0101
0000
0000
0000
,  // measure 23
0010
1000
00M0
1000
0010
1000
00M0
1000
0010
1000
0000
0000
0101
0000
0010
0000
,  // measure 24
1100
0000
0000
0000
0000
0000
0001
0000
0000
0100
0000
0000
0000
0000
0000
1000
0000
0000
0100
0000
0000
0000
0000
0000
0101
0000
0000
0000
0000
0000
0001
0000
0010
0000
0100
0000
1000
0000
0000
0000
0000
0000
1100
0000
0000
0000
0000
0000
,  // measure 25
0001
0000
0000
0010
0000
0000
000M
0000
0000
0010
0000
0000
0001
0000
0000
0010
0000
0000
000M
0000
0000
0010
0000
0000
0001
0000
0000
0010
0000
0000
0001
0000
0010
0000
0100
0000
1000
0000
0000
0010
0000
0000
0100
0000
0000
0010
0000
0000
,  // measure 26
0000
0000
0010
0000
0000
0000
0010
0000
1000
0000
0100
0000
0000
0000
0010
0000
0000
0000
0001
0000
2000
3000
0200
0300
0020
0030
0000
0000
0001
0000
0000
0000
,  // measure 27
0100
0010
1000
0100
0000
0100
0000
0100
1000
0010
0000
0000
0010
0100
0001
0010
,  // measure 28
0000
0000
0000
0000
0000
0000
0000
0000
0000
0000
0000
0000
0010
0000
0000
0000
0000
0000
0000
0000
0000
0000
0000
0000
0000
0000
0000
0000
0000
0000
0000
0000
0000
0000
0000
0000
0010
0000
0000
0000
0000
0000
0000
0000
0000
0000
0000
0000
0001
0000
0000
0000
0000
0000
0000
0000
0000
0000
0000
0000
0100
0000
0000
0000
0000
0000
0000
0000
0000
0000
0000
0000
0000
0000
0000
0000
0000
0000
0000
0000
0000
0000
0000
0000
0010
0000
0000
0000
0000
0000
0000
0000
0000
0000
0000
0000
1000
0000
0000
0000
0000
0000
0000
0000
0000
0000
0000
0000
0100
0000
0000
0000
0000
0000
0000
0000
0000
0000
0000
0000
0010
0000
0000
0000
0000
0000
0000
0000
0001
0000
0000
0000
0000
0000
0000
0000
0010
0000
0000
0000
0000
0000
0000
0000
0001
0000
0000
0000
0000
0000
0000
0000
0000
0000
0000
0000
0000
0000
0000
0000
0000
0000
0000
0000
0000
0000
0000
0000
0000
0000
0000
0000
0000
0000
0000
0000
0000
0000
0000
0000
1000
0000
0000
0000
0000
0000
0010
0000
0000
0000
0000
0000
,  // measure 29
1000
0100
0010
0001
0000
0001
0000
0001
1000
0010
0000
0010
1000
0100
0001
0100
,  // measure 30
0000
0000
0100
0000
1000
0000
0010
0000
0000
0000
0010
0000
0000
0000
0010
0000
0100
0000
0001
0000
0020
0030
0200
0300
2000
3000
0001
0000
0100
0000
0001
0000
,  // measure 31
0000
0001
0010
0100
0000
0100
0000
0100
1000
0010
0000
0000
1001
0000
0010
0000
,  // measure 32
0101
0000
0001
0010
0000
1000
0100
0000
1001
0000
0001
0010
0100
0100
0000
0000
,  // measure 33
1000
1000
0000
0010
0010
0000
0100
0100
0000
0000
0001
0001
1000
1000
0000
0000
,  // measure 34
0100
0000
0100
0000
0000
0000
0010
0000
0010
0000
0000
0000
0001
0000
0001
0000
0000
0000
0000
0000
0100
0000
0100
0000
0040
4000
0000
0000
0000
0000
0000
0000
,  // measure 35
0000
0000
0000
0000
0000
0000
0000
0000
0000
0000
0000
0000
0000
0000
0000
0000
0000
0000
0000
0000
0000
0000
0030
3000
0100
0000
0100
0000
0010
0000
0000
0000
,  // measure 36
0001
0000
0100
0010
0000
0001
0010
0000
1000
0000
0100
0000
0010
0001
0010
0100
,  // measure 37
0000
0000
0100
0000
1000
0000
0010
0000
0000
0000
0010
0000
0100
0000
0000
0000
0001
0000
0010
0000
0000
0200
0300
0000
2000
3000
0010
0000
0100
0000
0010
0000
,  // measure 38
0000
0000
0010
0000
0100
0000
0001
0000
0000
0000
0001
0000
0100
0000
0000
0000
0010
0000
1000
0000
0100
0000
0000
0000
0020
0030
0001
0000
1000
0000
0100
0000
,  // measure 39
0000
0000
0100
0000
0010
0000
0100
0000
0000
0000
0100
0000
1000
0000
0000
0000
0001
0000
0100
0000
0000
0020
0030
0000
2000
3000
0010
0000
0100
0000
0001
0000
,  // measure 40
0000
0000
0001
0000
0100
0000
0001
0000
0000
0000
0001
0000
0010
0000
0000
0000
0100
0000
1000
0000
0100
0000
0000
0000
0020
0030
0000
0000
0011
0000
0000
0000
,  // measure 41
0000
0000
1001
0000
0000
0000
1010
0000
0000
0000
0000
0000
1100
0000
0000
0000
0000
0000
1001
0000
0000
2000
3000
0000
1002
0003
0000
0000
0101
0000
0000
0000
,  // measure 42
0000
0000
0110
0000
0000
0000
1100
0000
0000
0000
0000
0000
0011
0000
0000
0000
0000
0000
0101
0000
0000
0000
0000
0000
1020
0030
0000
0000
0110
0000
0000
0000
,  // measure 43
0000
0000
1100
0000
0000
0000
0101
0000
0000
0000
0000
0000
1010
0000
0000
0000
0000
0000
1100
0000
0000
0200
0300
0000
0210
0300
0000
0000
0011
0000
0000
0000
,  // measure 44
0000
1001
0000
1010
0000
0000
0110
0000
0000
1100
0000
0000
0101
0000
0001
0000
,  // measure 45
0100
0000
0010
0000
1000
0000
0100
0000
0000
0000
0100
0000
0010
0000
0001
0000
0010
0000
0100
0000
0000
2000
3000
0000
0020
0030
0100
0000
0010
0000
1000
0000
,  // measure 46
0000
1000
0100
0010
0000
0010
0001
0000
0001
0010
0001
0000
1010
0000
0100
0010
,  // measure 47
0000
0000
0010
0000
1000
0000
0100
0000
0000
0000
0100
0000
0010
0000
0000
0000
0001
0000
0010
0000
0000
0200
0300
0000
2100
3000
0000
0000
1000
0000
0010
0000
,  // measure 48
0000
0010
0100
0001
0000
0001
0010
0000
0001
1000
0100
0000
0101
0000
0001
1000
,  // measure 49
0000
1000
0100
1000
0000
1000
0100
0000
0001
0100
1000
0000
0000
0000
0101
0000
,  // measure 50
0001
0100
0000
0010
0100
0000
1000
0100
0000
0010
0100
0000
1100
0000
1000
0010
,  // measure 51
0000
0100
0010
0000
0001
0010
0000
1000
0010
0000
0100
0010
0100
0010
1000
0100
,  // measure 52
0000
0100
0010
0000
0000
0100
0000
1000
0100
0010
0001
0000
2020
0000
0000
0000
,  // measure 53
0000
3030
0000
0000
;
