#VERSION:0.83;
#TITLE:Xenoverse;
#SUBTITLE:;
#ARTIST:Etia;
#TITLETRANSLIT:;
#SUBTITLETRANSLIT:;
#ARTISTTRANSLIT:;
#GENRE:;
#ORIGIN:;
#CREDIT:;
#BANNER:Xenoverse-banner.png;
#BACKGROUND:Xenoverse-bg.png;
#PREVIEWVID:;
#JACKET:;
#CDIMAGE:;
#DISCIMAGE:;
#LYRICSPATH:;
#CDTITLE:;
#MUSIC:Xenoverse - ETIA.ogg;
#OFFSET:-1.173000;
#SAMPLESTART:56.015999;
#SAMPLELENGTH:21.943001;
#SELECTABLE:YES;
#BPMS:0.000=87.500,
16.000=175.000,
208.000=87.500,
224.000=175.000;
#STOPS:;
#DELAYS:;
#WARPS:;
#TIMESIGNATURES:0.000=4=4;
#TICKCOUNTS:0.000=4;
#COMBOS:0.000=1;
#SPEEDS:0.000=1.000=0.000=0;
#SCROLLS:0.000=1.000;
#FAKES:;
#LABELS:0.000=Song Start;
#BGCHANGES:;
#KEYSOUNDS:;
#ATTACKS:
;

//---------------dance-single - K. Pearman----------------
#NOTEDATA:;
#CHARTNAME:K. Pearman;
#STEPSTYPE:dance-single;
#DESCRIPTION:K. Pearman;
#CHARTSTYLE:;
#DIFFICULTY:Beginner;
#METER:2;
#RADARVALUES:0.162939,0.260702,0.022219,0.022219,0.000000,154.000000,151.000000,3.000000,3.000000,0.000000,0.000000,0.000000,0.000000,0.000000,0.162939,0.260702,0.022219,0.022219,0.000000,154.000000,151.000000,3.000000,3.000000,0.000000,0.000000,0.000000,0.000000,0.000000;
#CREDIT:K. Pearman;
#NOTES:
0000
0000
0000
0000
,
0000
0000
0000
0000
,
0000
0000
0000
0000
,
0000
0000
0000
0000
,
0001
0000
0001
0000
,
1000
0000
1000
0000
,
0010
0000
0010
0000
,
0100
0000
0100
0000
,
0001
0001
0001
0000
,
1000
1000
1000
0000
,
0010
0000
0010
0000
,
0100
0000
0100
0000
,
0001
0001
0001
0000
,
1000
1000
1000
0000
,
0100
0100
0100
0000
,
0010
0010
0010
0000
,
0001
0000
1000
0000
,
0010
0000
0100
0000
,
0001
0001
0001
0001
,
1000
0000
0000
1001
,
0001
0001
0001
0000
,
1000
1000
1000
0000
,
0010
0010
0010
0000
,
0100
0100
0100
0000
,
0001
0000
0001
0000
,
1000
0000
1000
0000
,
0100
0000
0100
0000
,
0010
0000
0000
0000
,
0010
0010
0010
0000
,
0001
0001
0001
0000
,
1000
1000
1000
0000
,
0100
0100
0100
0000
,
0010
0000
0010
0000
,
0001
0000
0001
0000
,
1000
0000
0000
0000
,
0100
0000
0000
0000
,
1000
0000
1000
0000
,
0010
0000
0010
0000
,
0001
0000
0001
0000
,
0100
0000
0100
0000
,
0001
0000
0000
0000
,
1000
0000
0000
0000
,
0010
0000
0000
0000
,
0100
0000
0000
0000
,
0001
0000
0000
0000
,
1000
0000
0000
0000
,
0100
0000
0000
0000
,
0010
0000
0000
0000
,
0010
0000
0000
0000
,
0100
0000
0000
0000
,
1000
0000
0100
0000
,
0001
0000
0000
0000
,
2000
0000
0000
0000
,
0000
0000
3000
0000
,
0002
0000
0000
0000
,
0000
0000
0003
0000
,
0010
0010
0010
0000
,
0100
0100
0100
0000
,
1000
1000
1000
0000
,
0001
0001
0001
0000
,
0010
0000
0001
0000
,
1000
0000
0010
0000
,
0100
0100
0100
0000
,
1001
0000
0000
0000
,
1001
0000
0000
0001
,
0001
0000
0000
1000
,
1000
0000
0000
0100
,
0100
0000
0100
0000
,
1000
0000
0000
0001
,
0001
0000
0000
1000
,
1000
0000
0000
0000
,
0010
0000
0010
0000
,
0100
0000
0000
0000
,
0001
0000
0000
0000
,
1000
0000
0000
0000
,
0010
0000
0000
0000
,
1000
0000
0000
0000
,
0001
0000
0000
0000
,
0100
0000
0000
0000
,
0010
0000
0000
0000
,
0100
0000
0000
0000
,
0001
0000
0000
0000
,
1000
0000
0000
0000
,
0010
0000
0000
0000
,
1000
0000
0000
0000
,
0001
0000
0000
0000
,
0100
0000
0000
0000
,
0020
0000
0000
0000
,
0030
0000
0000
0000
;

//---------------dance-single - K. Pearman----------------
#NOTEDATA:;
#CHARTNAME:K. Pearman;
#STEPSTYPE:dance-single;
#DESCRIPTION:K. Pearman;
#CHARTSTYLE:;
#DIFFICULTY:Easy;
#METER:4;
#RADARVALUES:0.304717,0.456229,0.133314,0.014813,0.000000,288.000000,270.000000,18.000000,2.000000,0.000000,0.000000,2.000000,0.000000,0.000000,0.304717,0.456229,0.133314,0.014813,0.000000,288.000000,270.000000,18.000000,2.000000,0.000000,0.000000,2.000000,0.000000,0.000000;
#CREDIT:K. Pearman;
#NOTES:
0000
0000
0000
0000
,
0000
0000
0000
0000
,
0000
0000
0000
0000
,
0000
0000
0000
0000
,
1000
1000
0010
0010
,
0100
0010
1000
0000
,
0001
0001
0100
0100
,
0010
0100
0001
0000
,
1000
1000
0100
0100
,
0010
0100
1000
0000
,
0001
0001
0010
0010
,
0100
0010
0001
0000
,
1001
0000
0010
0000
,
1001
0000
0100
0000
,
1001
0000
0001
0000
,
1001
0000
1000
0000
,
0110
0000
1001
0000
,
1100
0000
0101
0000
,
0110
1001
1010
0011
,
1001
0000
0000
1001
,
0100
0100
1000
1000
,
0010
1000
0100
0000
,
0010
0010
0001
0001
,
0100
0001
0010
0000
,
0100
0100
1000
1000
,
0001
1000
0100
0000
,
0010
0010
0001
0001
,
2000
0000
0000
3000
,
0001
0100
0100
0001
,
1000
0100
0100
1000
,
0001
0010
1000
0010
,
0001
0100
1000
0100
,
0001
0100
0100
0001
,
1000
0100
0100
1000
,
0004
4000
0000
0000
0000
0000
3003
0000
,
0110
0000
0000
0000
,
1001
0001
0001
0100
,
0010
0010
0010
0100
,
1000
1000
1000
0100
,
0001
1000
0001
1000
,
0001
0010
0010
0010
,
0100
0010
0010
0010
,
1000
0010
0010
0010
,
1000
0010
0001
0010
,
0100
1000
0010
1000
,
0100
1000
0010
1000
,
0001
1000
0100
1000
,
0001
1000
0100
0100
,
0010
0001
1000
0001
,
0010
0001
1000
0001
,
0100
0010
0001
0010
,
0100
0100
0100
0000
,
1001
0000
1000
0000
,
0001
0000
0100
0000
,
0010
0000
1000
0000
,
0001
0000
0100
0000
,
0100
0100
0100
0100
,
0010
0010
0010
0010
,
1000
1000
1000
1000
,
0001
0001
0001
0001
,
0010
0100
1000
0100
,
0001
0100
0010
0100
,
1000
0001
0100
0010
,
1000
0000
0000
0000
,
1001
0001
0001
0100
,
0010
0010
0010
0100
,
1000
1000
1000
0100
,
0001
1000
0100
0000
,
0010
0001
0001
0001
,
0010
1000
1000
1000
,
0010
0100
0100
0100
,
0010
0001
1000
0010
,
0100
1000
0100
1000
,
0001
0100
0001
0100
,
0010
1000
0010
1000
,
0001
0010
0001
0010
,
0100
1000
0100
1000
,
0010
1000
0010
1000
,
0001
0100
0001
0100
,
0001
0010
0001
0010
,
0100
0000
0000
0000
,
1000
0000
0000
0000
,
0010
0000
0000
0000
,
0001
0000
0000
0000
,
0100
0000
0000
0000
,
0001
0000
0000
0000
,
0010
0000
0000
0000
,
2000
0000
0000
0000
,
3000
0000
0000
0000
;

//---------------dance-single - K. Pearman----------------
#NOTEDATA:;
#CHARTNAME:K. Pearman;
#STEPSTYPE:dance-single;
#DESCRIPTION:K. Pearman;
#CHARTSTYLE:;
#DIFFICULTY:Medium;
#METER:7;
#RADARVALUES:0.407347,0.521404,0.214783,0.288846,0.022219,385.000000,356.000000,29.000000,39.000000,1.000000,0.000000,0.000000,0.000000,0.000000,0.407347,0.521404,0.214783,0.288846,0.022219,385.000000,356.000000,29.000000,39.000000,1.000000,0.000000,0.000000,0.000000,0.000000;
#CREDIT:K. Pearman;
#NOTES:
0000
0000
0000
0000
,
0000
0000
0000
0000
,
0000
0000
0000
0000
,
0000
0000
0000
0000
,
1000
0100
0010
0000
0100
0000
1000
0000
,
0001
0100
0010
0000
0100
0000
0001
0000
,
1000
0010
0100
0000
0010
0000
1000
0000
,
0001
0010
0100
0000
0010
0000
0001
0000
,
1000
0100
1000
0000
0001
0000
1000
0000
,
0001
0100
0001
0000
1000
0000
0001
0000
,
1000
0010
1000
0000
0001
0000
1000
0000
,
0001
0010
0001
0000
1000
0000
0001
0000
,
1000
0100
0020
0000
1000
0000
0031
0000
,
0001
0100
0020
0000
0001
0000
1030
0000
,
1000
0100
0020
0000
1000
0000
0031
0000
,
0001
0100
0020
0000
0001
0000
1030
0000
,
1010
0001
0011
1000
,
1100
0001
0101
1000
,
1001
0110
1001
0220
,
0000
0330
0000
1001
,
0001
0000
0010
0001
0100
0000
0001
0000
,
2000
0000
3100
1000
0001
0000
1000
0000
,
0200
0310
0001
0100
,
1000
0100
0010
1000
,
0110
0000
0001
0000
1000
0100
1000
0100
,
2000
0000
3001
0100
0001
0000
1000
0000
,
0010
0000
0100
0000
0000
0010
0000
0000
0100
0000
0000
0010
0000
0000
0100
0000
,
0010
0000
0000
0000
,
1001
0000
1000
0100
0020
0000
0031
0000
,
1000
0000
0010
0100
0020
0000
1030
0000
,
0001
0010
0100
0001
,
0100
0010
0001
1000
,
1001
0000
0001
0000
0100
0001
0100
0001
,
0100
0000
0010
1000
0010
0000
0100
0000
,
0001
0000
1000
0000
0000
0001
0000
0000
1000
0000
0000
0001
0000
0000
2000
0000
,
0002
0000
3003
0000
,
1001
0000
1000
0000
0001
0010
0001
0010
,
0100
0000
1000
0000
0001
0100
0001
0100
,
0010
0000
1000
0000
0001
0100
0001
0010
,
0200
0301
0200
1300
,
1001
0000
0001
0000
1000
0100
1000
0100
,
0010
0000
0001
0000
1000
0010
1000
0010
,
0100
0000
0001
0000
1000
0010
1000
0100
,
0020
1030
0020
0031
,
0010
0000
0001
0000
1000
0000
0100
1000
,
0001
0000
1000
0000
0010
0000
0100
0001
,
1000
0000
0010
0000
0100
0000
0001
0010
,
0100
1000
0001
0100
,
0010
1000
0100
0001
,
0100
0010
0001
1000
,
0010
0000
0100
0000
0001
0000
1000
0001
,
2000
0000
0000
3000
,
00M2
0000
0000
0200
0000
0000
0000
0000
0000
0000
0000
0000
0000
0000
0000
0000
,
0303
0000
0000
0000
,
2000
0000
0000
0200
0000
0000
0000
0000
0000
0000
0000
0000
0000
0000
0000
0000
,
3300
0000
0000
0000
,
1001
1100
1001
0010
,
1001
0101
1001
0010
,
0101
1001
1010
0100
,
1010
1001
0101
0100
,
0020
1030
0020
0130
,
0020
0031
0020
0130
,
0020
2030
3002
0023
,
0130
0000
0000
0000
,
1001
0000
1000
0000
0001
0010
0001
0010
,
0100
0000
1000
0000
0001
0100
0001
0100
,
0010
0000
1000
0000
0001
0100
0001
0010
,
0200
0301
0200
1300
,
1001
0000
0001
0000
1000
0100
1000
0100
,
0010
0000
0001
0000
1000
0010
1000
0010
,
0100
0000
0001
0000
1000
0010
1000
0100
,
0020
0000
0030
0000
,
0001
0100
0010
0000
0100
0000
0001
0000
,
1000
0100
0010
0000
0100
0000
1000
0000
,
0001
0010
0100
0000
0010
0000
0001
0000
,
1000
0010
0100
0000
0010
0000
1000
0000
,
0001
1000
0100
0000
1000
0000
0010
0000
,
1000
0001
0100
0000
0001
0000
0010
0000
,
0001
0100
1000
0000
0100
0000
0001
0000
,
1000
0100
0001
0000
0100
0000
1000
0000
,
0002
0010
0000
1003
,
2000
0010
0000
0001
,
3200
0001
0000
1000
,
0320
0001
0000
1000
,
0031
0100
0000
0010
,
0000
1000
0000
0001
,
0000
0010
0000
0100
,
2002
0000
0000
0000
,
3003
0000
0000
0000
;

//---------------dance-single - K. Pearman----------------
#NOTEDATA:;
#CHARTNAME:K. Pearman;
#STEPSTYPE:dance-single;
#DESCRIPTION:K. Pearman;
#CHARTSTYLE:;
#DIFFICULTY:Hard;
#METER:9;
#RADARVALUES:0.617898,0.651755,0.155533,0.222189,0.211080,584.000000,563.000000,21.000000,30.000000,6.000000,0.000000,4.000000,0.000000,0.000000,0.617898,0.651755,0.155533,0.222189,0.211080,584.000000,563.000000,21.000000,30.000000,6.000000,0.000000,4.000000,0.000000,0.000000;
#CREDIT:K. Pearman;
#NOTES:
0000
0000
0000
0000
,
0000
0000
0000
0000
,
0000
0000
0000
0000
,
0000
0000
0000
0000
,
0001
0100
0010
0100
0001
1000
0100
0010
,
0001
0100
0010
0100
0001
1000
0100
0010
,
0001
0010
0100
0010
0001
1000
0010
0100
,
0001
0010
0100
0010
0001
1000
0010
0100
,
0100
0010
1000
0001
0100
0001
1000
0100
,
0010
0001
0100
0010
0100
0001
1000
0100
,
0010
0001
0100
0010
0100
0001
1000
0100
,
0010
0001
0100
0010
0100
0001
1000
0100
,
2100
0000
0001
0000
0100
0000
3001
1000
,
0002
0000
0100
0000
1000
0000
0103
0001
,
2000
0000
0010
0000
0001
0000
3010
1000
,
0002
0000
0100
0000
1000
0000
0103
0001
,
2000
0000
3010
1000
0002
0000
0013
0100
,
2000
0000
3010
0100
0002
0000
0103
0010
,
1000
0100
0001
0100
1000
0010
0100
0010
,
1000
000M
00M0
0M00
M000
0M00
101M
0000
,
0001
0000
0100
0000
0001
1000
0001
0000
0200
0000
0000
0000
0310
0000
1000
0000
,
0200
0000
0000
0000
0310
0000
0001
0000
0100
0001
0100
0000
0001
0000
0000
0000
,
2000
0000
3001
0100
0001
1000
0100
0010
,
0001
0010
0001
0000
2000
0000
0000
0000
0100
0000
0000
0000
3002
0000
0000
0000
,
0013
0000
0000
0000
0100
0000
0100
0000
4000
0004
0000
0000
0000
0000
0000
0003
,
3020
0000
1030
0010
0002
0000
0023
0000
,
0130
0000
0100
0000
0001
1000
0000
0000
0001
0000
0000
1000
0000
0000
0001
0000
,
0200
0000
0010
0000
0000
0010
0000
0000
0000
0000
0310
0000
0100
0000
0010
0000
,
1000
0000
0001
0000
0000
0100
0000
0000
0001
0000
0000
1000
0000
0000
0100
0000
,
0010
0000
0001
0000
0000
0100
0000
0000
0001
0000
0100
0000
1000
0000
0100
0000
,
0001
0000
0010
0000
0000
0100
0000
0000
1000
0000
0000
0001
0000
0000
0100
0000
,
0010
0000
0100
0000
0000
0001
0000
0000
0000
0000
1000
0000
0001
0000
0100
0010
,
0100
0000
0001
0000
1000
0000
0100
0000
4000
0004
0000
0000
0000
0000
0000
0003
,
3200
0000
0310
0001
0100
0001
0010
0100
,
1000
0000
0100
0000
0000
1000
0000
0000
0001
0000
0000
0010
0000
0000
0001
0000
,
0200
0000
0000
0300
,
1001
0001
0100
2000
0000
3100
0001
1000
,
0100
0010
0001
2000
0000
3001
0010
0100
,
0001
0100
0010
0002
0000
0103
0010
1000
,
0010
0100
0010
0002
0000
0013
1000
0001
,
1000
0100
0010
2000
0000
3010
0001
0100
,
0010
0100
0001
2000
0000
3010
0100
0002
,
0000
0013
0100
2000
0000
3100
0001
0200
,
0000
0310
1000
0020
0000
0031
0100
0000
,
0101
0000
1001
0000
0001
0100
0001
0100
,
0010
0010
1000
0000
1000
0100
1000
0100
,
0010
0010
0001
0000
0001
0010
0001
0010
,
0100
0100
1000
1000
0001
0001
0100
0010
,
1000
0001
0100
0001
1000
0010
0100
0000
,
0001
0010
0100
1000
0001
0100
0010
0000
,
0100
0001
1000
0100
0010
0001
0100
0001
,
0010
0000
0000
0100
1000
0000
0000
0010
0100
0010
1000
0000
0001
0000
0100
0000
,
0001
0100
0010
1000
0000
1000
0000
0010
0000
0010
0000
0100
0000
0100
0000
0001
,
0000
0001
0000
1000
0000
1000
0000
0100
0000
0100
0000
0010
0000
0010
0000
0001
,
0010
0100
1000
0001
0000
0001
0000
0100
0000
0100
0000
0010
0000
0010
0000
1000
,
0000
1000
0000
0010
0000
0010
0000
0100
0000
0100
0000
0001
0000
0001
0000
1000
,
0100
0000
1000
0000
0100
0000
0001
0000
0100
0000
0000
0010
0000
0000
0100
0000
,
0010
0000
1000
0000
0010
0000
0001
0000
0010
0000
0000
0100
0000
0000
0010
0000
,
0100
0000
1000
0000
0100
0000
0001
0000
0100
0000
0000
0010
0000
0000
0100
0000
,
0010
0001
0010
1000
0010
0001
0100
0010
,
1100
0100
0000
0010
0011
0001
0000
0100
,
0101
0001
0000
1000
1010
0010
0000
0100
,
0001
0010
1000
0010
0100
1000
0001
0100
,
0010
0000
0000
1000
0001
0000
0000
0001
1000
0000
0100
0000
0100
0000
0000
0000
,
0010
0001
0100
0001
0010
0001
0100
0100
,
0010
1000
0100
1000
0010
1000
0100
0100
,
0010
0001
1000
0001
0010
0001
1000
1000
,
0000
0010
0100
0001
0000
0010
0100
1000
,
0001
0100
0010
0100
0001
0100
1000
1000
,
0100
0001
1000
0100
0010
0100
0001
0001
,
0100
0010
0100
1000
0001
0100
0010
1000
,
0000
0001
0100
0010
0000
0100
0001
0000
,
1000
0100
0010
0001
1000
0100
0010
0100
,
1000
0100
0010
0001
1000
0100
0010
0100
,
1000
0100
0010
0001
1000
0100
0010
0100
,
1000
0010
0100
0001
1000
0100
0010
0001
,
1000
0010
0100
0001
1000
0010
0100
0010
,
1000
0010
0100
0001
1000
0010
0100
0010
,
1000
0010
0100
0001
1000
0010
0100
0010
,
1000
0010
0100
0001
1000
0010
0100
0010
,
1000
1100
0001
0101
,
1000
1010
0001
0011
,
0010
1001
0100
1001
,
0001
0101
1000
1100
,
0001
0011
1000
1010
,
0010
0110
0100
1001
,
0001
0010
0100
1000
0001
0100
0010
1000
,
0200
0000
0000
0000
,
0300
0000
0000
0000
;

//---------------dance-single - K. Pearman----------------
#NOTEDATA:;
#CHARTNAME:K. Pearman;
#STEPSTYPE:dance-single;
#DESCRIPTION:K. Pearman;
#CHARTSTYLE:;
#DIFFICULTY:Challenge;
#METER:13;
#RADARVALUES:1.001968,1.078451,0.170345,0.133314,1.196119,947.000000,924.000000,23.000000,18.000000,27.000000,0.000000,3.000000,0.000000,0.000000,1.001968,1.078451,0.170345,0.133314,1.196119,947.000000,924.000000,23.000000,18.000000,27.000000,0.000000,3.000000,0.000000,0.000000;
#CREDIT:K. Pearman;
#NOTES:
0000
0000
0000
0000
,
0000
0000
0000
0000
,
0000
0000
0000
0000
,
0000
0000
0000
0000
,
0001
0010
0001
0100
0010
1000
0100
1000
0001
1000
0010
0100
0001
0010
0100
0010
,
0001
0010
0001
0100
0010
1000
0100
1000
0001
1000
0010
0100
0001
0010
0100
0010
,
0001
0010
0001
0100
0010
1000
0100
1000
0001
1000
0010
0100
0001
0010
0100
0010
,
0001
0010
0001
0100
0010
1000
0100
1000
0001
1000
0010
0100
0001
0010
0100
0010
,
0001
0100
0010
1000
0100
1000
0010
0100
0001
1000
0001
0100
0010
1000
0100
1000
,
0001
0100
0010
1000
0100
1000
0010
0100
0001
1000
0001
0100
0010
1000
0100
1000
,
0001
0100
0010
1000
0100
1000
0010
0100
0001
1000
0001
0100
0010
1000
0100
1000
,
0001
0100
0010
1000
0100
1000
0010
0100
0001
1000
0001
0100
0010
1000
0100
1000
,
0010
0000
0100
0000
0001
0000
1000
0000
0001
0000
0100
0010
1000
0000
0001
0000
,
0101
0000
0100
0000
0001
0000
1000
0000
0001
0000
0100
0010
1000
0000
0100
0000
,
1100
0000
1000
0000
0001
0000
0010
0000
0001
0000
0100
0010
1000
0000
0001
0000
,
0101
0000
0100
0000
0010
0000
1000
0000
0001
0000
0100
0010
0000
0100
0010
0000
,
0101
0000
0001
0010
0000
0001
0010
0000
1100
0000
1000
0010
0000
1000
0010
0000
,
0110
0000
0001
1000
0000
0001
1000
0000
0110
0000
1000
0001
0000
1000
0001
0000
,
0100
0000
0000
0001
0100
0001
0100
0000
0000
0010
1000
0010
1000
0000
0000
0100
1000
0100
1000
0000
0000
0001
0010
0001
,
0010
M000
0M00
00M0
000M
M000
011M
0000
,
1001
0000
0000
0000
1000
0100
0010
0001
0200
0000
0000
0010
0300
0000
0010
0000
,
1000
0000
0100
0000
0010
0001
1000
0100
0010
0001
1000
0001
1000
0000
0010
0000
,
0200
0000
0301
0020
0031
0200
0301
2000
,
3001
0100
0001
0000
0404
0000
0000
0000
0303
0000
0000
0000
2002
0000
3003
0000
,
2020
0000
3030
0000
1000
0000
0010
0000
1000
0100
1000
0100
1000
0100
1000
0100
,
2000
3000
0001
0100
1000
0000
0200
0000
,
0301
0000
0010
0000
0100
1000
0001
0000
0100
0000
0001
1000
0100
0000
0010
0000
,
0011
0000
1000
0100
0001
0000
0100
0010
0100
0010
0001
0000
1000
0000
0001
0000
,
0100
0000
0010
0000
1000
0010
0100
0001
0040
0000
0000
0000
0130
0000
0010
0000
,
0001
0000
1000
0000
0001
0100
0010
1000
0001
0100
0001
0100
0001
0000
1000
0000
,
0001
0000
0100
0000
0010
1000
0001
0000
0100
0000
0010
1000
0001
0000
0100
0000
,
0010
1000
0100
0010
0001
0000
0100
0000
1000
0000
0100
0000
0001
0000
1000
0000
,
1001
0000
0001
0000
0010
0000
0100
0000
1000
0001
1000
0001
1000
0001
1000
0001
,
2000
0000
3010
0100
0002
0000
0023
0000
,
0130
0000
1000
0000
0000
1100
0000
0000
0001
0000
0000
0100
0000
0000
0101
0000
,
2002
0000
0000
3003
,
0100
1000
0010
1000
0100
1000
0001
0001
,
0100
0001
0010
0001
0100
0001
1000
1000
,
0010
1000
0001
1000
0010
1000
0100
0100
,
0010
0001
1000
1000
0001
0010
0100
0100
,
0010
0001
0100
0001
1000
0001
0100
0100
,
0010
1000
0001
1000
0010
1000
0001
0001
,
0010
0100
1000
0100
0010
0100
1000
1000
,
0001
0010
0100
0100
0010
0001
1000
1000
,
1010
0010
0100
0001
1000
0100
0010
0010
,
0001
0100
0001
0010
0100
1000
0001
0001
,
0100
0010
0100
0001
1000
0100
0010
0010
,
0001
1000
0010
0010
0100
0100
0001
0001
,
1000
0000
0001
0100
0001
0000
1000
0010
1000
0000
0001
0010
0001
0000
1000
0100
,
1000
0000
0010
0100
0001
0000
0010
0100
1000
0000
0010
1000
0001
0000
0100
0001
,
1000
0100
0010
0001
1000
0010
0100
0001
1000
0100
1000
0001
0010
0001
1000
0010
,
1000
0000
0001
0010
0100
0000
0001
0000
0100
0010
0001
1000
0010
0000
0100
M000
,
0001
0100
0010
1000
0000
0001
01M0
0000
0001
1M00
0000
0001
0010
0100
0000
1000
,
0000
00M1
0000
1M00
0000
0010
0000
0100
0000
0001
00M0
1000
0M00
0001
0000
0010
,
0100
1000
010M
0010
0000
M001
0100
0000
0010
100M
0000
0100
M010
0001
0000
1000
,
00M0
0001
0000
0100
00M0
1000
0000
0100
0000
0001
0000
10M0
0M01
10M0
0M01
10M0
,
0M01
0000
0001
0000
1000
0000
1000
0000
0001
0000
0100
0010
0100
0000
0001
0000
,
1000
0000
1000
0000
0001
0000
0001
0000
1000
0000
0010
0100
0010
0000
1000
0000
,
0100
0000
0100
0000
0010
0000
0010
0000
0100
0000
1000
0001
1000
0000
0100
0000
,
0010
0000
0010
0000
0001
0000
0001
0000
1000
0000
0100
1000
0000
0001
0010
0000
,
1100
0000
0001
0100
0000
0010
1000
0000
0011
0000
1000
0100
0000
0010
0001
0000
,
0110
0000
0001
1000
0000
0010
0100
0000
0110
0000
0010
0100
0000
0001
1000
0000
,
1100
0000
0000
0001
0100
0001
0100
0000
0000
0010
1000
0010
1000
0000
0000
0001
0010
0001
0010
0000
0000
0100
1000
0100
,
1000
0000
0001
0100
1000
0000
0100
0001
1000
0100
0010
0000
0010
0000
0001
0100
,
0001
0001
1000
0010
0100
0001
1000
1000
,
0010
0100
0001
1000
0100
0010
0100
0100
,
0010
0001
1000
0100
1000
0010
0100
0100
,
0001
1000
0010
0010
1000
1000
0001
0001
,
0100
0010
1000
0010
0100
0001
0010
0100
,
0010
0001
1000
0100
0010
0100
1000
0001
,
1000
0100
0010
0001
1000
0010
1000
0001
1000
0100
0010
0001
0100
0010
0100
0001
,
1000
0000
0001
0100
1000
0000
0100
0000
0001
0010
0100
0000
1000
0000
0001
0000
,
1000
0100
1000
0010
0100
0001
0010
0001
1000
0001
0100
0010
1000
0100
0010
0100
,
1000
0100
1000
0010
0100
0001
0010
0001
1000
0001
0100
0010
1000
0100
0010
0100
,
1000
0100
1000
0010
0100
0001
0010
0001
1000
0001
0100
0010
1000
0100
0010
0100
,
1000
0100
1000
0010
0100
0001
0010
0001
1000
0001
0100
0010
1000
0100
0010
0100
,
1000
0010
0100
0001
0010
0001
0100
0010
1000
0001
1000
0010
0100
0001
0010
0001
,
1000
0010
0100
0001
0010
0001
0100
0010
1000
0001
1000
0010
0100
0001
0010
0001
,
1000
0010
0100
0001
0010
0001
0100
0010
1000
0001
1000
0010
0100
0001
0010
0001
,
1000
0010
0100
0001
0010
0001
0100
0010
1000
0001
1000
0010
0100
0001
0010
0001
,
1000
0100
1000
0001
0010
0100
1000
0001
0100
0010
0100
0001
1000
0010
0100
0010
,
1000
0100
1000
0001
0010
0100
1000
0001
0100
0010
0100
0001
1000
0010
0100
0010
,
1000
0100
1000
0001
0010
0100
1000
0001
0100
0010
0100
0001
1000
0010
0100
0010
,
1000
0100
1000
0001
0010
0100
1000
0001
0100
0010
0100
0001
1000
0010
0100
0001
,
0010
0100
1000
0001
1000
0001
0100
0010
1000
0010
0100
0010
1000
0001
0010
0001
,
1000
0100
0010
0001
1000
0010
1000
0001
0100
0010
1000
0001
0010
0001
1000
0001
,
1000
0100
1000
0001
0100
0001
0100
0010
1000
0001
1000
0010
0100
0001
0010
0200
,
2000
0000
0000
0000
,
3300
MM00
0000
0000
;

//---------------dance-double - K. Pearman----------------
#NOTEDATA:;
#CHARTNAME:;
#STEPSTYPE:dance-double;
#DESCRIPTION:K. Pearman;
#CHARTSTYLE:;
#DIFFICULTY:Easy;
#METER:4;
#RADARVALUES:0.308949,0.358465,0.059250,0.029625,0.000000,292.000000,284.000000,8.000000,4.000000,24.000000,0.000000,0.000000,0.000000,0.000000,0.308949,0.358465,0.059250,0.029625,0.000000,292.000000,284.000000,8.000000,4.000000,24.000000,0.000000,0.000000,0.000000,0.000000;
#CREDIT:;
#NOTES:
00000000
00000000
00000000
00000000
,
00000000
00000000
00000000
00000000
,
00000000
00000000
00000000
00000000
,
00000000
00000000
00000000
00000000
,
10000000
01000000
10000000
10000000
,
00010000
01000000
00010000
00010000
,
00100000
00010000
01000000
00000000
,
00000100
00001000
00000010
00000000
,
00001000
00000001
00000010
00000010
,
00000001
00001000
00000010
00000010
,
00000100
00000001
00001000
00000000
,
00000100
00001000
00000001
00000000
,
00001001
00000000
00000000
00000100
,
00011000
00000000
00000000
01000000
,
00011000
00000000
00000000
00001000
,
00010000
01000000
10000000
00010000
,
10000000
00100000
00010000
00100000
,
10000000
00100000
00010000
00100000
,
01000000
00001000
00010000
00000100
,
00000020
00000000
00000030
00001001
,
00000100
00000100
00001000
00001000
,
00000010
00001000
00000010
00001000
,
00000001
00000001
00000100
00000100
,
00000010
00000002
00000000
00000013
,
00001000
00000100
00010000
00001000
,
01000000
00001000
00010000
00000000
,
00001000
00100000
00001000
01000000
,
01001000
00010000
10000000
01000000
,
11000000
10000000
00010000
00100000
,
01000000
10000000
00010000
01000000
,
00100000
00100000
01000000
01000000
,
00010000
00200000
00000000
01300000
,
10000000
00010000
01000000
10000000
,
01000000
00100000
01000000
00010000
,
10000000
01000000
00100000
00010000
,
10010000
00000000
00000000
00000000
,
10000000
00010000
01000000
01000000
,
00001000
00010000
00000100
00000100
,
00001000
00000001
00000100
00000100
,
00000010
00001000
00010000
00001000
,
00000010
00010000
00001000
00001000
,
00100000
00001000
00010000
00010000
,
00100000
10000000
00010000
00010000
,
00100000
00001000
00010000
00001000
,
00100000
01000000
00010000
01000000
,
00100000
00010000
01000000
01000000
,
00001000
00010000
00000100
00001000
,
00000010
00000100
00001000
00000100
,
00000010
00001000
00000001
00000100
,
00000100
00000001
00001000
00000010
,
00010000
00001000
00100000
01000000
,
10000000
00000000
00000000
00000000
,
00010000
M0000000
0M000000
00M00000
,
000M0000
0000M000
00000M00
000000M0
,
0000100M
000000M0
00000M00
0000M000
,
000M0000
00M00000
0M000000
M0000000
,
000M0001
00000100
00000001
M00M0000
,
00001000
00000100
00001000
M00M0000
,
00010000
01000000
00010000
0000M00M
,
10000000
01000000
10000000
0000M00M
,
00100000
00001000
00010000
00001000
,
01000000
10000000
01000000
00010000
,
00100000
00001000
00010000
00000100
,
00000001
00000000
00000000
00000000
,
00011000
01000000
00001000
00010000
,
00000100
00010000
00001000
01000000
,
00100000
00100000
01000000
01000000
,
00010000
10000000
01000000
00010000
,
00001000
00001000
00010000
00010000
,
00001000
00000100
00000001
00001000
,
00000001
00000010
00010000
00000010
,
00000001
00000100
00000010
00001000
,
00000001
00000100
00000001
00000100
,
00000010
00001000
00000100
00000000
,
01000000
00010000
01000000
00010000
,
00100000
00010000
10000000
00000000
,
01000000
00100000
01000000
00100000
,
00010000
01000000
10000000
00000000
,
01000000
00001000
00010000
00001000
,
00100000
00001000
00010000
00000000
,
00000100
00001000
00000010
00001000
,
00000001
00000100
00000001
00000000
,
00000010
00000100
00010000
00000100
,
00000010
00001000
00010000
00000000
,
00100000
00010000
00001000
01000000
,
00001000
00010000
00100000
00000000
,
10000000
01000000
00100000
00010000
,
02000000
00000000
00000000
00000000
,
03000000
00000000
00000000
00000000
;

//---------------dance-double - K. Pearman----------------
#NOTEDATA:;
#CHARTNAME:K. Pearman;
#STEPSTYPE:dance-double;
#DESCRIPTION:K. Pearman;
#CHARTSTYLE:;
#DIFFICULTY:Medium;
#METER:7;
#RADARVALUES:0.416869,0.488816,0.170345,0.044438,0.014813,394.000000,371.000000,23.000000,6.000000,29.000000,0.000000,0.000000,0.000000,0.000000,0.416869,0.488816,0.170345,0.044438,0.014813,394.000000,371.000000,23.000000,6.000000,29.000000,0.000000,0.000000,0.000000,0.000000;
#CREDIT:K. Pearman;
#NOTES:
// measure 0
00000000
00000000
00000000
00000000
,  // measure 1
00000000
00000000
00000000
00000000
,  // measure 2
00000000
00000000
00000000
00000000
,  // measure 3
00000000
00000000
00000000
00000000
,  // measure 4
10000000
01000000
00100000
01000000
,  // measure 5
10000000
00010000
01000000
00100000
,  // measure 6
01000000
00001000
00010000
00000100
,  // measure 7
00010000
00001000
00000100
00000001
,  // measure 8
00000010
00001000
00000010
00000001
,  // measure 9
00000100
00001000
00010000
00100000
,  // measure 10
10000000
01000000
00010000
01000000
,  // measure 11
10000000
00100000
01000000
00001000
,  // measure 12
00010000
00001000
00010000
00000000
00000100
00000000
00000100
00000000
,  // measure 13
00010000
00001000
00010000
00000000
01000000
00000000
01000000
00000000
,  // measure 14
00010000
00001000
00010000
00000000
00000100
00000000
00000100
00000000
,  // measure 15
00010000
00001000
00010000
00000000
01000000
00000000
01000000
00000000
,  // measure 16
00010000
00011000
00001000
00001100
,  // measure 17
00000100
00000101
00000001
00000011
,  // measure 18
00000001
00000010
00000100
00001000
00000001
00000010
00000100
00001000
,  // measure 19
00000001
00000000
00000000
00000000
,  // measure 20
00011000
00000000
10010000
00000000
10100000
00000000
00100000
10000000
,  // measure 21
01000000
00100000
01000000
10000000
,  // measure 22
00010000
00000000
01000000
00000000
10000000
01000000
00010000
00000000
,  // measure 23
00100000
00002000
00010000
01000000
,  // measure 24
00023000
00000000
00030100
00010000
00000100
00000000
00001000
00000000
,  // measure 25
00000001
00000000
00000010
00000100
00001000
00000000
00000001
00000000
,  // measure 26
00001000
00000000
00000100
00000000
00000000
00001000
00000000
00000000
00000001
00000000
00000000
00000100
00000000
00000000
00000001
00000000
,  // measure 27
00001000
00000110
00000001
00000110
,  // measure 28
00001001
00000000
00000100
00010000
00001000
00000000
01000000
00001000
,  // measure 29
00010000
00000000
00000010
00010000
00001000
00000000
00100000
00001000
,  // measure 30
00010000
00100000
10000000
00010000
,  // measure 31
10000000
21000000
30010000
01010000
,  // measure 32
00110000
00000000
00100000
01000000
10000000
00010000
01000000
00100000
,  // measure 33
00010000
00001000
00000100
00000010
,  // measure 34
00001000
00000000
00000001
00000000
00000000
00000010
00000000
00000000
00000001
00000000
00001000
00000000
00000000
00000100
00000000
00000000
,  // measure 35
00002000
00000000
00003000
00000000
,  // measure 36
00000100
00010000
00001000
00000000
00010000
00000000
00000100
00000000
,  // measure 37
00010000
00001000
01000000
00000000
00001000
00000000
00010000
00000000
,  // measure 38
00001000
00100000
00010000
00000000
00100000
00000000
00001000
00000000
,  // measure 39
00010000
00000010
00001000
00000000
00000010
00010000
00001000
00000000
,  // measure 40
00100000
00000000
00010000
00000000
01000000
00000000
10000000
01000000
,  // measure 41
00010000
00000000
10000000
00000000
01000000
00000000
00010000
01000000
,  // measure 42
10000000
00010000
01000000
00100000
,  // measure 43
10000000
00010000
00100000
00001000
,  // measure 44
00010000
00000100
00001000
00000000
00000100
00000000
00010000
00000000
,  // measure 45
00001000
00010000
00000100
00000000
00000010
00000000
00000100
00000000
,  // measure 46
00001000
00000010
00000100
00000000
00000010
00000000
00001000
00000000
,  // measure 47
00000100
00000010
00000001
00000000
00001000
00000010
00000100
00000000
,  // measure 48
00000001
00000100
00001000
00000000
00000100
00000001
00000010
00000000
,  // measure 49
00000100
00001000
00000010
00000000
00000001
00000010
00001000
00000000
,  // measure 50
00000100
00010000
00001000
00000000
01000000
00001000
00010000
00000000
,  // measure 51
00100000
10000000
01000000
00100000
,  // measure 52
00010000
00000000
M000000M
00M00M00
00000000
0M0000M0
00000000
00M00M00
,  // measure 53
00000000
M000000M
00000000
0M0000M0
00000000
00M00M00
00000000
M000000M
,  // measure 54
00011000
0M0000M0
00000000
M000000M
00000000
00M00M00
00000000
0M0000M0
,  // measure 55
00000000
M0000000
0M000000
00M00000
000M0000
0000M000
00000000
00000000
,  // measure 56
00001000
00000001
00001000
00000001
00001000
00000000
00000000
00000000
,  // measure 57
00000100
00010000
00000100
00010000
00000100
00000000
00000000
00000000
,  // measure 58
01000000
00001000
01000000
00001000
01000000
00000000
00000000
00000000
,  // measure 59
00010000
10000000
00010000
10000000
00010000
00000000
00000000
00000000
,  // measure 60
00100000
11000000
00100000
01010000
,  // measure 61
01000000
00011000
00000100
00012000
,  // measure 62
00003010
00000000
00000001
00000000
00000100
00000000
00001000
00010000
,  // measure 63
00000100
00000000
00000000
00001001
,  // measure 64
00000001
00000010
00000100
00000010
00000001
00000010
00000100
00000000
,  // measure 65
00010000
00001000
01000000
00010000
,  // measure 66
10000000
00100000
01000000
00100000
10000000
00000000
00010000
00000000
,  // measure 67
00100000
01000000
10000000
00010000
,  // measure 68
01000000
00011000
00000100
00011000
,  // measure 69
00100000
00011000
00000010
00011000
,  // measure 70
00100000
00001000
00010000
00000000
00000010
00010000
00001000
00000000
,  // measure 71
01000000
00001000
00010000
00000000
00000100
00010000
00001000
00000000
,  // measure 72
00000100
00000001
00000010
00001000
,  // measure 73
00010000
00100000
10000000
01000000
,  // measure 74
00010000
00001000
00010000
01000000
,  // measure 75
10000000
00100000
00010000
00001000
,  // measure 76
00000010
00000001
00000100
00001000
,  // measure 77
00010000
00001000
00000100
00000001
,  // measure 78
00000010
00001000
00010000
00000100
,  // measure 79
00010000
00001000
01000000
00001000
,  // measure 80
00010000
00001000
00100000
00000000
00001000
00000000
00010000
00000000
,  // measure 81
00000010
00010000
00001000
00000000
01000000
00000000
00001000
00000000
,  // measure 82
00010000
00000100
00010000
00000000
00001000
00000000
01000000
00000000
,  // measure 83
00001000
01000000
00001000
00000000
00010000
00000000
00000100
00000000
,  // measure 84
00010000
01000000
10000000
00100000
,  // measure 85
00010000
00001000
01000000
00010000
,  // measure 86
01000000
00000000
00001000
00000000
00010000
00000000
00000100
00001000
,  // measure 87
00000002
00000000
00000000
00000000
,  // measure 88
00000003
00000000
00000000
00000000
;

//---------------dance-double - K. Pearman----------------
#NOTEDATA:;
#CHARTNAME:K. Pearman;
#STEPSTYPE:dance-double;
#DESCRIPTION:K. Pearman;
#CHARTSTYLE:;
#DIFFICULTY:Hard;
#METER:10;
#RADARVALUES:0.599911,0.586580,0.199970,0.081469,0.229596,567.000000,540.000000,27.000000,11.000000,40.000000,0.000000,0.000000,0.000000,0.000000,0.599911,0.586580,0.199970,0.081469,0.229596,567.000000,540.000000,27.000000,11.000000,40.000000,0.000000,0.000000,0.000000,0.000000;
#CREDIT:K. Pearman;
#NOTES:
00000000
00000000
00000000
00000000
,
00000000
00000000
00000000
00000000
,
00000000
00000000
00000000
00000000
,
00000000
00000000
00000000
00000000
,
10000000
01000000
10000000
00100000
10000000
01000000
00010000
00001000
,
00000100
00000001
00000010
00000001
00001000
00000001
00000100
00001000
,
00010000
01000000
10000000
00100000
10000000
00010000
10000000
01000000
,
00010000
00001000
00000100
00000001
00001000
00000100
00010000
00001000
,
01000000
00001000
00010000
00000010
00010000
00001000
00100000
00001000
,
01000000
00010000
10000000
01000000
00100000
00010000
10000000
00010000
,
01000000
00001000
00010000
00000100
00001000
00000001
00001000
00000010
,
00010000
00001000
00100000
00010000
10000000
01000000
00100000
00001000
,
00010000
00000000
00000010
00000000
00000100
00000000
00000001
00000000
00001000
00000000
00000000
00000100
00000000
00000000
00010000
00000000
,
00001000
00000000
01000000
00000000
00100000
00000000
01000000
00000000
00010000
00000000
00000000
00010000
00000000
00000000
00100000
00000000
,
01000000
00000000
00010000
00000000
01000000
00000000
10000000
00000000
00100000
00000000
00000000
00010000
00000000
00000000
00001000
00000000
,
00000010
00000000
00000001
00000000
00001000
00000000
00000001
00000000
00000100
00000000
00000100
00000010
00000000
00000010
00001000
00000000
,
00000100
00000000
00000000
00010000
00000000
00000000
00001000
00000000
00010000
00000000
00000000
00001000
00000000
00000000
00100000
00000000
,
00010000
01000000
10000000
00010000
00100000
10000000
01000000
00001000
,
00010000
00000010
00000100
00001000
00000001
00000100
00001000
00000100
,
00000010
00000MM0
000MM000
01100000
,
10010000
00000000
00000000
00000000
10000000
01000000
00100000
00000000
00010000
00000000
10000000
00000000
00010000
00000000
01000000
00000000
,
00100000
00000000
00010000
00000000
00001000
00000010
00000001
00001000
,
00000001
00000000
00000100
00001000
00000100
00000001
00000100
00000010
,
00000100
00001000
00020000
00000000
00100000
00000000
00001000
00000000
,
00130000
00000000
00000000
00000000
10000000
00000000
01000000
00000000
00100000
00010000
10000000
00000000
00010000
00000000
10000000
00000000
,
02000000
00000000
03010000
01000000
00100000
00000000
00000010
00001000
,
00000100
00000000
00010000
00000000
00000000
00001000
00000000
00000000
00100000
00000000
00000000
00010000
00000000
00000000
10000000
00000000
,
11000000
00MM0000
000MM000
0000MM00
,
00000011
00000000
00000000
00000000
00000001
00000000
00000100
00000000
00001000
00000000
00000000
00010000
00000000
00000000
01000000
00000000
,
10000000
00000000
00000000
00000000
00100000
00000000
00010000
00000000
00001000
00010000
00001000
00000000
00000010
00000000
00001000
00000000
,
00010000
00000000
01000000
00000000
00000000
10000000
00000000
00000000
01000000
00000000
00000000
00001000
00000000
00000000
00000100
00000000
,
00010000
00000010
00000000
00000000
00000200
00000000
00000000
00000000
00001000
00000000
00000000
00000000
00000301
00000000
00000010
00000000
,
00000011
00000000
00000000
00000000
00010000
00000000
00010000
00000000
00001000
00100000
00001000
00000000
00010000
00000000
01000000
00000000
,
20000000
00000000
30100000
00010000
00000100
00000000
00001100
00000000
,
00000010
00000000
00000001
00000000
00000000
00000101
00000000
00000000
00000010
00000000
00000000
00001000
00000000
00000000
00000100
00000000
,
00020200
00000000
00000000
00030300
,
00010000
00001000
00010000
00100000
00010000
00000010
00010000
00000000
,
00001000
00010000
00001000
00000010
00001000
00100000
00001000
00000000
,
00010000
01000000
10000000
01000000
00100000
00001000
00000100
00000000
,
00000010
00001000
00000001
00000010
00000100
00010000
01000000
00000000
,
10000000
00100000
10000000
01000000
00010000
01000000
00100000
00001000
,
00010000
00000010
00000100
00000001
00001000
00000001
00000010
00000000
,
00000100
00010000
00100000
00000000
01000000
00001000
00000010
00000000
,
00000100
00010000
00001000
01000000
00100000
01000000
00001000
00000000
,
00011000
00000000
10001000
00000000
10000000
00100000
00010000
00000000
,
00011000
00000000
00010001
00000000
00000001
00000010
00001000
00000000
,
00011000
00000000
01001000
00000000
01000000
00010000
00100000
00000000
,
00011000
00000000
00010100
00000000
00000100
00010000
00000010
00000000
,
00000100
00000001
00000010
00000001
00000100
00000001
00000010
00000000
,
00000100
00001000
00000010
00001000
00000100
00001000
00000010
00000000
,
00010000
00001000
00100000
00001000
00010000
00000010
00010000
00001000
,
01000000
00000000
00000000
01000000
00100000
00000000
00000000
00100000
10000000
00000000
00010000
00000000
10000000
00000000
00000000
00000000
,
10000000
01000000
00100000
00002000
00000000
M0000000
00000000
00M00000
00003000
0M000000
00000000
000M0000
00000000
0000M000
00000000
000000M0
,
00000000
00000M00
00000000
0000000M
00000000
000000M0
00000000
00000M00
00000000
0000M000
00000000
000M0000
00000000
0M000000
00000000
00M00000
,
00000001
M0000010
00000100
0M020000
00000000
M0000000
00000000
00000M00
00030000
0000M000
00000000
0000000M
00000000
00000M00
00000000
00M00000
,
00000000
000000M0
00000000
0M000000
00000000
M0000000
00000000
0000M000
00000000
000M0000
00000000
0000000M
00000000
0M000000
00000000
000000M0
,
00011000
00000000
00001000
00000000
00100000
00000000
00001000
00000000
00010000
00000000
00000000
00001000
00000000
00000000
01000000
00000000
,
01001000
00000000
01000000
00000000
00001000
00000000
00010000
00000000
00000100
00000000
00000000
00010000
00000000
00000000
00000001
00000000
,
00001001
00000000
00000001
00000000
00010000
00000000
00001000
00000000
01000000
00000000
00000000
00001000
00000000
00000000
10000000
00000000
,
10010000
10000000
01000000
00100000
00001000
00010000
00001000
00000000
,
00011000
00000000
00000000
01000000
00001000
00000000
00000000
00000000
00011000
00000000
00000000
00000100
00010000
00000000
00000000
00000000
,
00011000
00000000
00000000
00100000
00010000
00000000
00000000
00000000
00011000
00000000
00000000
00000010
00001000
00000000
00000000
00000000
,
00011000
00000000
00000000
00010000
10000000
00000000
00000000
00000000
00011000
00000000
00000000
00001000
00000001
00000000
00000000
00000000
,
00022000
00000000
00000000
00033000
,
00001000
00010000
00001000
00000100
00001000
01000000
00001000
00000000
,
00010000
00001000
00010000
01000000
00010000
00000100
00010000
00000000
,
00001000
00000010
00000001
00000010
00000100
00010000
00100000
00000000
,
01000000
00010000
10000000
01000000
00100000
00001000
00000010
00000000
,
00000001
00000100
00000001
00000010
00001000
00000010
00000100
00010000
,
00001000
01000000
00100000
10000000
00010000
10000000
01000000
00000000
,
00100000
00001000
00000100
00000000
00000010
00010000
01000000
00000000
,
00100000
00001000
01000000
10000000
01000000
00001000
00100000
00000000
,
01000000
10000000
00100000
10000000
01000000
00010000
00001000
00000000
,
00000100
00000001
00000010
00000001
00000100
00001000
00010000
00000000
,
00100000
10000000
01000000
10000000
00100000
00010000
00001000
00000000
,
00000010
00000001
00000100
00000001
00000010
00001000
00010000
00000000
,
00100000
01000000
00010000
01000000
00100000
01000000
00001000
00000000
,
00000010
00000100
00001000
00000100
00000010
00000100
00010000
00000000
,
00100000
01000000
00010000
01000000
00100000
01000000
00000100
00000000
,
00000010
00000100
00001000
00000100
00000010
00000100
01000000
00000000
,
00100000
10000000
00010000
00100000
00001000
00010000
00000010
00001000
,
00000001
00000010
00000001
00001000
00000010
00010000
00001000
00100000
,
00010000
10000000
01000000
10000000
00010000
01000000
00001000
00010000
,
00000100
00001000
00000001
00000100
00000001
00001000
00000100
00010000
,
00001000
00100000
00010000
00001000
00010000
00100000
00001000
00010000
,
00000010
00001000
00010000
00001000
00000010
00010000
00001000
00100000
,
00010000
01000000
00100000
01000000
00010000
00100000
00001000
00010000
,
00000200
00000000
00000000
00000000
,
00000300
00000000
00000000
00000000
;

//---------------dance-double - K. Pearman----------------
#NOTEDATA:;
#CHARTNAME:K. Pearman;
#STEPSTYPE:dance-double;
#DESCRIPTION:K. Pearman;
#CHARTSTYLE:;
#DIFFICULTY:Challenge;
#METER:11;
#RADARVALUES:0.759676,0.879870,0.051844,0.207377,0.644349,718.000000,711.000000,7.000000,28.000000,79.000000,0.000000,0.000000,0.000000,0.000000,0.759676,0.879870,0.051844,0.207377,0.644349,718.000000,711.000000,7.000000,28.000000,79.000000,0.000000,0.000000,0.000000,0.000000;
#CREDIT:K. Pearman;
#NOTES:
00000000
00000000
00000000
00000000
,
00000000
00000000
00000000
00000000
,
00000000
00000000
00000000
00000000
,
00000000
00000000
00000000
00000000
,
10000000
00000000
01000000
00000000
00100000
00000000
00001000
00000000
00010000
00000000
00000010
00000000
00000100
00000000
00000001
00000010
,
00000100
00000000
00010000
00000000
00001000
00000000
01000000
00000000
00100000
00000000
10000000
00000000
00010000
00000000
10000000
01000000
,
00100000
00000000
00001000
00000000
00010000
00000000
00100000
00000000
01000000
00000000
00001000
00000000
00010000
00000000
00000010
00001000
,
00000100
00000000
00010000
00000000
00001000
00000000
00000100
00000000
00000010
00000000
00010000
00000000
00001000
00000000
01000000
00010000
,
00100000
00000000
01000000
00000000
10000000
00000000
00100000
00000000
00010000
00000000
00001000
00000000
00000010
00000000
00000001
00000100
,
00000010
00000000
00000100
00000000
00000001
00000000
00000010
00000000
00001000
00000000
00010000
00000000
00100000
00000000
10000000
01000000
,
00100000
00000000
00010000
00000000
01000000
00000000
10000000
00000000
01000000
00000000
00001000
00000000
00010000
00000000
00000100
00001000
,
00000010
00000000
00000001
00000000
00000010
00000000
00001000
00000000
00000100
00000000
00010000
00000000
00001000
00000000
00100000
00010000
,
01000000
00000000
01000000
00000000
00100000
00000000
00100000
00000000
10000000
00000000
00010000
01000000
00000000
00010000
10000000
00000000
,
01000000
00000000
01000000
00000000
00100000
00000000
00100000
00000000
00001000
00000000
00001000
00010000
00000000
00000100
00010000
00000000
,
00000010
00000000
00000010
00000000
00000100
00000000
00000100
00000000
00000001
00000000
00001000
00000100
00000000
00010000
00000100
00000000
,
00010000
00000000
00010000
00000000
00001000
00000000
00001000
00000000
01000000
00000000
01000000
00100000
00000000
10000000
00100000
00000000
,
10000000
00000000
00100000
01000000
00000000
00100000
00010000
00000000
00001000
00000000
00000010
00001000
00000000
00000010
00000100
00000000
,
00010000
00000000
00100000
00010000
00000000
00100000
01000000
00000000
00001000
00000000
00000010
00001000
00000000
00000010
00000100
00000000
,
00010000
00000000
00000000
00100000
00010000
00100000
00010000
00000000
00000000
00100000
10000000
00100000
10000000
00000000
00000000
00010000
10000000
00010000
10000000
00000000
00000000
01000000
00100000
01000000
,
00100000
M0000000
0M000000
00M00000
MM0M0000
00M00000
0M000110
M0000000
,
00000010
00000000
00000001
00000000
00000100
00000001
00000100
00000001
00001000
00000000
0000000M
00001000
0000000M
00000000
0000100M
00000000
,
00000100
00000000
00010000
00000000
00001000
01000000
00001000
01000000
00010000
00100000
00010000
00100000
02000000
00000000
00000000
00000000
,
13000000
00100000
01000000
00020000
00000000
00230000
00000000
00302000
,
00000000
00013000
00022000
00000000
00033000
000MM000
00020200
00030300
,
00002200
00000000
00003300
00000000
00000010
00000000
00000010
00000000
00000001
00000100
00000010
00001000
00000001
00000100
00000010
00001000
,
00000200
00000000
00010300
00001000
02000000
00000000
13000000
01000000
,
00010000
00000000
00100000
00000000
00000000
01000000
00000000
00000000
00010000
00000000
00000000
00001000
00000000
00000000
00000100
00000000
,
00000010
00000000
00001000
00000100
00000000
00001000
00000M00
00000000
00000000
00000000
00000010
00000000
00000010
00000000
00000010
00000000
,
00001100
00000000
00000000
00000000
00010000
00000100
00010000
00000100
00002000
00000000
00000000
00003100
00000000
00000000
00010000
00000000
,
00001000
00000000
01000000
00000000
10000000
01000000
10000000
01000000
00100000
10000000
00100000
10000000
00020000
00000000
00000000
00000000
,
00130000
00000000
01000000
00000000
10000000
00010000
M0000000
00010000
01000000
00000000
010M0000
00100000
0M000000
00100000
10000000
00000000
,
01M00000
00000000
00100000
00000000
00001000
00000000
00010000
00000100
00000000
00010000
00000100
00000000
00000010
00000000
00000001
00000000
,
00001000
00000000
00000010
00000000
00000100
00000000
00000001
00000000
00001000
00000100
00000010
00000001
00001000
00000100
00000010
00000001
,
00020000
00000000
00031000
01000000
200MM000
00000000
32000000
00000000
,
M3010000
00000000
00100000
00000000
00000000
00110000
00000000
00000000
10000000
00000000
00000000
00100000
00000000
00000000
10100000
00000000
,
02000000
00000000
00000000
00000000
,
03100000
10000000
00010000
10000000
00100000
01000000
00001000
00010000
,
00000100
00000010
00000001
00001000
00000001
00000010
00000100
00010000
,
00001000
01000000
00100000
10000000
00010000
10000000
01000000
00010000
,
00001000
00000100
00000010
00010000
00001000
00100000
01000000
10000000
,
00100000
00010000
00001000
00010000
00100000
01000000
00001000
00010000
,
00000100
00000010
00001000
00010000
00001000
00000010
00000100
00010000
,
00001000
01000000
00100000
10000000
00010000
10000000
01000000
00010000
,
00001000
00000100
00000001
00000010
00000100
00010000
00001000
01000000
,
00100000
10000000
00010000
10000000
00100000
00010000
00001000
00000010
,
00000001
00001000
00000001
00000010
00000100
00010000
00001000
01000000
,
00100000
01000000
00010000
10000000
01000000
10000000
00010000
00100000
,
01000000
10000000
00100000
00010000
00001000
00010000
00100000
01000000
,
00010000
00100000
00010000
00000010
00001000
00000010
00000001
00000100
,
00001000
00010000
01000000
10000000
00010000
01000000
00100000
10000000
,
00010000
01000000
00100000
10000000
01000000
10000000
00100000
01000000
00010000
00100000
00010000
01000000
00100000
10000000
01000000
00100000
,
00020000
20030000
32000000
03200000
,
0M3010M0
00010000
00000100
00000010
000MM000
00000001
00000100
00000010
0000000M
00001000
00000100
00000010
0000M000
00000001
00000100
00001000
,
000000M0
00010000
01000000
10000000
000M0000
00100000
01000000
10000000
00M00000
01000000
00010000
10000000
00M0M000
01000000
00100000
00010000
,
MM000000
00001000
00000010
00000100
00000000
00000001
00001MM0
00000001
00000000
00000100
0000001M
00001000
00000000
00000100
000100M0
00001000
,
00M00000
01000000
00M01000
00010000
000000M0
00000100
00001000
00000010
0M000000
00100000
0001M000
01000000
00M00000
00010000
10000000
01000000
,
00100000
00000000
00010000
00000000
01000000
00000000
00010000
00000000
00100000
00000000
01000000
10000000
00010000
00000000
00100000
00000000
,
00000010
00000000
00001000
00000000
00000100
00000000
00001000
00000000
00000010
00000000
00000100
00000001
00001000
00000000
00000100
00000000
,
00010000
00000000
00001000
00000000
01000000
00000000
00100000
00000000
00010000
00000000
00100000
01000000
00010000
00000000
10000000
00000000
,
01000000
00000000
00100000
00000000
10000000
00000000
00100000
00000000
00010000
00000000
01000000
00010000
00000000
00100000
00001000
00000000
,
00010000
00000000
00000010
00000100
00000000
00000010
00010000
00000000
00001000
00000000
00100000
00010000
00000000
00100000
01000000
00000000
,
00010000
00000000
00001000
00000100
00000000
00000010
00000100
00000000
00001000
00000000
00010000
01000000
00000000
00100000
01000000
00000000
,
10000000
00000000
00000000
00010000
01000000
00010000
01000000
00000000
00000000
00001000
00010000
00001000
00010000
00000000
00000000
00000100
00001000
00000100
00001000
00000000
00000000
00000001
00000100
00000001
,
00000200
00000000
00000000
00000310
00002000
00000000
00000000
00003100
00010000
00000000
00001000
00000000
01000000
00000000
01000000
00000000
,
00100000
10000000
00010000
10000000
00100000
01000000
00001000
00010000
,
00000100
00000010
00000001
00001000
00000001
00000010
00000100
00010000
,
00001000
01000000
00100000
10000000
00010000
10000000
01000000
00010000
,
00001000
00000100
00000010
00010000
00001000
00100000
01000000
10000000
,
00100000
00010000
00001000
00010000
00100000
01000000
00001000
00010000
,
00000100
00000010
00001000
00010000
00001000
00000010
00000100
00010000
,
00001000
01000000
00001000
01000000
00010000
00100000
00010000
00100000
01000000
10000000
01000000
10000000
00100000
01000000
00010000
10000000
,
02000000
00000000
00000000
03100000
00020000
00000000
00000000
00130000
00002000
00000000
00000000
00013000
00000010
00000000
00000100
00000000
,
00000001
00000000
00000100
00000000
00000010
00000000
00010000
00000000
00001000
00000000
00100000
00000000
01000000
00000000
10000000
00100000
,
01000000
00000000
00001000
00000000
00010000
00000000
00000100
00000000
00000010
00000000
00000001
00000000
00001000
00000000
00000001
00000100
,
00000010
00000000
00010000
00000000
00001000
00000000
00000010
00000000
00000100
00000000
00010000
00000000
00001000
00000000
00100000
00010000
,
01000000
00000000
00001000
00000000
00010000
00000000
00100000
00000000
01000000
00000000
00001000
00000000
00010000
00000000
00000100
00001000
,
00000010
00000000
00000100
00000000
00000001
00000000
00000010
00000000
00001000
00000000
00010000
00000000
00100000
00000000
10000000
01000000
,
00100000
00000000
01000000
00000000
10000000
00000000
00100000
00000000
00010000
00000000
00001000
00000000
00000010
00000000
00000001
00000100
,
00000010
00000000
00001000
00000000
00000100
00000000
00000001
00000000
00000100
00000000
00010000
00000000
00001000
00000000
01000000
00010000
,
00100000
00000000
10000000
00000000
00100000
00000000
00010000
00000000
01000000
00000000
00001000
00000000
00010000
00000000
00000010
00001000
,
00000100
00000000
00000000
00100000
00000000
00000000
00000000
00M00000
00000000
01000000
00000000
00000000
00000000
0M000000
00000000
10000000
00000000
00000000
00000000
M0000000
00000000
00010000
00000000
00000000
,
00000000
000M0000
00000000
00001000
00000000
00000000
00000000
0000M000
00000000
00000001
00000000
00000000
00000000
0000000M
00000000
00000010
00000000
00000000
00000000
000000M0
00000000
00000100
00000000
00000000
,
00000000
00000M00
00000000
01000000
00000000
00000000
00000000
0M000000
00000000
00100000
00000000
00000000
00000000
00M00000
00000000
10000000
00000000
00000000
00000000
M0000000
00000000
00010000
00000000
00000000
,
00000000
000M0000
00000000
10000000
00000000
00000000
00000000
M0000000
00000000
01000000
00000000
00000000
00000000
0M000000
00000000
00010000
00000000
00000000
00000000
000M0000
00000000
00001000
00000000
00000000
,
00000000
0000M000
00000000
00000100
00000000
00000000
00000000
00000M00
00000000
00000001
00000000
00000000
00000000
0000000M
00000000
00000010
00000000
00000000
00000100
00000000
00000000
00001000
00000000
00000000
,
00000001
00001000
00000100
01000000
00010000
10000000
00010000
01000000
,
00100000
10000000
01000000
00100000
00001000
00010000
00000010
00000100
,
M0000002
0M000000
00M00000
000M0000
0000M000
00000M00
000000M0
00000M00
0000M000
000M0000
00M00000
0000M000
000M0000
00M00000
0M000000
M0000000
,
00000003
00000000
00000000
00000000
;
