#TITLE:This Is The World We Live In;
#SUBTITLE:;
#ARTIST:Alcazar;
#TITLETRANSLIT:;
#SUBTITLETRANSLIT:;
#ARTISTTRANSLIT:;
#GENRE:;
#CREDIT:;
#BANNER:This Is The World We Live In-Banner.png;
#BACKGROUND:This Is The World We Live In-BG.png;
#LYRICSPATH:;
#CDTITLE:;
#MUSIC:Alcazar - This Is The World We Live In.ogg;
#OFFSET:-0.009000;
#SAMPLESTART:48.038998;
#SAMPLELENGTH:12.000000;
#SELECTABLE:YES;
#BPMS:0.000000=124.999992
;
#STOPS:
;
#BGCHANGES:;
#KEYSOUNDS:;
#ATTACKS:;

//---------------dance-single - ----------------
#NOTES:
     dance-single:
     :
     Beginner:
     1:
     0.127115,0.177852,0.043618,0.095959,0.000000,102.000000,97.000000,5.000000,11.000000,0.000000,0.000000,0.127115,0.177852,0.043618,0.095959,0.000000,102.000000,97.000000,5.000000,11.000000,0.000000,0.000000:
// measure 0
0000
0000
0000
0000
,  // measure 1
0000
0000
0000
0000
,  // measure 2
0000
0000
0000
0000
,  // measure 3
0000
0000
0000
0000
,  // measure 4
0010
0010
0010
0000
,  // measure 5
2002
3003
0000
0000
,  // measure 6
1000
0000
0010
0000
,  // measure 7
0200
0000
0300
0000
,  // measure 8
0001
0000
0010
0000
,  // measure 9
0200
0000
0300
0000
,  // measure 10
1000
0000
0100
0000
,  // measure 11
0020
0000
0030
0000
,  // measure 12
0001
0000
0100
0000
,  // measure 13
0010
0010
0000
0000
,  // measure 14
1000
0000
0001
0000
,  // measure 15
0100
0100
0000
0000
,  // measure 16
0001
0000
1000
0000
,  // measure 17
0010
0010
0000
0000
,  // measure 18
1000
0000
0100
0000
,  // measure 19
0010
0010
0000
0000
,  // measure 20
0001
0000
0100
0000
,  // measure 21
2002
0000
0000
0000
,  // measure 22
0000
0000
3003
0000
,  // measure 23
0010
0000
0000
0000
,  // measure 24
0100
0000
0000
0000
,  // measure 25
1001
0000
0000
0000
,  // measure 26
0001
0001
0001
0001
,  // measure 27
0000
0000
0000
0000
,  // measure 28
1000
1000
1000
1000
,  // measure 29
0000
0000
0000
0000
,  // measure 30
0010
0010
0010
0010
,  // measure 31
0000
0000
0000
0000
,  // measure 32
0100
0100
0100
0100
,  // measure 33
0100
0000
1000
0000
,  // measure 34
0010
0000
0001
0000
,  // measure 35
0100
0000
1000
0000
,  // measure 36
0010
0000
0001
0000
,  // measure 37
2000
0000
0000
0000
,  // measure 38
0002
0000
0000
3003
,  // measure 39
1001
0000
0000
0000
,  // measure 40
0000
0000
0000
0000
,  // measure 41
0110
0000
0000
0000
,  // measure 42
0010
0010
0010
0010
,  // measure 43
0010
0000
0000
0000
,  // measure 44
0001
0001
0001
0001
,  // measure 45
0001
0000
0000
0000
,  // measure 46
1000
1000
1000
1000
,  // measure 47
1000
0000
0000
0000
,  // measure 48
0100
0100
0100
0100
,  // measure 49
0100
0000
0010
0000
,  // measure 50
0100
0000
1000
0000
,  // measure 51
0001
0000
0000
0000
,  // measure 52
1000
0000
0100
0000
,  // measure 53
0010
0000
0001
0000
,  // measure 54
1000
0000
0010
0000
,  // measure 55
0100
0000
0000
0000
,  // measure 56
0010
0000
2000
0000
,  // measure 57
0002
0000
0000
0000
,  // measure 58
0000
3003
0000
0000
;

//---------------dance-single - ----------------
#NOTES:
     dance-single:
     :
     Easy:
     3:
     0.206873,0.227685,0.034894,0.139577,0.000000,166.000000,162.000000,4.000000,16.000000,0.000000,0.000000,0.206873,0.227685,0.034894,0.139577,0.000000,166.000000,162.000000,4.000000,16.000000,0.000000,0.000000:
// measure 0
0000
0000
0000
0000
,  // measure 1
0000
0000
0000
0000
,  // measure 2
0000
0000
0000
0000
,  // measure 3
0000
0000
0000
0000
,  // measure 4
1000
0001
1000
0001
,  // measure 5
0010
0000
0100
0000
,  // measure 6
1000
0010
0100
0000
,  // measure 7
0001
0000
1000
0000
,  // measure 8
0001
0010
0100
0000
,  // measure 9
1000
0000
0100
0000
,  // measure 10
0010
0001
0100
0000
,  // measure 11
0001
0000
0100
0000
,  // measure 12
0010
1000
0100
0000
,  // measure 13
1000
1000
0010
0010
,  // measure 14
1000
0100
0001
0100
,  // measure 15
0001
0001
0010
0010
,  // measure 16
0001
0100
1000
0100
,  // measure 17
1000
1000
0001
0001
,  // measure 18
1000
0001
1000
0001
,  // measure 19
0010
0010
0100
0100
,  // measure 20
0010
0100
0010
0100
,  // measure 21
2000
0000
3002
0000
,  // measure 22
0103
0100
0100
0000
,  // measure 23
0002
0000
2003
0000
,  // measure 24
3100
0100
0100
0000
,  // measure 25
1001
0000
0010
0000
,  // measure 26
1000
0001
1000
0001
,  // measure 27
0100
0000
0100
0000
,  // measure 28
0001
1000
0001
1000
,  // measure 29
0010
0000
0010
0000
,  // measure 30
1000
0001
1000
0001
,  // measure 31
0010
0000
0100
0000
,  // measure 32
0100
1000
0001
0010
,  // measure 33
0200
0000
0320
0000
,  // measure 34
0032
0000
2003
0000
,  // measure 35
3001
1000
0001
1000
,  // measure 36
0010
0100
0010
0100
,  // measure 37
0002
0000
0000
0000
,  // measure 38
2000
0000
0000
3003
,  // measure 39
2002
0000
0000
0000
,  // measure 40
3003
0000
0000
0010
,  // measure 41
1001
0000
0001
0010
,  // measure 42
0100
0100
1000
1000
,  // measure 43
0001
0000
1000
0010
,  // measure 44
0100
0100
0001
0001
,  // measure 45
1000
0000
0001
0100
,  // measure 46
1000
0100
0010
0010
,  // measure 47
0000
0000
1000
0100
,  // measure 48
0001
0100
0010
0010
,  // measure 49
1001
0000
1000
0000
,  // measure 50
0001
0100
0001
0100
,  // measure 51
0010
0000
0100
0000
,  // measure 52
0001
0010
0100
1000
,  // measure 53
0001
0000
1000
0000
,  // measure 54
0100
0010
0100
1000
,  // measure 55
0001
0000
0100
0000
,  // measure 56
0010
0100
0001
1000
,  // measure 57
0020
0230
0302
2003
,  // measure 58
3001
0000
0000
0000
;

//---------------dance-single - ----------------
#NOTES:
     dance-single:
     :
     Medium:
     5:
     0.291616,0.354177,0.209366,0.200642,0.000000,234.000000,210.000000,24.000000,23.000000,0.000000,0.000000,0.291616,0.354177,0.209366,0.200642,0.000000,234.000000,210.000000,24.000000,23.000000,0.000000,0.000000:
// measure 0
0000
0000
0000
0000
,  // measure 1
0000
0000
0000
0000
,  // measure 2
0000
0000
0000
0000
,  // measure 3
0000
0000
0000
0000
,  // measure 4
1100
0101
0010
1001
,  // measure 5
0110
1000
0001
0100
,  // measure 6
0020
0000
0030
1000
0001
0000
0000
0000
,  // measure 7
0010
0100
1000
0001
,  // measure 8
0200
0000
0300
0001
1000
0000
0000
0000
,  // measure 9
1001
0010
1000
0100
,  // measure 10
2000
0000
3000
0010
0100
0000
0000
0000
,  // measure 11
0001
1000
0001
0100
,  // measure 12
0002
0000
0003
0010
0100
0000
0000
0000
,  // measure 13
1000
0001
1000
0000
0100
0000
0100
0000
,  // measure 14
0020
0000
0030
0001
1000
0000
0000
0000
,  // measure 15
0010
0100
0001
1000
,  // measure 16
0002
0000
0003
0010
0100
0000
0000
0000
,  // measure 17
1000
0010
1000
0000
0001
0000
0001
0000
,  // measure 18
0200
0000
0300
0010
1000
0000
0001
0000
,  // measure 19
1000
0100
1000
0001
,  // measure 20
0020
0000
0030
0001
0100
0000
0010
0000
,  // measure 21
2000
3000
0002
0003
,  // measure 22
0200
0300
0020
0030
,  // measure 23
1000
0001
0100
0010
,  // measure 24
2002
0000
0000
3003
,  // measure 25
1001
0000
0010
0000
1000
0000
0001
0100
,  // measure 26
0001
1000
0010
0100
,  // measure 27
0001
0000
0001
0000
0010
0000
0100
1000
,  // measure 28
0100
0010
0001
1000
,  // measure 29
1000
0000
0010
0000
0100
0000
0010
1000
,  // measure 30
0001
0100
0100
0001
,  // measure 31
1000
0000
0010
0000
1000
0000
0001
0010
,  // measure 32
0100
1000
0001
1000
,  // measure 33
0200
0300
0020
0030
,  // measure 34
0002
0003
2000
3000
,  // measure 35
0010
0100
0001
1000
,  // measure 36
0100
0010
0001
1000
,  // measure 37
0010
0100
0001
0001
,  // measure 38
1000
0010
0100
0100
,  // measure 39
0001
1000
0001
1000
0001
1000
0001
1000
,  // measure 40
0200
0000
0000
0300
,  // measure 41
0110
0000
1001
0000
0001
0000
0010
0100
,  // measure 42
1000
1010
0001
0011
,  // measure 43
0100
0000
0100
0000
0010
0000
1000
0001
,  // measure 44
0100
0101
1000
1100
,  // measure 45
1001
0000
0001
0000
0010
0000
0100
1000
,  // measure 46
0010
1010
0001
0011
,  // measure 47
0100
0000
0100
0000
0010
0000
0100
0001
,  // measure 48
0010
0101
0010
1100
,  // measure 49
1001
0100
1100
1000
,  // measure 50
0010
1000
0010
1000
0001
0000
0001
0200
,  // measure 51
0000
0310
0000
0010
,  // measure 52
1000
0001
0100
0010
,  // measure 53
1000
1100
0001
0101
,  // measure 54
0001
0100
0001
0100
0020
0000
1030
0001
,  // measure 55
0000
0011
0100
1100
,  // measure 56
0010
0000
0100
0000
0001
0000
2000
0002
,  // measure 57
0000
0000
0000
0000
,  // measure 58
3003
0000
0000
0000
;

//---------------dance-double - ----------------
#NOTES:
     dance-double:
     :
     Easy:
     3:
     0.218089,0.252983,0.061065,0.157024,0.000000,175.000000,168.000000,7.000000,18.000000,0.000000,0.000000,0.218089,0.252983,0.061065,0.157024,0.000000,175.000000,168.000000,7.000000,18.000000,0.000000,0.000000:
00000000
00000000
00000000
00000000
,
00000000
00000000
00000000
00000000
,
00000000
00000000
00000000
00000000
,
00000000
00000000
00000000
00000000
,
10000000
00010000
10000000
00010000
,
01000000
00000000
00001000
00000000
,
00010000
00001000
00000010
00000000
,
00000001
00001000
00000001
00001000
,
00000001
00000100
00000010
00000000
,
00010000
00001000
01000000
00000000
,
00001000
00010000
00000100
00000000
,
00010000
00001000
00100000
00000000
,
00001000
00010000
00000010
00000000
,
00000100
00000001
00000020
00000000
,
00000100
00000000
00000130
00000000
,
00000010
00000100
00010000
00001000
,
01000000
00100000
01000000
00000000
,
00100000
10000000
02000000
00000000
,
00100000
00000000
03100000
00000000
,
00100000
00010000
10000000
00010000
,
01000000
00001000
00010000
00000100
,
00000220
00000330
00000001
00000000
,
00000100
00001000
00000100
00000000
,
00000001
00000010
00000001
00000000
,
00000010
00002000
00020000
00033000
,
00011000
00000000
00001000
00010000
,
00100000
10000000
00010000
00100000
,
01000000
00000000
10000000
01000000
,
00010000
00001000
00000100
00000001
,
00001000
00000000
00000001
00000010
,
00000001
00000100
00000010
00001000
,
00000100
00000000
00010000
00001000
,
00100000
01000000
10000000
00010000
,
20020000
30030000
02000000
03000000
,
00002000
00003000
00020000
00030000
,
00000200
00000300
00000020
00000030
,
00000002
00000003
00002000
00003000
,
00000002
00000003
00000200
00000300
,
00000010
00001000
00000100
00000010
,
00001001
00000000
00000000
00000000
,
00000110
00000000
00000000
00000000
,
00001001
00000001
00000010
00001000
,
00010000
00010000
00001000
00001000
,
00010000
00100000
10000000
00010000
,
10000000
10000000
00010000
00010000
,
10000000
01000000
00010000
00001000
,
00010000
00010000
00001000
00001000
,
00010000
00001000
00000100
00000001
,
00001000
00001000
00000001
00000001
,
00000010
00000100
00001000
00000100
,
00000001
00000100
00000010
00000001
,
00001001
00000000
00000001
00001000
,
00000100
00000000
00010000
00001000
,
01000000
00000000
00010000
10000000
,
00010000
00010000
00100000
00100000
,
01000000
00000000
10000000
00000000
,
00010000
01000000
10000000
01000000
,
00020000
00000000
00000000
00000000
,
00030000
00000000
00000000
00000000
;

//---------------dance-double - ----------------
#NOTES:
     dance-double:
     :
     Medium:
     5:
     0.255476,0.278282,0.165748,0.122130,0.000000,205.000000,186.000000,19.000000,14.000000,0.000000,0.000000,0.255476,0.278282,0.165748,0.122130,0.000000,205.000000,186.000000,19.000000,14.000000,0.000000,0.000000:
00000000
00000000
00000000
00000000
,
00000000
00000000
00000000
00000000
,
00000000
00000000
00000000
00000000
,
00000000
00000000
00000000
00000000
,
00000000
00000000
00000000
00000000
,
10010000
00010000
02000000
03000000
,
00001000
00010000
00000200
00000300
,
00001001
00000001
00000200
00000300
,
00000001
00001000
00000200
00000300
,
00010000
00001000
00100000
01000000
,
00010000
00001000
00000100
00000010
,
00010000
00001000
01000000
00001000
,
00010000
00000100
00010000
00001000
,
00010000
00001000
00010000
00000000
00002000
00000000
00003000
00000000
,
00010000
00001000
00100000
01000000
,
10000000
00000000
00010000
10000000
00010000
00000000
01000000
00000000
,
00010000
00100000
00002000
00003000
,
00010000
00001000
00010000
00000000
00000100
00000000
00001000
00000000
,
00000001
00000010
00000200
00000300
,
00000010
00000001
00001000
00000001
,
00000100
00000000
00000010
00001000
,
00000001
00000000
00001000
00000000
,
00000001
00001000
00000001
00000000
00001000
00000000
00000100
00000000
,
00010000
00001000
00010000
00000000
00001000
00000000
01000000
00000000
,
00010000
20000000
02000000
33000000
,
10010000
00000000
10000000
01000000
,
00010000
00001000
00000100
00000001
,
00000011
00000000
00000001
00000010
,
00001000
00010000
00100000
10000000
,
11000000
00000000
10000000
01000000
,
00010000
00001000
00010000
00000100
,
00000110
00000000
00000100
00000010
,
00001000
00010000
00100000
01000000
,
01100000
00000000
10010000
00000000
,
00011000
00000000
00001001
00000000
,
00000110
00000000
00001100
00000000
,
00011000
00000000
01010000
00000000
,
20000000
00000000
30020000
00000000
,
00130000
00100000
00010000
10000000
,
00010000
00000000
01000000
00000000
00100000
00000000
10000000
00020000
,
20000000
00000000
00000000
30030000
,
10010000
00000000
10000000
01000000
,
00010000
00001000
00000100
00000001
,
00000011
00000000
00000001
00000010
,
00001000
00010000
00100000
10000000
,
10100000
00000000
10000000
01000000
,
00010000
00001000
00000100
00000010
,
00001010
00000000
00001000
00000100
,
00010000
00001000
00100000
00010000
,
01010000
00010000
01000000
00100000
,
10000000
00000000
00010000
10000000
00010000
00000000
00100000
00000000
,
00001000
00010000
00000100
00001000
,
00000010
00000100
00000001
00000001
,
00001000
00000100
00000010
00000001
,
00001000
00000001
00001000
00000000
00000100
00000000
00010000
00000000
,
00001000
00001000
00010000
00010000
,
00100000
00000000
10000000
00000000
00010000
00000000
10000000
01000000
,
00200000
00000000
00000000
00000000
,
00300000
00000000
00000000
00000000
;

//---------------dance-double - ----------------
#NOTES:
     dance-double:
     :
     Hard:
     7:
     0.410008,0.404774,0.331496,0.034894,0.095959,329.000000,291.000000,38.000000,4.000000,0.000000,0.000000,0.410008,0.404774,0.331496,0.034894,0.095959,329.000000,291.000000,38.000000,4.000000,0.000000,0.000000:
00000000
00000000
00000000
00000000
,
00000000
00000000
00000000
00000000
,
00000000
00000000
00000000
00000000
,
00000000
00000000
00000000
00000000
,
00000000
00000000
00000000
00000000
,
00010000
00000000
00100000
00000000
01000000
00000000
10000000
00000000
00010000
00000000
00000000
00010000
00000000
00000000
01000000
00000000
,
00001000
00000000
00001000
00010000
00000100
00000000
00000010
00000000
,
00000001
00000000
00000100
00000000
00000010
00000000
00001000
00000000
00000100
00000000
00000000
00000100
00000000
00000000
00001000
00000000
,
00000010
00000000
00000010
00001000
00000001
00000000
00001001
00000000
,
00000001
00000000
00000010
00000000
00000100
00000000
00010000
00000000
00001000
00000000
00000000
00001000
00000000
00000000
00010000
00000000
,
00100000
00000000
00100000
10000000
00010000
00000000
10000000
00000000
,
10000000
00000000
01000000
00000000
00010000
00000000
00001000
00000000
00010000
00000000
00000000
00010000
00000000
00000000
00001000
00000000
,
00000100
00000000
00000100
00000010
00001000
00000000
00001001
00000000
,
00000001
00000010
00000001
00000100
00000001
00000000
00000001
00000010
,
00000100
00000000
00000100
00010000
00001000
00000000
00001000
00010000
,
00100000
10000000
00010000
10000000
01000000
00000000
01000000
00100000
,
00010000
00000000
00010000
01000000
00001000
00000000
00010000
00001000
,
00000100
00000010
00001000
00000001
00000010
00000000
00000001
00000010
,
00000100
00000000
00000010
00000100
00001000
00000001
00001000
00000100
,
00010000
00001000
01000000
00010000
10000000
00000000
00010000
00000000
,
00100000
00000000
01000000
10000000
00100000
00000000
10000000
00000000
,
10100000
00000000
00010000
00000000
,
10000000
00010000
10000000
00000000
00010000
00000000
00000000
00000000
00100000
00000000
00000000
00000000
00000000
00000000
00000000
00000000
,
00001000
00010000
00001000
00000000
00010000
00000000
00000100
00000000
,
00000010
00000000
00000000
00000000
00000001
00000000
00000000
00000000
00001000
00000000
00000000
00000001
00001000
00000000
00000001
00000000
,
00000101
00000000
00000000
00000000
00000001
00000000
00000100
00000000
00000010
00000000
00000000
00000010
00000000
00000000
00001000
00000000
,
00000001
00000011
00001000
00001100
,
00002001
00000000
00000000
00000000
00003100
00000000
00010000
00000000
00001000
00000000
00000000
00001000
00000000
00000000
00010000
00000000
,
00001000
00101000
00010000
00010010
,
00011000
00000000
00000000
00000000
00001000
00000000
01000000
00000000
00100000
00000000
00000000
00100000
00000000
00000000
10000000
00000000
,
00010000
00110000
10000000
10100000
,
10010000
00000000
00000000
00000000
10000000
00000000
01000000
00000000
00010000
00000000
00000000
00001000
00000000
00000000
00010000
00000000
,
00001000
00000100
00001001
00000100
,
00001001
00000001
00000011
00000010
,
00000110
00000100
00001100
00001000
,
00011000
00010000
10010000
01000000
,
00110000
01000000
10100000
01000000
,
00100000
10000000
01000000
00010000
,
00001000
00000100
00000001
00000010
00001000
00010000
00100000
10000000
,
00010000
00100000
00010000
00000000
10000000
00000000
01000000
00000000
02000000
00000000
00000000
00000000
00000000
00000000
00000000
00000000
,
03100000
00000000
00000000
00000000
00000000
00000000
00000000
00000000
00010000
00000000
00000000
10000000
00010000
00000000
10000000
00000000
,
10100000
00000000
00000000
00000000
10000000
00000000
00100000
00000000
01000000
00000000
00000000
01000000
00000000
00000000
00010000
00000000
,
10000000
11000000
00010000
00110000
,
10020000
00000000
00000000
00000000
00130000
00000000
00001000
00000000
00010000
00000000
00000000
00010000
00000000
00000000
00001000
00000000
,
00010000
00010100
00001000
01001000
,
00011000
00000000
00000000
00000000
00010000
00000000
00000010
00000000
00000100
00000000
00000000
00000100
00000000
00000000
00000001
00000000
,
00001000
00001100
00000001
00000101
,
00001001
00000000
00000000
00000000
00000001
00000000
00000010
00000000
00000100
00000000
00000000
00000100
00000000
00000000
00001000
00000000
,
00000001
00000011
00001100
00011000
,
01010000
00000000
00000000
00000000
00010000
00000000
01000000
00000000
00100000
00000000
00000000
10000000
00000000
00000000
01000000
00000000
,
00100000
00000000
00010000
00000000
10000000
00000000
00010000
00000000
01000000
00000000
00000000
00100000
00000000
00000000
01000000
00000000
,
00010000
00000000
00100000
00000000
00001000
00000000
00010000
00000000
00000100
00000000
00000000
00001000
00000000
00000000
00000001
00000000
,
00000010
00000000
00000000
00000100
00000000
00000000
00001000
00000000
00000010
00000000
00000010
00000000
00001000
00000000
00001000
00000000
,
00000001
00000000
00000100
00000000
00000010
00000000
00001000
00000000
00000100
00000000
00000000
00010000
00000000
00000000
00001000
00000000
,
00100000
00000000
01000000
00000000
00010000
00000000
00001000
00000000
00000100
00000000
00000000
00000010
00000000
00000000
00001000
00000000
,
00000001
00000010
00000011
00000000
00001000
00000100
00001100
00000000
,
00000100
00010000
00001000
01000000
00100000
00000000
00100000
01000000
,
00002000
00000000
00000000
00000000
,
00003000
00000000
00000000
00000000
;

//---------------dance-double - ----------------
#NOTES:
     dance-double:
     :
     Challenge:
     9:
     0.461103,0.505967,0.287878,0.165748,0.209366,370.000000,337.000000,33.000000,19.000000,14.000000,0.000000,0.461103,0.505967,0.287878,0.165748,0.209366,370.000000,337.000000,33.000000,19.000000,14.000000,0.000000:
00000000
00000000
00000000
00000000
,
00000000
00000000
00000000
00000000
,
00000000
00000000
00000000
00000000
,
00000000
00000000
00000000
00000000
,
00000000
00000000
00000000
00000000
,
00011000
00000000
00000000
00000000
00010000
00000000
00000100
00000000
00000010
00000000
00000001
00000200
00000000
00000000
00000310
00000000
,
00001000
00000000
00000100
00010000
02000000
00010000
13000000
00000000
,
10000000
00000000
10000000
00000000
00010000
00000000
00100000
00000000
01000000
00000000
10000000
00200000
00000000
00000000
01300000
00000000
,
00010000
00000000
00100000
00001000
00000020
00001000
00000031
00000000
,
00000011
00000000
00000001
00000000
00000100
00000000
00000010
00000000
00000100
00000000
00000001
00000020
00000000
00000000
00000130
00000000
,
00010000
00000000
00001000
00100000
00020000
00001000
00130000
00000000
,
11000000
00000000
10000000
00000000
00100000
00000000
01000000
00000000
00100000
00000000
10000000
02000000
00000000
00000000
03100000
00000000
,
00001000
00000000
00000000
00000000
00010000
00000000
00000100
00000000
00000010
00000000
00000000
00000001
00002000
00000000
00000000
00000000
,
00003010
00000000
00000000
00001000
00000000
00000000
00100000
00000000
01000000
00000000
00000000
00010000
10000000
00000000
00000000
00000000
,
02000000
00000000
00000000
00010000
13000000
00000000
00000000
00000000
,
10000000
00000000
00100000
00000000
00001000
00000000
00000010
00000000
00010000
00000000
00000000
00000100
00000000
00000000
00000001
00000000
,
00000200
00000000
00000000
00000001
00001300
00000000
00012000
00000000
,
01003000
00000000
00000000
00010000
00000000
00000000
00000100
00000000
00000010
00000000
00000000
00001000
00000001
00000000
00000000
00000000
,
00000020
00000000
00000000
00001000
00000031
00000000
00000000
00000000
,
00000001
00000000
00000100
00000000
00010000
00000000
01000000
00000000
00001000
00000000
00000000
00100000
00000000
00000000
10000000
00000000
,
00200000
00000000
00000000
10000000
00310000
00000000
10000000
00000000
,
10010000
00000000
00010000
00100000
01000000
00000000
00010000
00001000
,
00010000
00001000
00010000
00000000
00001000
00000000
00000100
00000000
00000001
00000000
00001001
00000000
00000110
00000000
00000000
00000000
,
00000001
00001000
00000001
00000000
00000010
00000000
00000100
00000000
00002100
00000000
00000000
00000000
00003010
00000000
00001000
00000000
,
00000200
00000000
00000000
00000000
00000300
00000000
00000000
00000000
00000100
00000000
00000000
00010000
00001000
00000000
01000000
00000000
,
10010000
00000000
00000000
00000000
10000000
00000000
00000000
00000000
00100000
00000000
00000000
00010000
00001000
00000000
00001000
00000000
,
00000010
00000010
00000001
00000001
00000100
00001000
00011000
00000000
,
00001001
00000000
00000000
00000000
00000010
00000000
00000000
00000000
00011000
00000000
00000000
00001000
00010000
00000000
00010000
00000000
,
01000000
01000000
10000000
10000000
00100000
00010000
00011000
00000000
,
10010000
00000000
00000000
00000000
00010000
00000000
10000000
00000000
01000000
00000000
00000000
00100000
01000000
00000000
00010000
00000000
,
01000000
00100000
00010000
00001000
00000010
00000100
00001000
00010000
,
01000000
00000000
01000000
00000000
10000000
00000000
00010000
00000000
00110000
00000000
00000000
00100000
00001000
00000000
00010000
00000000
,
00100000
00010000
00001000
00000010
00001000
00010000
00011000
00000000
,
01001000
00MM0000
10010000
00M00M00
,
00101000
00000M0M
00001001
000M00M0
,
00010100
0MM00000
01001000
000M0M00
,
00010010
0M00M000
00101000
00000000
,
00001000
00010000
01000000
10000000
00010000
01000000
10000000
00010000
,
00100000
01000000
00001000
00010000
00000100
00000010
00001000
00010000
,
00001000
00000100
00000001
00000010
00001000
00010000
01000000
20000000
,
00020000
00000000
30000000
00000000
00030000
00000000
00000000
00000000
00100000
00000000
00000000
00001000
00010000
00000000
00000010
00000000
,
00001001
00000000
00000000
00000000
00000001
00000000
00000000
00000000
00000100
00000000
00000000
00001000
00010000
00000000
00010000
00000000
,
01000000
01000000
10000000
10000000
00100000
00010000
00011000
00000000
,
10010000
00000000
00000000
00000000
10000000
00000000
00000000
00000000
00100000
00000000
00000000
00010000
00001000
00000000
00001000
00000000
,
00000010
00000010
00000001
00000001
00000100
00001000
00011000
00000000
,
00001001
00000000
00000000
00000000
00001000
00000000
00000001
00000000
00000010
00000000
00000000
00000100
00000010
00000000
00001000
00000000
,
00000010
00000100
00001000
00010000
01000000
00100000
00010000
00001000
,
00000010
00000000
00000010
00000000
00000001
00000000
00001000
00000000
00001100
00000000
00000000
00000100
00010000
00000000
00001000
00000000
,
00000100
00001000
00010000
01000000
10000000
10010000
01100000
00000000
,
00011000
00000000
00001000
00000000
00000100
00000000
00000001
00000000
00000010
00000100
00000000
00001000
00000000
00000000
00000001
00000000
,
00000010
00001000
00000000
00010000
00000000
00000000
00000100
00000000
00000010
00000100
00000000
00001000
00000000
00000000
00000001
00000000
,
00000100
00000000
00001000
00000000
00010000
00000000
01000000
00000000
10000000
00010000
00000000
00100000
00000000
00000000
01000000
00000000
,
00010000
00001000
00000000
00100000
00000000
00000000
01000000
00000000
10000000
00010000
00000000
00100000
00000000
00000000
01000000
00000000
,
10000000
00000000
00100000
00000000
00010000
00000000
00001000
00000000
00000010
00000001
00000000
00000100
00000000
00000000
00001000
00000000
,
00000100
00000001
00000000
00000010
00000000
00000000
00000100
00000000
00000010
00001000
00000000
00010000
00000000
00000000
00100000
00000000
,
10000000
00000000
01000000
00000000
00010000
00000000
01000000
00000000
10000000
00100000
00000000
01000000
00000000
00000000
10000000
00000000
,
01000000
00010000
00000000
00100000
00000000
00000000
01000000
00000000
00010000
00001000
00000000
00000100
00000000
00000010
00002000
00000000
,
00000002
00000000
00000000
00000000
,
00003003
00000000
00000000
00000000
;

//---------------dance-single - ----------------
#NOTES:
     dance-single:
     :
     Hard:
     7:
     0.437425,0.455370,0.235536,0.165748,0.113406,351.000000,324.000000,27.000000,19.000000,0.000000,0.000000,0.437425,0.455370,0.235536,0.165748,0.113406,351.000000,324.000000,27.000000,19.000000,0.000000,0.000000:
// measure 0
0000
0000
0000
0000
,  // measure 1
0000
0000
0000
0000
,  // measure 2
0000
0000
0000
0000
,  // measure 3
0000
0000
0000
0000
,  // measure 4
1001
0000
0000
0000
1010
0000
0000
0000
0011
0000
0000
0001
1000
0000
0100
0000
,  // measure 5
0110
0000
0100
1000
0010
0000
0100
0001
,  // measure 6
0020
0000
0030
1000
0010
0001
0100
0000
,  // measure 7
0010
0010
1000
0001
0100
0000
0001
1000
,  // measure 8
0020
0000
1030
0100
0001
0100
0100
0000
,  // measure 9
1001
0000
0001
0010
0200
0000
1300
0000
,  // measure 10
0002
0000
0013
0001
0100
0000
0000
0000
,  // measure 11
0100
0100
0010
0010
1001
0000
0001
0000
,  // measure 12
2000
0000
0000
0000
3100
0000
0010
0000
0001
0000
0000
0001
0100
0000
0000
0000
,  // measure 13
0101
0001
1000
0100
0200
0000
0320
0000
,  // measure 14
2030
0000
3010
0001
0100
0000
0001
1000
,  // measure 15
0100
1000
1000
0001
0001
0010
0100
1000
,  // measure 16
0002
0000
0103
1000
0100
0000
0001
0000
,  // measure 17
1000
0010
0100
0001
1000
0000
0010
0000
,  // measure 18
0002
0000
0013
1000
0100
0000
1000
0000
,  // measure 19
0001
0001
0010
0010
0001
0100
0010
0000
,  // measure 20
2000
0000
3100
0001
0100
0000
1000
0000
,  // measure 21
1001
0000
0001
0100
0010
0000
1000
0000
,  // measure 22
0001
0100
0001
0000
1000
0000
1000
0000
0100
0000
1000
0000
0001
0000
0000
0000
,  // measure 23
0001
0100
0001
0000
1000
0000
0001
0000
0100
0000
0000
0000
0010
0000
1000
0000
,  // measure 24
0002
0000
0000
0000
0000
0000
0000
0000
0013
0000
0000
0100
1000
0000
0100
0000
,  // measure 25
0110
0000
0000
0000
0100
0000
0000
0000
1000
0000
0000
1000
0010
0000
1000
0000
,  // measure 26
0001
0001
0010
0010
0100
0100
1000
0001
,  // measure 27
0101
0000
0000
0000
0001
0000
0100
0000
0010
0000
0000
0010
1000
0000
0001
0000
,  // measure 28
0100
0100
0010
0010
1000
0001
0010
0100
,  // measure 29
1100
0000
0000
0000
1000
0000
0100
0000
0010
0000
0000
0010
0001
0000
1000
0000
,  // measure 30
0010
0010
0100
0100
0001
0001
1000
0001
,  // measure 31
0100
0000
0000
0000
0010
0000
0000
0000
0100
0000
0000
0100
0001
0000
1000
0000
,  // measure 32
0100
0000
0010
0000
0100
1000
0001
0010
,  // measure 33
0110
1000
0110
0001
,  // measure 34
0110
1000
0110
0001
,  // measure 35
1100
0001
1010
0001
,  // measure 36
0101
1000
0011
1000
,  // measure 37
0002
0103
2000
3100
,  // measure 38
0012
1003
2010
3001
,  // measure 39
0001
0010
0100
1000
0001
0100
0010
1000
,  // measure 40
0200
0000
0000
0000
0300
0000
0000
0000
0100
0000
0000
1000
0001
0000
0100
0000
,  // measure 41
0110
0000
0000
0000
1001
0000
0000
0000
0001
0000
0000
0001
0010
0000
0100
0000
,  // measure 42
1000
1000
0010
0010
0100
0100
1000
0100
,  // measure 43
0001
0000
0000
0000
1000
0000
0001
0000
1000
0000
0000
1000
0010
0000
0100
0000
,  // measure 44
0010
0010
0100
0100
0001
0010
1000
0010
,  // measure 45
0100
0000
0000
0000
0010
0000
0001
0000
1000
0000
0000
1000
0100
0000
0010
0000
,  // measure 46
0100
0100
1000
1000
0001
0100
1000
0100
,  // measure 47
0001
0000
0000
0000
0001
0000
0010
0000
0100
0000
0000
0010
0001
0000
1000
0000
,  // measure 48
0010
0110
1001
0110
,  // measure 49
1001
0000
0000
0000
0001
0000
0010
0000
0001
0000
0000
0001
0000
0000
0100
0000
,  // measure 50
1000
0000
0000
1000
0000
0000
0100
0000
0010
0000
0000
0010
0000
0000
1000
0000
,  // measure 51
0001
0000
0000
0000
0010
0000
0100
0000
1000
0000
0000
1000
0000
0000
0100
0000
,  // measure 52
0001
0000
0000
0001
0000
0000
0100
0000
0010
0000
0000
0010
0000
0000
0001
0000
,  // measure 53
1000
0000
0001
0000
1000
0000
0100
0000
0001
0000
0000
0001
0000
0000
0100
0000
,  // measure 54
0010
0000
0000
0010
0000
0000
0001
0000
0100
0000
0000
0100
0000
0000
0010
0000
,  // measure 55
0100
0000
0001
0000
0100
0000
0010
0000
1000
0000
0000
1000
0000
0000
0100
0000
,  // measure 56
0010
0000
0000
0010
0000
0000
0001
0000
0100
0000
0000
0100
0000
0000
0002
0000
,  // measure 57
2000
0000
0000
0000
,  // measure 58
3003
0000
0000
0000
;
