#TITLE:This Is How We Do It;
#SUBTITLE:;
#ARTIST:Solid Base;
#TITLETRANSLIT:;
#SUBTITLETRANSLIT:;
#ARTISTTRANSLIT:;
#GENRE:;
#CREDIT:;
#BANNER:This Is How We Do It.png;
#BACKGROUND:This Is How We Do It-BG.png;
#LYRICSPATH:;
#CDTITLE:;
#MUSIC:This Is How We Do It - Solid Bass.ogg;
#OFFSET:1.307000;
#SAMPLESTART:44.764999;
#SAMPLELENGTH:13.043000;
#LASTBEATHINT:0.512755;
#SELECTABLE:YES;
#BPMS:0.000000=138.000000
;
#STOPS:
;
#BGCHANGES:2.125=This Is How We Do It.mp4=1.000=1=0=0=StretchNoLoop==CrossFade==,
99999=-nosongbg-=1.000=0=0=0 // don't automatically add -songbackground-
;
#KEYSOUNDS:;
#ATTACKS:;

//---------------dance-single - K. Pearman----------------
#NOTES:
     dance-single:
     K. Pearman:
     Beginner:
     1:
     0.133237,0.201491,0.082536,0.000000,0.000000,113.000000,103.000000,10.000000,0.000000,0.000000,0.000000,0.133237,0.201491,0.082536,0.000000,0.000000,113.000000,103.000000,10.000000,0.000000,0.000000,0.000000:
0000
0000
0000
0000
,
0000
0000
0000
0000
,
0000
0000
0000
0000
,
0000
0000
0000
0000
,
0000
0000
0000
0000
,
1000
0000
0001
0000
,
0100
0000
0100
0000
,
0001
0000
1000
0000
,
0100
0000
0000
0000
,
1001
0000
0000
0000
,
0010
0000
0000
0000
,
0100
0000
0000
0000
,
1000
0000
0001
0000
,
0010
0010
0010
0000
,
0100
0000
0000
0000
,
0010
0000
0000
0000
,
0001
0000
1000
0000
,
1001
0000
0000
0000
,
0010
0000
0000
0010
,
0010
0000
0000
0100
,
0100
0000
0000
0001
,
0001
0000
0000
1000
,
1000
0000
0000
0100
,
0100
0000
0000
0010
,
0010
0000
0000
0001
,
0001
0000
0000
0000
,
1001
0000
0000
0000
,
1000
0000
0000
0000
,
0001
0000
0000
0000
,
1000
0000
0001
0000
,
0010
0010
0010
0000
,
0010
0000
0000
0000
,
0100
0000
0000
0000
,
0001
0000
1000
0000
,
1001
0000
0000
0000
,
0110
0000
0000
0000
,
0100
0000
0000
0000
,
1001
0000
0000
0000
,
0001
0000
0000
0000
,
0110
0000
0000
0000
,
0010
0000
0000
0000
,
1001
0000
0000
0000
,
1000
0000
0000
0000
,
0100
0000
0100
0000
,
0010
0000
0010
0000
,
1000
0000
0001
0000
,
1000
0000
0001
0000
,
0100
0000
0100
0000
,
0010
0000
0010
0000
,
1000
1000
1000
0000
,
0001
0001
0001
0000
,
0100
0000
0100
0000
,
0010
0000
0010
0000
,
1001
0000
0000
0000
,
0001
0000
0000
0000
,
0100
0000
0000
0000
,
1000
0000
0001
0000
,
0010
0010
0010
0000
,
0100
0000
0000
0000
,
1000
0000
0000
0000
,
0010
0000
0100
0000
,
1001
0000
0000
0000
,
0100
0000
0000
0000
,
0010
0000
0000
0000
,
0001
0000
1000
0000
,
0100
0000
0000
0000
,
0001
0000
0000
0000
,
1000
0000
0000
0000
,
0010
0000
0100
0000
,
0001
0000
1000
1000
;

//---------------dance-single - K. Pearman----------------
#NOTES:
     dance-single:
     :
     Easy:
     3:
     0.209878,0.259060,0.066029,0.140311,0.000000,178.000000,170.000000,8.000000,17.000000,0.000000,0.000000,0.209878,0.259060,0.066029,0.140311,0.000000,178.000000,170.000000,8.000000,17.000000,0.000000,0.000000:
0000
0000
0000
0000
,
0000
0000
0000
0000
,
0000
0000
0000
0000
,
0000
0000
0000
0000
,
0000
0000
0000
0000
,
1000
0001
1000
0000
,
0010
0000
0100
0000
,
0001
1000
0001
0000
,
0100
0000
0000
0000
,
2002
0000
3003
0000
,
0010
0010
0100
0000
,
0001
0000
1000
0000
,
1000
0000
0001
0000
,
0100
0100
0010
0000
,
1000
0100
1000
0000
,
0001
0010
0001
0000
,
0100
0000
0010
0010
,
2002
0000
3003
0000
,
1001
0000
0001
0001
,
1000
0000
1000
1000
,
0001
0000
0100
0100
,
0010
0000
0010
0010
,
0100
0000
0001
0001
,
0010
0000
0100
0100
,
1000
0000
0010
0010
,
1000
0000
0001
0001
,
0200
0000
0300
0000
,
1001
0000
0010
0001
,
0100
0000
0001
0000
,
1000
0000
0001
0000
,
1000
0001
1000
0000
,
0010
0000
0100
0000
,
0001
0000
1000
0000
,
0100
0010
0100
2000
,
0002
0000
3003
0000
,
1001
0000
0000
0010
,
0100
0001
1000
0000
,
0001
0000
0000
0010
,
0100
1000
0001
0000
,
1000
0000
0000
0010
,
0100
0001
1000
0000
,
0001
0000
0000
0010
,
0100
1000
0001
0000
,
1001
0000
0001
0020
,
0030
0100
1000
2000
,
3010
0100
0020
0030
,
1000
0100
2000
3000
,
0001
0010
0002
0003
,
0100
0100
0020
0030
,
1000
0001
1000
1000
,
0001
1000
0001
0001
,
0100
0000
0010
0000
,
1000
0100
0010
0001
,
2002
0000
3003
0000
,
0001
0100
0001
0000
,
1000
0010
1000
0000
,
1000
0000
0001
0000
,
0010
0010
0100
0000
,
1001
0000
0001
0000
,
0100
0000
0010
0000
,
1000
0000
0100
0010
,
0100
0000
1000
0001
,
0100
0100
0100
0000
,
0010
0010
0010
0000
,
1000
0001
1000
0001
,
0200
0000
0000
0300
,
0010
0010
0010
0000
,
0100
0100
0100
0000
,
0001
1000
0001
1000
,
0200
0000
0000
0300
;

//---------------dance-single - K. Pearman----------------
#NOTES:
     dance-single:
     :
     Medium:
     4:
     0.288877,0.345414,0.264116,0.082536,0.000000,245.000000,213.000000,32.000000,10.000000,0.000000,0.000000,0.288877,0.345414,0.264116,0.082536,0.000000,245.000000,213.000000,32.000000,10.000000,0.000000,0.000000:
0000
0000
0000
0000
,
0000
0000
0000
0000
,
0000
0000
0000
0000
,
0000
0000
0000
0000
,
0000
0000
0000
0000
,
0010
1000
0001
0000
,
0010
0001
1000
0000
,
0100
1000
0001
1000
,
0001
0000
0000
0000
,
2002
0000
3003
0000
,
0001
0100
0001
0100
,
1000
0100
1000
0100
,
1000
0010
0001
0100
,
0001
1000
0100
0000
,
1001
0001
0010
0100
,
1000
0010
0100
0001
,
1000
1000
0001
0001
,
0200
0000
0300
0000
,
1001
0000
0001
0010
,
0011
0000
1000
0010
,
1010
0000
0001
0100
,
0101
0000
1000
0100
,
1100
0000
0010
0100
,
0110
0000
0001
1000
,
1001
0000
1000
0100
,
1100
0000
0001
0100
,
0101
0000
0000
0000
,
0001
0010
0100
1000
,
0001
1000
0010
0100
,
1000
0100
0001
0100
,
0010
1000
0001
0010
,
1001
0000
0001
0010
,
0100
0000
1000
0010
,
0100
0100
0010
0010
,
2002
0000
3003
0000
,
1001
0001
1000
0100
,
0100
1000
0001
1000
,
0001
0010
0100
1000
,
0001
1000
0001
1000
,
0010
1000
0001
0100
,
0100
0001
1000
0001
,
1000
0010
0100
0001
,
1000
0001
1000
0001
,
1001
0100
0010
0101
,
0000
0000
0011
1010
,
1001
0001
1000
0000
,
0100
0010
0110
0000
,
0010
0001
0101
0000
,
0010
1000
1100
0000
,
0100
0010
1001
0000
,
0010
0100
1001
0000
,
0001
0010
1100
0000
,
1000
0010
0101
1100
,
2002
0000
3003
0000
,
1001
1000
0001
1000
,
0010
0100
0001
0100
,
1000
0010
0001
0100
,
0010
1000
0100
0010
,
0011
0000
0001
0100
,
1010
0000
1000
0100
,
0010
0010
0100
0100
,
2002
0000
3003
0000
,
0001
0010
0001
0001
,
1000
0010
1000
1000
,
0001
0100
0001
0001
,
1000
0100
0010
0001
,
1000
0100
1000
1000
,
0001
0100
0001
0001
,
1000
0000
0010
0000
1000
0000
1000
0001
,
0200
0000
0000
0300
;

//---------------dance-single - K. Pearman----------------
#NOTES:
     dance-single:
     :
     Hard:
     6:
     0.385562,0.431767,0.206340,0.090790,0.000000,327.000000,302.000000,25.000000,11.000000,0.000000,0.000000,0.385562,0.431767,0.206340,0.090790,0.000000,327.000000,302.000000,25.000000,11.000000,0.000000,0.000000:
0000
0000
0000
0000
,
0000
0000
0000
0000
,
0000
0000
0000
0000
,
0000
0000
0000
0000
,
0000
0000
0000
0000
,
1000
0001
0000
1000
0000
0010
0000
0100
,
0000
0001
0000
0100
0000
0010
0000
1000
,
0000
0001
0000
0010
0000
0100
0000
1000
,
0000
0100
0000
0010
0000
0001
0000
0000
,
0220
0000
0330
0000
,
1000
0100
1000
0000
0010
0000
0010
0000
,
1000
0001
1000
0000
0001
0000
0001
0100
,
1000
0000
1000
0100
0001
0000
1000
0000
,
0010
0100
0010
0010
,
1001
0000
0001
0000
0010
0000
0100
1000
,
0001
0100
0100
0010
,
1000
0010
1010
1001
,
0101
0000
0001
0000
1000
0001
0100
0000
,
0101
0000
0000
0000
0001
0100
0001
0001
,
1000
0000
0000
0000
1000
0100
1000
1000
,
0001
0000
0000
0000
0001
0010
0001
0001
,
1000
0000
0000
0000
1000
0010
1000
1000
,
0001
0000
0000
0000
0100
0010
0100
0001
,
1000
0000
0000
0000
0100
0010
0100
1000
,
0001
0000
0000
0000
0100
0010
1000
0000
,
0001
0000
1000
0000
0001
0010
0100
0000
,
2002
0000
3003
0000
,
0001
0100
0001
0000
1000
0000
1000
0000
,
0010
0100
0010
0000
0100
0000
0001
0100
,
1000
0000
1000
0100
0001
0000
0010
0000
,
0100
1000
0001
0000
0100
0000
0010
0000
,
1001
0000
0001
0000
0100
0000
0010
1000
,
0100
0000
1000
0000
0100
0000
0010
0001
,
0100
0001
0101
1001
,
1100
0000
0000
0010
,
1001
0000
0001
0000
1000
0100
1000
0100
,
0010
0001
1000
0001
,
1001
0000
0000
0000
0001
0100
0001
0100
,
0010
1000
0001
1000
,
1001
0000
0000
0000
1000
0100
1000
0100
,
0010
0001
1000
0001
,
1001
0000
0000
0000
0001
0100
0001
0100
,
0010
1000
0001
0100
,
1001
0001
0010
1100
,
1000
0010
0101
1001
,
1000
0100
1000
0000
0001
0000
0001
0000
,
0010
0001
0010
0000
0100
0000
0100
0000
,
1000
0001
1000
0000
0010
0000
0010
0000
,
0100
0001
0100
0000
0001
0000
1000
0000
,
1001
0000
0001
0010
0200
0000
0300
0000
,
1000
0000
1000
0010
0200
0000
0300
0000
,
0100
0000
0100
0001
1000
0010
0100
0001
,
1000
1000
0001
0000
0010
0100
1000
0000
,
2002
0000
3003
0000
,
0001
0100
0001
0000
1000
0000
0001
0000
,
1000
0100
1000
0000
0001
0000
0001
0100
,
1000
0000
1000
0100
0001
0000
1000
0000
,
0010
0100
0001
0000
1000
0000
0001
0000
,
0010
0100
1000
0000
0001
0000
1000
0000
,
0010
0100
0001
0000
1000
0000
0001
0000
,
0100
0010
0100
0000
0101
0000
1100
0000
,
2002
0000
0000
0000
3003
0000
1000
0010
,
1000
0000
0001
0010
0001
0000
1000
0100
,
1000
0000
0001
0100
0001
0000
0100
0010
,
1000
0000
0100
0010
0001
0000
1000
0001
,
1000
0001
0100
0100
,
0001
0010
0100
0000
1000
0010
0100
0000
,
0001
0100
0010
0000
1000
0100
0010
0000
,
0001
1000
0001
0000
1000
0001
1000
0010
,
0200
0000
0310
1001
;

//---------------dance-single - K. Pearman----------------
#NOTES:
     dance-single:
     :
     Challenge:
     8:
     0.542381,0.546905,0.189833,0.165072,0.094917,460.000000,437.000000,23.000000,20.000000,0.000000,0.000000,0.542381,0.546905,0.189833,0.165072,0.094917,460.000000,437.000000,23.000000,20.000000,0.000000,0.000000:
0000
0000
0000
0000
,
0000
0000
0000
0000
,
0000
0000
0000
0000
,
0000
0000
0000
0000
,
0000
0000
0000
0000
0000
0000
0001
0100
,
0110
0000
0001
0000
1000
0000
0000
1000
0100
0000
0010
0000
0100
0000
0000
0000
,
1000
0000
0001
0000
0100
0000
0000
0001
0010
0000
0001
0000
1000
0000
0000
0000
,
0010
0000
0100
0000
0001
0000
0000
1000
0001
0000
1000
0000
0100
0000
0010
0000
,
0002
0003
0000
0000
,
2002
0000
0000
3003
,
1001
0001
0010
0000
0100
0100
1000
1000
,
0010
0100
0001
0000
0010
0000
0100
1000
,
1000
0000
0100
0001
0001
0000
0100
0000
,
1000
0010
0100
0001
0100
0010
2000
3000
,
1001
0001
0010
0100
1000
1000
0001
0100
,
0001
0001
1000
0010
1000
1000
0010
0100
,
1000
0100
0001
0100
0020
0000
2030
0000
,
3001
0000
0010
0000
0100
0000
1000
0001
0100
0000
0100
0000
0010
0000
0000
0000
,
1001
0000
0001
0010
0001
0001
1000
0100
,
2000
0000
3001
0010
0001
0001
1000
0010
,
2000
0000
3000
0100
1000
0010
1000
1000
,
0002
0000
1003
0001
0100
0001
1001
0000
,
0110
0000
1000
0010
0100
0100
0001
1000
,
0100
0000
0010
0001
0100
0100
0010
1000
,
0001
0000
0010
0100
1000
0010
1000
0001
,
0100
0010
1000
0001
1000
0000
1100
0000
,
0202
0000
0303
0000
,
1001
1000
0100
0000
0010
0010
0001
0001
,
0100
0010
1000
0000
0100
0000
0010
1000
,
1000
0000
0010
0001
0001
0000
0010
0000
,
0001
0100
0010
1000
0010
0100
0002
0003
,
1001
1000
0100
0010
0001
0001
1000
0010
,
1000
1000
0001
0100
0001
0001
0100
0010
,
0001
0010
1000
0010
0200
0000
0302
0000
,
1003
0000
0100
0000
0010
0000
0001
1000
0010
0000
0010
0000
0100
0000
0000
0000
,
2100
0000
0000
0000
3001
0000
0010
0001
0100
0000
0001
0000
0100
0000
0000
0000
,
0010
0000
1000
0000
0001
0000
1000
0001
0100
0000
0001
0000
0100
0000
0000
0000
,
0010
0000
0100
0000
0001
0000
0010
0100
1000
0000
0100
0000
1000
0000
0000
0000
,
0100
0000
1000
0000
0001
0000
1000
0010
0100
0000
0010
0000
0100
0000
0000
0000
,
0001
0000
0010
0000
1000
0000
0010
0001
0010
0000
0001
0000
0100
0000
0000
0000
,
1000
0000
0100
0000
0001
0000
1000
0100
1000
0000
0001
0000
0100
0000
0000
0000
,
0010
0000
0100
0000
0001
0000
1000
0010
0100
0000
0010
0000
1000
0000
0000
0000
,
0001
0000
0100
0000
0010
0000
0100
0001
0010
0000
0100
0000
1000
0000
0000
0000
,
1001
0001
0100
0010
1000
0100
1100
0000
,
1000
0000
0010
0000
0100
0000
0001
1000
0001
0000
0000
0000
0110
0000
0000
0000
,
1001
0001
0010
0100
1000
1000
0010
0000
,
1000
0010
0100
0001
0010
0010
1000
0000
,
0010
0001
1000
0010
0100
0100
0001
0000
,
0100
0010
1000
0001
1000
0100
1100
0000
,
1000
0100
0010
0001
1000
1000
0010
0000
,
0100
0001
1000
0010
0100
0100
0001
0000
,
0010
0001
0010
0100
0010
0010
0001
1000
,
0100
0010
0010
0100
1000
0100
0010
0000
,
0220
0000
0000
0330
,
1001
0001
0010
0000
0100
0100
1000
1000
,
0010
0100
0001
0000
0010
0000
0100
1000
,
1000
0000
0100
0001
0001
0000
0100
0000
,
1000
0010
0100
0001
0100
0010
2000
3000
,
1001
0001
0010
0100
1000
1000
0001
0100
,
0001
0001
1000
0010
1000
1000
0010
0100
,
1000
0100
0001
0100
0020
0000
2030
0000
,
3001
0000
0010
0000
0100
0000
1000
0001
0100
0000
0100
0000
0010
0000
0000
0000
,
0100
0000
0001
0000
0001
0000
0000
0001
0010
0000
0100
0000
0100
0000
0000
0000
,
1100
0000
0001
0000
1000
0000
0000
1000
0100
0000
0010
0000
0001
0000
0000
0000
,
0001
0000
0100
0000
0001
0000
0000
1000
0001
0000
0100
0000
0010
0000
0000
0000
,
1000
0000
0001
0000
0010
0000
0000
0100
0010
0000
0001
0000
1000
0000
0000
0000
,
1001
0000
1000
0000
0010
0000
0000
0100
0001
0000
1000
0000
0001
0000
0000
0000
,
0010
0000
0100
0000
1000
0000
0000
0010
1000
0000
0001
0000
0010
0000
0000
0000
,
0100
0000
0001
0000
0100
0000
0000
0010
0001
0000
1000
0000
0010
0000
0000
0000
,
0100
0000
1000
0000
0100
0000
0001
0010
0100
0000
0100
0000
1001
0000
0000
0000
;

//---------------dance-double - K. Pearman----------------
#NOTES:
     dance-double:
     :
     Easy:
     4:
     0.251146,0.345414,0.074283,0.041268,0.000000,213.000000,204.000000,9.000000,5.000000,0.000000,0.000000,0.251146,0.345414,0.074283,0.041268,0.000000,213.000000,204.000000,9.000000,5.000000,0.000000,0.000000:
00000000
00000000
00000000
00000000
,
00000000
00000000
00000000
00000000
,
00000000
00000000
00000000
00000000
,
00000000
00000000
00000000
00000000
,
00000000
00000000
00000000
00000000
,
10000000
01000000
00010000
00000000
,
00001000
00010000
00001000
00000000
,
00010000
00001000
00000100
00000000
,
00000001
00001000
00000001
00000000
,
00001001
00000000
00000000
00000000
,
00000001
00000001
00001000
00000000
,
00000100
00000100
00000010
00000000
,
00001000
00000010
00000001
00000000
,
00000100
00000100
00000010
00001000
,
00000100
00010000
00001000
01000000
,
00100000
00100000
10000000
00010000
,
00100000
01000000
10000000
00010000
,
10000000
00000000
00000000
00000000
,
10010000
00000000
00010000
01000000
,
00001000
00000000
00010000
00000100
,
00001000
00000000
00000001
00001000
,
00000010
00000000
00010000
00001000
,
00100000
00000000
01000000
01000000
,
00100000
00000000
00010000
00010000
,
10000000
00000000
10000000
00100000
,
01000000
00000000
00010000
01000000
,
01100000
00000000
00000000
00000000
,
10010000
00000000
10000000
01000000
,
00100000
00000000
00000000
00000000
,
10000000
00100000
00010000
00000000
,
01000000
01000000
00010000
00010000
,
00100000
00001000
00010000
00000100
,
00001000
00001000
00000010
00000100
,
00000001
00001000
00000100
00000100
,
00001001
00000000
00000000
00000000
,
00000002
00000000
00001003
00000001
,
00000100
00000010
00010000
00001000
,
20000000
00000000
30010000
00100000
,
01000000
10000000
00001000
00010000
,
00000001
00000002
00000013
00000100
,
00001000
00000010
00010000
00001000
,
20000000
00000000
30100000
01000000
,
00001000
00010000
00000100
00000000
,
00000010
00000001
00001000
00001001
,
00001000
00000100
00011000
00011000
,
00001000
01000000
00100000
00000000
,
10000000
01000000
00100000
00000000
,
00010000
00100000
10000000
00000000
,
00100000
00010000
01000000
00000000
,
00010000
01000000
00001000
00010000
,
00000100
00001000
00000010
00000100
,
00000001
00000010
00001000
00010000
,
00100000
10000000
01000000
01000000
,
10010000
00000000
00000000
00000000
,
10000000
01000000
10000000
00000000
,
00010000
01000000
00010000
00000000
,
10000000
00100000
00010000
00000000
,
00001000
00001000
00010000
00010000
,
00001000
00000100
00000010
00001000
,
00000001
00000010
00000100
00001000
,
00000001
00000001
00001000
00001000
,
00000200
00000000
00000000
00000300
,
00000010
00000001
00000100
00000000
,
00000010
00001000
00000100
00000000
,
00010000
00001000
01000000
00000000
,
00001000
00010000
00000100
00000000
,
00010000
00100000
01000000
00000000
,
00010000
10000000
01000000
00000000
,
10000000
00010000
01000000
00000000
,
00100000
10000000
01000000
01000000
;

//---------------dance-double - K. Pearman----------------
#NOTES:
     dance-double:
     :
     Medium:
     5:
     0.327787,0.374198,0.165072,0.082536,0.000000,278.000000,258.000000,20.000000,10.000000,0.000000,0.000000,0.327787,0.374198,0.165072,0.082536,0.000000,278.000000,258.000000,20.000000,10.000000,0.000000,0.000000:
00000000
00000000
00000000
00000000
,
00000000
00000000
00000000
00000000
,
00000000
00000000
00000000
00000000
,
00000000
00000000
00000000
00000000
,
00000000
00000000
00000000
00000000
,
00000000
00010000
00000000
00001000
00000000
00010000
00000000
00001000
,
00000000
01000000
00000000
00010000
00000000
01000000
00000000
00010000
,
00000000
10000000
00000000
01000000
00000000
10000000
00000000
01000000
,
00000000
00100000
00000000
01000000
00000000
00100000
00000000
00000000
,
10010000
00000000
00000000
00000000
,
00010000
10000000
01000000
00100000
,
01000000
00000000
10000000
00000000
00010000
00000000
10000000
10000000
,
10000000
00000000
00010000
00010000
00010000
00000000
01000000
00000000
,
00001000
00010000
00000100
00000010
,
00000011
00000001
00000100
00000010
,
00001010
00001000
00000100
00010000
,
00001000
00010000
00000200
00000320
,
00000230
00000000
00001300
00000000
00000001
00001000
00000001
00000000
,
00001001
00000000
00000001
00000100
,
00001000
00001000
00010000
01000000
,
10000000
10000000
00100000
00010000
,
00001000
00000010
00001000
00010000
,
01100000
00000000
00100000
00010000
,
10000000
10000000
00010000
01000000
,
00001000
00010000
00000100
00001000
,
00000001
00000001
00001000
00000010
,
00000110
00000000
00000000
00000000
,
00000100
00000100
00000100
00000000
00000001
00000000
00001000
00000000
,
00000100
00000100
00000100
00000000
00000010
00000000
00000100
00000000
,
00001000
00000010
00000001
00000000
,
00000010
00000100
00000001
00001000
,
00010100
00000100
00010000
00001000
,
01001000
01000000
00010000
10000000
,
01000000
00100000
00010000
10000000
,
00200000
00000000
01300000
01100000
,
20000000
00000000
00000000
00000000
00000000
00000000
30010000
01000000
,
00010000
00010000
00100000
00001000
,
00002000
00000000
00000000
00000000
00013000
00000000
00001000
00010000
,
00001000
00000100
00000001
00001000
,
00000002
00000000
00000000
00000000
00000013
00000000
00000001
00000010
,
00000001
00001000
00000100
00010000
,
00002000
00000000
00000000
00000000
01003000
00000000
00001000
01000000
,
00001000
01000000
00100000
10000000
,
10010000
00010000
01000000
01100000
,
00100000
10000000
10010000
10010000
,
10000000
01000000
00020000
00031000
,
00010000
00001000
00000200
00000310
,
00001000
00000001
00000010
00000100
,
00001000
00000000
00000001
00000000
00001000
00000001
00001000
00000000
,
00000010
00000000
00010000
00000000
00001000
00001000
00001000
00000000
,
00010000
00000000
00001000
00000000
00100000
00100000
00100000
00000000
,
01000000
10000000
00010000
01000000
,
00100000
10000000
01000000
00100000
,
10010000
00000000
00000000
00000000
,
10010000
00010000
01000000
00100000
,
10000000
00000000
00010000
00000000
01100000
00000000
10000000
10000000
,
10000000
00000000
00010000
00010000
00010000
00000000
00100000
00000000
,
00001000
00010000
00000010
00000100
,
00001001
00000001
00000010
00000100
,
00010100
00010000
00001000
01000000
,
01010000
00010000
10000000
01000000
,
00010000
00000000
01000000
00000000
10000000
00010000
10000000
00000000
,
00100000
00100000
00100000
00100000
,
01000000
00001000
00010000
00000100
,
00000010
00000000
00000100
00000000
00010000
00000000
00001000
00010000
,
00001000
00010000
00001000
00001000
,
00010000
00100000
01000000
00001000
,
00010000
00000100
00000010
00001000
,
00010000
00100000
00010000
00001000
,
00000010
00000000
00001000
00000000
00010000
00001000
00011000
00000000
;

//---------------dance-double - K. Pearman----------------
#NOTES:
     dance-double:
     :
     Hard:
     7:
     0.449233,0.518121,0.181580,0.074283,0.000000,381.000000,359.000000,22.000000,9.000000,0.000000,0.000000,0.449233,0.518121,0.181580,0.074283,0.000000,381.000000,359.000000,22.000000,9.000000,0.000000,0.000000:
// measure 0
00000000
00000000
00000000
00000000
,  // measure 1
00000000
00000000
00000000
00000000
,  // measure 2
00000000
00000000
00000000
00000000
,  // measure 3
00000000
00000000
00000000
00000000
,  // measure 4
00000000
00000000
00000000
00000000
,  // measure 5
10000000
01000000
00000000
00100000
00010000
01000000
00000000
00001000
,  // measure 6
00010000
00000100
00000000
00010000
00001000
01000000
00000000
00001000
,  // measure 7
00010000
00000100
00000000
00000010
00000100
00001000
00000000
00000001
,  // measure 8
00000100
00000010
00000000
00001000
00000010
00000001
00000010
00000000
,  // measure 9
00022000
00000000
00000000
00033000
,  // measure 10
00011000
00000000
01001000
00000000
00001000
01000000
00010000
00000000
,  // measure 11
01000000
00000000
00100000
00000000
10000000
00000000
10000000
00100000
,  // measure 12
00010000
00000000
00001000
00000010
00000001
00000000
00000100
00000000
,  // measure 13
00000001
00000100
00000010
00000100
00001000
00000100
00000001
00000000
,  // measure 14
00001000
00000100
00000010
00000000
00000100
00000000
00010000
00001000
,  // measure 15
01000000
00000000
00010000
00000000
01000000
00000000
00100000
01000000
,  // measure 16
00010000
10000000
11000000
01010000
,  // measure 17
00022000
00000000
00000000
00033000
,  // measure 18
00011000
00000000
00001000
00000000
00010000
00001000
00000010
00000001
,  // measure 19
00000100
00000000
00000100
00000000
00000010
00001000
00000100
00000001
,  // measure 20
00000100
00001000
00000010
00000100
,  // measure 21
00001000
00000000
00010000
00000000
01000000
00000000
00100000
00010000
,  // measure 22
10010000
00000000
10000000
00000000
00100000
01000000
00010000
01000000
,  // measure 23
00100000
00000000
10000000
00000000
01000000
00000000
00100000
00001000
,  // measure 24
00010000
00000000
00001000
00000000
00010000
00001000
00000100
00000000
,  // measure 25
00000010
00000000
00001000
00000000
00000001
00000010
00000100
00000010
,  // measure 26
00002000
00000000
00000000
00003000
,  // measure 27
00011000
00000000
00010010
00000000
00010000
00000010
00001000
00000000
,  // measure 28
00000100
00000000
00010000
00000000
01000000
00000000
10000000
00100000
,  // measure 29
00010000
00000000
00001000
00000100
00000001
00000000
00000010
00000000
,  // measure 30
00001000
00100000
01000000
00100000
00010000
00100000
00001000
00000000
,  // measure 31
00010000
00001000
00100000
00000000
00100000
00000000
00001000
00010000
,  // measure 32
00000010
00000000
00001000
00000000
00000010
00000000
00000100
00000010
,  // measure 33
00001000
00000001
00000011
00001010
,  // measure 34
00220000
00000000
00000000
00330000
,  // measure 35
00010000
00100000
00010000
10000000
00010000
01000000
10000000
00000000
,  // measure 36
01000000
00000000
00010000
00000000
10000000
01000000
00100000
00000000
,  // measure 37
00001000
00010000
00000010
00010000
00001000
00000100
00000001
00000000
,  // measure 38
00000010
00000000
00000100
00000000
00000010
00000001
00001000
00000000
,  // measure 39
00000001
00000010
00000100
00001000
00000001
00000100
00001000
00000000
,  // measure 40
00010000
00001000
00010000
00001000
,  // measure 41
00010000
00100000
10000000
00010000
00100000
01000000
10000000
00000000
,  // measure 42
01000000
00000000
00100000
00000000
01000000
10000000
00010000
00000000
,  // measure 43
10000000
01000000
00100000
00010000
01000000
00100000
01100000
00000000
,  // measure 44
00100000
01000000
00010000
10000000
10010000
00000000
01100000
00000000
,  // measure 45
10000000
10000000
00100000
00010000
00001000
00000000
00010000
00000000
,  // measure 46
00001000
00000010
00000001
00000100
00000010
00000000
00000100
00000000
,  // measure 47
00000001
00000010
00001000
00010000
00001000
00000000
00010000
00000000
,  // measure 48
00100000
10000000
01000000
00010000
01000000
00000000
10010000
00000000
,  // measure 49
00010000
00100000
01000000
10000000
00010000
00010000
10000000
00000000
,  // measure 50
00100000
01000000
00010000
10000000
00100000
00100000
10000000
00000000
,  // measure 51
00010000
01000000
00001000
00000000
00010000
00000100
00001000
00000000
,  // measure 52
00000001
00000100
00000010
00000100
00000001
00000010
00000100
00000000
,  // measure 53
00002200
00000000
00000000
00003300
,  // measure 54
00011000
00000000
01010000
00000000
00010000
01000000
00100000
00000000
,  // measure 55
01000000
00000000
00010000
00000000
00100000
00000000
10000000
00100000
,  // measure 56
00001000
00000000
00010000
00000010
00000001
00000000
00000010
00000000
,  // measure 57
00000100
00000010
00000100
00001000
00010000
00100000
01000000
00000000
,  // measure 58
00010000
10000000
01000000
00000000
10000000
01000000
00100000
00000000
,  // measure 59
01000000
00100000
00010000
00000000
00100000
00010000
01000000
00100000
,  // measure 60
00010000
00001000
00000100
00000010
00001000
00000001
00000010
00000100
,  // measure 61
00000001
00000100
00001000
00000001
00000010
00000100
00001100
00000000
,  // measure 62
00001000
00000100
00010000
00000000
00010000
00001000
01000000
00000000
,  // measure 63
00001000
01000000
00010000
00000000
00010000
01000000
00100000
00000000
,  // measure 64
10000000
01000000
00010000
01000000
10000000
00000000
00100000
01000000
,  // measure 65
00100000
10000000
00010000
00000000
00100000
00010000
10000000
00000000
,  // measure 66
00010000
10000000
00100000
01000000
00010000
00000000
00100000
00001000
,  // measure 67
00010000
00001000
01000000
00001000
00010000
00000000
00000100
00010000
,  // measure 68
00000010
00001000
00000100
00001000
00000010
00000000
00000100
00000001
,  // measure 69
00000010
00001000
00000010
00000000
00000001
00001000
00001001
00000000
;

//---------------dance-double - K. Pearman----------------
#NOTES:
     dance-double:
     :
     Challenge:
     9:
     0.545918,0.546905,0.231101,0.148565,0.066029,463.000000,435.000000,28.000000,18.000000,0.000000,0.000000,0.545918,0.546905,0.231101,0.148565,0.066029,463.000000,435.000000,28.000000,18.000000,0.000000,0.000000:
00000000
00000000
00000000
00000000
,
00000000
00000000
00000000
00000000
,
00000000
00000000
00000000
00000000
,
00000000
00000000
00000000
00000000
,
00000000
00000000
00000000
00000000
,
00010000
00002000
00000000
00103000
00010000
02000000
00000000
03000100
,
00001000
00000020
00000000
00010030
00100000
01000000
00000000
00001000
,
00000100
00000010
00000000
00010000
00001000
00100000
00000000
00001000
,
00010000
00000010
00000000
00000100
00000001
00001000
00000100
00000100
,
00002002
00000000
00000000
00003003
,
00000110
00000000
00001001
00000000
00000001
00000100
00000010
00010000
,
00001000
00100000
01000000
00000000
10000000
00000000
00100000
01000000
,
10000000
01000000
00001000
00010000
00000100
00000001
00000100
00000000
,
00000010
00000001
00000100
00000001
00001000
00001000
00000100
00000000
,
00010100
00000000
00101000
00000000
00100000
00010000
01000000
00000000
,
01010000
00000000
00101000
00000000
00001000
00010000
00000010
00000000
,
00000100
00000001
00000010
00001000
00010000
00100000
10000000
01000000
,
00010000
00000000
00001000
00000000
01000000
00000000
00100000
01000000
00010000
00000000
00100000
00000000
00110000
00000000
00000000
00000000
,
00012000
00000000
00103000
00010000
01000000
00100000
00001000
00000010
,
00000100
00000000
00021000
00000000
00030010
00001000
00000100
00000010
,
00001000
00100000
00010000
00000000
00100000
00001000
00010000
00001000
,
00000200
00000000
00000310
00000000
00000100
00001000
00000100
00000010
,
00020010
00000000
00032000
00000000
00103000
00010000
01000000
00010000
,
00000100
00000010
00001000
00000000
00000010
00001000
00000100
00000010
,
00001000
00010000
00100000
00000000
01000000
00010000
00100000
01000000
,
00010000
00001000
00000100
00000010
00001000
00000100
00000110
00000000
,
00022000
00000000
00000000
00033000
,
00011000
00000000
01001000
00000000
00001000
01000000
00010000
00100000
,
01000000
01000000
10000000
00000000
00010000
00000000
10000000
00001000
,
00010000
00000000
00001000
00010000
00000001
00000000
00000010
00000000
,
00000100
00000010
00000001
00000100
00001000
00010000
00001000
00000100
,
00000010
00000010
00001000
00000100
00000010
00001000
00010000
00100000
,
01000000
01000000
00010000
10000000
01000000
00100000
00010000
01000000
,
10000000
01000000
00010000
00100000
00110000
00000000
00011000
00000000
,
00001010
00000000
00000010
00000000
00010000
00000000
00001000
00100000
00010000
00000000
01000000
00000000
00100000
00000000
00000000
00000000
,
00100000
01000000
00010000
01000000
00001000
01000000
00000100
00010000
,
00000100
00000000
00001000
00000000
00000100
00000000
00000010
00000100
00010000
00000000
00001000
01000000
00100000
00000000
01000000
00000000
,
00001000
00100000
00010000
00100000
00001000
00100000
00000010
00010000
,
00000010
00000000
00001000
00000000
00000010
00000000
00000100
00000010
00010000
00000000
00001000
00100000
01000000
00000000
00000000
00000000
,
00100000
01000000
00100000
00001000
00000010
00000100
00000010
00000000
,
00000100
00000010
00000100
00001000
01000000
00100000
01000000
00000000
,
00100000
00010000
01000000
00100000
00010000
00001000
00000010
00000100
,
00001000
00000000
00010000
00000000
01000000
00000000
00000000
00010000
01000000
00000000
00100000
00000000
01100000
00000000
00000000
00000000
,
02010000
00000000
03001000
00010000
00000100
00000000
00001100
00000000
,
00000100
00010000
00001000
01000000
01010000
00000000
00011000
00000000
,
00010000
00001000
00000100
00000001
00000010
00001000
00010000
00000000
,
00001000
00010000
00100000
10000000
01000000
00010000
00001000
00000000
,
00100000
00001000
00010000
00100000
10000000
00010000
10000000
01000000
,
00010000
00001000
00000010
00000001
00001000
00000001
00000100
00000010
,
00001000
00000100
00000010
00001000
00010000
00100000
00100000
01000000
,
00010000
00100000
01000000
00010000
00001000
00000100
00000010
00000010
,
00001000
00000001
00000010
00001000
00000010
00000001
00000100
00001000
,
00010000
01000000
10000000
00100000
00010000
00001000
01000000
00100000
,
20020000
00000000
00000000
30030000
,
10010000
00000000
01100000
00000000
00010000
10000000
01000000
10000000
,
00010000
00010000
00100000
00000000
01000000
00000000
10000000
00100000
,
00010000
00001000
00000010
00000001
00002000
00000000
00003000
00000000
,
00000100
00000010
00000001
00000100
00001000
00000100
00000001
00000000
,
00001001
00000001
00000010
00000100
00001000
00000010
00010000
00001000
,
00100000
00100000
00010000
10000000
00100000
01000000
00010000
10000000
,
01000000
00010000
00001000
00000100
00000002
00000000
00000023
00000000
,
00001030
00000000
00010000
00000000
00100000
00000000
10000000
01000000
10000000
00000000
00010000
00000000
10000000
00000000
00000000
00000000
,
01000000
00000000
10000000
00000000
00100000
00000000
00000000
10000000
00100000
00000000
01000000
00000000
00010000
00000000
00000000
00000000
,
01000000
00000000
00010000
00000000
00100000
00000000
00000000
00100000
00001000
00000000
00010000
00000000
00000100
00000000
00000000
00000000
,
00000100
00000000
00010000
00000000
00001000
00000000
00000000
00010000
00001000
00000000
00000100
00000000
00000001
00000000
00000000
00000000
,
00000010
00000000
00000001
00000000
00001000
00000000
00000000
00001000
00000100
00000000
00000010
00000000
00000001
00000000
00000000
00000000
,
00000001
00000000
00000100
00000000
00001000
00000000
00000000
00010000
01000000
00000000
10000000
00000000
00100000
00000000
00000000
00000000
,
10000000
00000000
00100000
00000000
00010000
00000000
00000000
00001000
00000010
00000000
00000001
00000000
00000100
00000000
00000000
00000000
,
00000010
00000000
00000100
00000000
00000001
00000000
00000000
00001000
00000001
00000000
00000010
00000000
00000100
00000000
00000000
00000000
,
00010000
00000000
00001000
00000000
01000000
00000000
00000000
00100000
01000000
00000000
00001000
00000000
00011000
00000000
00000000
00000000
;
