#VERSION:0.83;
#TITLE:Stache;
#SUBTITLE:(Short Version);
#ARTIST:Zedd;
#TITLETRANSLIT:;
#SUBTITLETRANSLIT:;
#ARTISTTRANSLIT:;
#GENRE:;
#ORIGIN:;
#CREDIT:;
#BANNER:stache.png;
#BACKGROUND:Stache (Short Version)-BG.png;
#PREVIEWVID:;
#JACKET:;
#CDIMAGE:;
#DISCIMAGE:;
#LYRICSPATH:;
#CDTITLE:;
#MUSIC:Stache (Short Version).Ogg;
#OFFSET:-0.476000;
#SAMPLESTART:46.938999;
#SAMPLELENGTH:12.000000;
#SELECTABLE:YES;
#BPMS:0.000=128.000;
#STOPS:;
#DELAYS:;
#WARPS:;
#TIMESIGNATURES:0.000=4=4;
#TICKCOUNTS:0.000=4;
#COMBOS:0.000=1;
#SPEEDS:0.000=1.000=0.000=0;
#SCROLLS:0.000=1.000;
#FAKES:;
#LABELS:0.000=Song Start;
#BGCHANGES:;
#KEYSOUNDS:;
#ATTACKS:
;

//---------------dance-double - K. Pearman----------------
#NOTEDATA:;
#CHARTNAME:K. Pearman;
#STEPSTYPE:dance-double;
#DESCRIPTION:K. Pearman;
#CHARTSTYLE:;
#DIFFICULTY:Challenge;
#METER:12;
#RADARVALUES:0.761905,0.866461,0.418462,0.098462,0.955897,650.000000,599.000000,51.000000,12.000000,0.000000,4.000000,0.000000,0.000000,0.000000,0.761905,0.866461,0.418462,0.098462,0.955897,650.000000,599.000000,51.000000,12.000000,0.000000,4.000000,0.000000,0.000000,0.000000;
#CREDIT:K. Pearman;
#NOTES:
00000000
00000000
00000000
00000000
,
00000000
00000000
00000000
00000000
,
00000000
00000000
00000000
00000000
,
00000000
00000000
00000000
00000000
,
00001000
00010000
00001000
00010000
00000100
00000000
00000010
00000000
00000001
00000000
00000100
00000000
00000010
00000000
00001000
00000000
,
00000100
00010000
00000100
00010000
00001000
00000000
01000000
00000000
00010000
00000000
00100000
00000000
01000000
00000000
10000000
00000000
,
00100000
01000000
00100000
01000000
00010000
00000000
10000000
00000000
01000000
00000000
00010000
00000000
00001000
00000000
00000100
00000000
,
00000001
00001000
00000001
00001000
00000010
00000000
00000100
00000001
00000000
00001000
00000001
00000000
00000010
00000000
00000100
00000000
,
00001000
00000100
00000010
00000001
00000100
00000010
00000100
00000001
00000010
00000000
00000100
00001000
00000010
00001000
00000100
00010000
,
00001000
00000000
01000000
00001000
00010000
00001000
01000000
00010000
00100000
00000000
01000000
00100000
00010000
10000000
01000000
10000000
,
00100000
00000000
01000000
00010000
10000000
00010000
01000000
00100000
01000000
00000000
00010000
00100000
01000000
10000000
01000000
00100000
,
00010000
00000000
01000000
00001000
00010000
00001000
01000000
00001000
00010000
00000000
00000100
00010000
00001000
00010000
00000100
00010000
,
00000010
00000000
00001000
00000100
00000010
00000001
00000100
00000010
00001000
00000000
00000001
00000010
00000100
00001000
00000001
00000100
,
00000010
00000000
00000100
00000010
00001000
00000100
00010000
00001000
00010000
00000000
00000100
00010000
00001000
01000000
00001000
00010000
,
00001000
00000000
00100000
00010000
01000000
00010000
00100000
01000000
10000000
00000000
00010000
01000000
00100000
10000000
01000000
00100000
,
00020000
00000000
20030000
30000000
,
10000000
01000000
00100000
01000000
10000000
00000000
00010000
00100000
00000000
01000000
00000000
00100000
00010000
00000000
10000000
00000000
,
00010000
01000000
00100000
01000000
00010000
00000000
10000000
00100000
00000000
01000000
00000000
00100000
10000000
00000000
00010000
00000000
,
01000000
00001000
00010000
00001000
01000000
00000000
00001000
00010000
00000000
00000100
00000000
00010000
00001000
00000000
00010000
00000000
,
00000100
00000010
00001000
00000010
00000100
00000000
00001000
00000010
00000000
00000100
00000000
00000010
00000001
00000000
00000010
00000000
,
00001000
00000001
00000100
00000010
00000100
00000000
00000001
00001000
00000000
00000100
00000000
00000010
00000001
00000000
00000010
00000000
,
00000100
00001000
00000001
00000010
00000100
00000000
00000010
00000001
00000000
00000010
00000000
00001000
00000010
00000000
00000001
00000000
,
00000100
00001000
00010000
00100000
10000000
01000000
00010000
00001000
,
00000010
00000000
00000001
00000000
00000100
00000000
00001000
00000000
00010000
00000000
00100000
00000000
01000000
00010000
10000000
00010000
,
10000000
01000000
00100000
00010000
01000000
00100000
01000000
00010000
10000000
01000000
00100000
00010000
01000000
00100000
01000000
00010000
,
00100000
00001000
01000000
00100000
10000000
01000000
00010000
01000000
00100000
00001000
00010000
00000010
00001000
00000010
00000100
00000001
,
00000010
00000100
00010000
00001000
00010000
00000100
00000010
00000001
00000100
00000010
00001000
00000100
00010000
00001000
00010000
00000010
,
00000100
00001000
00000100
00000010
00000100
00000001
00000010
00000100
00010000
00001000
00100000
00010000
00100000
01000000
10000000
00100000
,
01000000
00001000
01000000
00100000
10000000
00010000
10000000
01000000
00100000
00010000
01000000
00010000
00100000
01000000
10000000
00100000
,
00010000
00001000
00010000
00100000
00010000
00001000
00100000
00010000
10000000
01000000
00100000
01000000
10000000
01000000
00100000
00010000
,
01000000
00001000
00010000
00001000
00000010
00000100
00000010
00000001
00000100
00000010
00001000
00000001
00000010
00000100
00001000
00000001
,
00000100
00000000
00001000
00000000
00010000
00000000
00100000
00000000
10000000
00000000
00010000
00100000
10000000
00100000
00010000
01000000
,
00100000
10000000
01000000
00010000
00001000
00100000
00010000
01000000
00001000
00100000
00010000
01000000
00100000
10000000
01000000
00100000
,
00010000
01000000
00001000
00010000
00000100
00000010
00001000
00000010
00000100
00001000
00000001
00000100
00000010
00001000
00000001
00000000
,
00000010
00000001
00000100
00001000
00010000
00000100
00000010
00001000
00010000
00000010
00000100
00000001
00001000
00000100
00010000
00001000
,
00010000
00000010
00000100
00000001
00001000
00000100
00000010
00000001
00001000
00000010
00000100
00000010
00001000
00000000
00010000
00000000
,
00100000
01000000
10000000
00100000
00001000
00100000
01000000
00010000
10000000
01000000
00100000
00010000
01000000
00001000
00010000
00000100
,
00001000
00000010
00000100
00000001
00000010
00001000
00000010
00000001
00000100
00000010
00001000
00000100
00000001
00000100
00001000
00000010
,
00000200
00000000
00000301
00001000
00001001
00000000
00000100
00010000
,
00002000
00000000
00023000
00030000
,
00011000
00000000
00000000
10001000
00000000
00000000
00011000
00000000
00000000
10001000
00000000
00000000
00001000
00000000
00010000
00000000
,
00011000
00000000
00000000
00010001
00000000
00000000
00011000
00000000
00000000
00010001
00000000
00000000
00010000
00000000
00001000
00000000
,
01010000
00000000
00000000
10010000
00000000
00000000
11000000
00000000
00000000
00000000
00000000
00000000
00000000
00000000
00000000
00000000
,
02000000
00000000
00000000
00000000
00000200
00000000
00110000
03000300
,
01000100
00000000
00000000
00100100
00000000
00000000
01000100
00000000
00000000
01000010
00000000
00000000
01000100
00000000
00011000
00000000
,
00100010
00000000
00000000
01000010
00000000
00000000
00100010
00000000
00000000
00100100
00000000
00000000
00100010
00000000
00011000
00000000
,
00011000
00000000
00000000
00110000
00000000
00000000
10100000
00000000
01000000
00000000
00000000
00000000
00100000
00000000
00000000
00000000
,
11000000
00000000
00000000
01010000
00000000
00000000
01100000
00000000
01010000
00000000
00000000
00011000
00000000
00000000
00000110
00000000
,
00011000
00000000
00000000
00010010
00000000
00000000
00011000
00000000
00000000
00101000
00000000
00000000
00011000
00000000
01000100
00000000
,
00011000
00000000
00000000
10001000
00000000
00000000
00011000
00000000
00000000
00010001
00000000
00000000
00011000
00000000
00101000
00000000
,
00011000
00000000
00000000
00010010
00000000
00000000
00011000
00000000
00000000
01000100
00000000
00000000
00011000
00000000
00000010
00000000
,
00001000
00000000
00000000
00000100
00000000
00000000
00000010
00000000
00001000
00000000
00000000
00000010
00000000
00000000
00000001
00000000
,
00000100
00000000
00000010
00001000
00000000
00000001
00000100
00000000
00001000
00010000
00000000
01000000
00100000
00000000
00010000
00000000
,
10000000
00000000
00100000
00010000
00000000
00100000
10000000
00000000
01000000
00010000
00000000
00001000
00010000
00000000
00000100
00000000
,
00000010
00000000
00001000
00000010
00000000
00000001
00000100
00000000
00001000
00000000
00000100
00000000
00000001
00000000
00000010
00000000
,
00001000
00000000
00010000
00100000
10000000
00000000
01000000
00000000
00100000
00000000
00010000
01000000
10000000
00000000
01000000
00000000
,
00010000
00000000
10000000
01000000
00000000
00100000
00010000
00000000
01000000
00001000
00000000
00010000
00000100
00000000
00000010
00000000
,
00000001
00000000
00000100
00001000
00000000
00000100
00000010
00000000
00001000
00000100
00000000
00000010
00001000
00000000
00010000
00000000
,
00100000
00000000
00010000
00001000
00100000
00000000
00010000
00000000
01000000
00000000
00010000
10000000
01000000
00000000
00100000
00000000
,
00010000
00000000
01000000
00001000
00010000
00000000
00000100
00000000
00000010
00000000
00000001
00001000
00000010
00000000
00000100
00000000
,
00000002
00000000
00000000
00000000
,
00000200
00000000
00000000
00000000
,
00002003
00000000
00000000
00000000
,
00200300
00000000
02003000
00000000
,
03300000
00000000
00000000
00000000
;

//---------------dance-single - K. Pearman----------------
#NOTEDATA:;
#CHARTNAME:K. Pearman;
#STEPSTYPE:dance-single;
#DESCRIPTION:K. Pearman;
#CHARTSTYLE:;
#DIFFICULTY:Challenge;
#METER:11;
#RADARVALUES:0.832234,0.918974,0.328205,0.147692,1.197949,710.000000,670.000000,40.000000,18.000000,0.000000,1.000000,4.000000,0.000000,0.000000,0.832234,0.918974,0.328205,0.147692,1.197949,710.000000,670.000000,40.000000,18.000000,0.000000,1.000000,4.000000,0.000000,0.000000;
#CREDIT:K. Pearman;
#NOTES:
0000
0000
0000
0000
,
0000
0000
0000
0000
,
0000
0000
0000
0000
,
0000
0000
0000
0000
,
1000
0100
0010
0001
0010
0100
1000
0001
1000
0100
0010
0001
0010
0100
1000
0001
,
1000
0100
0010
0001
0010
0100
1000
0001
1000
0100
0010
0001
0010
0100
1000
0001
,
1000
0001
0100
0010
1000
0010
0100
0001
1000
0001
0100
0010
1000
0010
0100
0001
,
1000
0001
0100
0010
1000
0010
0100
0001
1000
0001
0100
0010
1000
0001
0100
0010
,
1000
0100
1000
0100
0010
0001
1000
0100
0010
0001
0010
0001
1000
0100
0010
0001
,
1000
0010
1000
0010
0100
0001
1000
0010
0100
0001
0100
0001
1000
0010
0100
0001
,
1000
0100
1000
0100
0010
0001
1000
0100
0010
0001
0010
0001
1000
0010
0100
0001
,
1000
0010
1000
0010
0100
0001
1000
0010
0100
0001
0100
0001
1000
0010
0100
0001
,
0010
0100
0010
0100
1000
0001
0100
0010
1000
0001
1000
0001
0010
0100
1000
0001
,
0100
0010
0100
0010
1000
0001
0100
0010
1000
0001
1000
0001
0100
0010
1000
0100
,
0010
0001
0010
0001
0100
0010
0100
0001
1000
0010
1000
0010
0100
0001
1000
0010
,
4020
3030
0402
0303
,
1000
0001
0100
0001
0100
0000
0001
1000
0000
0001
0000
0100
0001
0000
1000
0000
,
0001
1000
0010
1000
0010
0000
1000
0001
0000
1000
0000
0010
1000
0000
0001
0000
,
1000
0001
0010
0001
0010
0000
0001
1000
0000
0001
0000
0010
0001
0000
1000
0000
,
0001
1000
0100
1000
0100
0000
1000
0001
0000
1000
0000
0100
1000
0000
0010
0000
,
0100
0001
0010
0000
0011
0000
0100
1000
0010
1000
0100
0000
1100
0000
0000
0000
,
0010
1000
0100
0000
1100
0000
0010
0001
0100
0001
0010
0000
0011
0000
0100
0000
,
1000
0000
0010
0100
0000
0001
0000
0010
0000
1000
0000
0010
0100
0000
1000
0000
,
0001
0000
0000
0000
0000
0000
0100
0000
0000
1000
0000
0000
0000
0000
0000
0100
0000
0000
0000
0000
0000
0010
0000
0000
0000
0000
0000
0100
0000
0000
0000
0000
0000
0001
0000
0000
1000
0000
0100
0000
1000
0000
0100
0000
1000
0000
0100
0000
,
1000
0100
1000
0100
0010
0001
1000
0010
0100
0001
0100
0001
1000
0010
0100
0001
,
0010
0100
0010
0100
1000
0001
0100
0010
1000
0001
1000
0001
0100
0010
1000
0001
,
0010
0001
0010
0001
0100
0010
1000
0001
0100
0010
0100
0010
1000
0001
0100
0010
,
1000
0100
1000
0100
0010
0001
1000
0100
0010
0001
0010
0001
0100
0010
1000
0001
,
1000
0010
1000
0010
0100
0001
0100
0010
1000
0100
1000
0100
0010
0001
1000
0010
,
0100
0001
0100
0001
1000
0010
1000
0001
0010
0100
0010
0100
1000
0001
0100
0010
,
1000
0010
1000
0010
0100
0001
1000
0100
0010
0001
0010
0001
0010
0100
1000
0001
,
0100
0000
1000
0000
0100
0000
0001
0000
0100
0000
1000
0000
0100
0001
1000
0100
,
0010
0001
0100
1000
0100
0001
0010
0100
1000
0001
0010
0100
1000
0001
0100
0010
,
1000
0100
0001
0100
1000
0010
0100
0001
1000
0010
0100
0001
1000
0100
0010
0001
,
0010
0001
0100
1000
0100
0001
0010
0100
1000
0010
0100
0001
1000
0100
0010
0100
,
1000
0010
1000
0100
0001
0100
1000
0010
0100
0001
1000
0010
0100
0001
1000
0100
,
0010
0001
0100
1000
0100
0001
0010
0100
1000
0010
0100
0001
1000
0100
0001
0100
,
1000
0010
0100
0001
1000
0100
0010
0001
0100
1000
0100
0001
0010
0100
0000
1000
,
0001
0000
0100
0001
0101
0000
1000
0100
,
2400
3300
0024
0033
,
1001
0000
0000
0101
0000
0000
1001
0000
0000
0101
0000
0000
0010
0000
1000
0000
,
1001
0000
0000
1100
0000
0000
1001
0000
0000
1100
0000
0000
0010
0000
0001
0000
,
1001
0000
0000
0101
0000
0000
2000
0000
0020
0000
0000
0000
3030
0000
0000
0000
,
0202
0000
0303
0000
2200
0000
0001
3300
,
1100
0000
1000
0100
0000
0100
0010
0000
0010
0001
0000
0001
0100
0000
0010
0000
,
0101
0000
0001
0100
0000
0100
0010
0000
0010
1000
0000
1000
0100
0000
0010
0000
,
0100
0000
1000
0001
0010
0000
0100
0000
1001
0000
0000
0000
0000
0000
0000
0000
,
1001
0000
0001
1000
0010
0000
0100
0000
1001
0000
0001
1000
0100
0000
0010
0000
,
0101
0000
0001
0100
0000
0100
0010
0000
0010
1000
0000
1000
0100
0000
0010
0000
,
1100
0000
1000
0100
0000
0100
0010
0000
0010
0001
0000
0001
0100
0000
0010
0000
,
0101
0000
1000
0001
0100
0000
0010
0000
0100
0001
1000
0000
0100
0000
0010
0000
,
0001
0000
1000
0100
0000
0001
0100
0000
1000
0000
0010
0001
0000
0010
1000
0000
,
1010
0000
0010
1000
0000
1000
0001
0000
0001
0010
0000
0010
0100
0000
0010
0000
,
0011
0000
0001
0100
0000
0100
0010
0000
0010
1000
0000
1000
0100
0000
0010
0000
,
1100
0000
0001
1000
0100
0000
0010
0000
2002
0000
0000
0000
3003
0000
0000
0000
,
1001
0000
0001
1000
0100
0000
0010
0000
1001
0000
0001
1000
0010
0000
0100
0000
,
0101
0000
0001
0100
0000
0100
0010
0000
0010
1000
0000
1000
0100
0000
0010
0000
,
1100
0000
1000
0100
0000
0100
0010
0000
0010
0001
0000
0001
0100
0000
0010
0000
,
0101
0000
0001
1000
0100
0000
1001
0000
1000
0001
0100
0000
1001
0000
0010
0000
,
0100
0000
0000
0001
0000
0000
0010
0000
0000
0100
0000
0000
1000
0000
0000
0010
0000
0000
0100
0000
0000
0001
0000
0000
0010
0000
0000
0100
0000
0000
1000
0000
0001
0000
1000
0000
0002
0000
0000
0000
0000
0000
0000
0000
0000
0000
0000
0000
,
2003
0000
0000
0000
,
3200
0000
0000
0000
,
0320
0000
0000
0000
,
0032
0000
2000
0000
,
3003
0000
0000
0000
;

//---------------dance-single - K. Pearman----------------
#NOTEDATA:;
#CHARTNAME:K. Pearman;
#STEPSTYPE:dance-single;
#DESCRIPTION:K. Pearman;
#CHARTSTYLE:;
#DIFFICULTY:Hard;
#METER:9;
#RADARVALUES:0.485275,0.551385,0.057436,0.131282,0.348718,414.000000,407.000000,7.000000,16.000000,0.000000,1.000000,0.000000,0.000000,0.000000,0.485275,0.551385,0.057436,0.131282,0.348718,414.000000,407.000000,7.000000,16.000000,0.000000,1.000000,0.000000,0.000000,0.000000;
#CREDIT:K. Pearman;
#NOTES:
0000
0000
0000
0000
,
0000
0000
0000
0000
,
0000
0000
0000
0000
,
0000
0000
0000
0000
,
1000
0100
1000
0000
0001
0000
0010
0000
0100
0000
1000
0000
0001
0000
0100
0000
,
0010
0100
0010
0000
0100
0000
0001
0000
1000
0000
0100
0000
0010
0000
0001
0000
,
1000
0010
1000
0000
0100
0000
1000
0000
0001
0000
0010
0000
0100
0000
1000
0000
,
0001
0100
0001
0000
1000
0000
0100
0000
0010
0001
0000
1000
0100
0000
0010
0000
,
0001
0100
0010
0100
0001
1000
0100
1000
,
0001
0100
0010
0100
0001
1000
0100
1000
,
0001
0010
0100
0010
0001
1000
0010
1000
,
0001
0010
0100
0010
0001
1000
0010
1000
,
0001
0100
0001
0000
1000
0000
0100
0000
0010
0000
0001
0000
0100
0000
0010
0000
,
1000
0010
1000
0000
0100
0000
0010
0000
0001
0000
1000
0000
0010
0000
1000
0000
,
0100
0010
0100
0000
1000
0000
0001
0000
0100
0000
0010
0000
1000
0000
0001
0000
,
0020
0000
0230
0000
,
1300
0000
0001
0000
0100
0000
0000
0001
0000
0001
0000
0001
1000
0000
0000
0000
,
0001
0000
1000
0000
0100
0000
0000
1000
0000
1000
0000
1000
0001
0000
0000
0000
,
0010
0000
0100
0000
1000
0000
0000
0010
0000
0010
0000
0010
0100
0000
0000
0000
,
0010
0000
0100
0000
0001
0000
0000
0100
0000
0100
0000
0100
0010
0000
1000
0000
,
0001
0100
0101
0000
0001
1000
1100
0000
,
1000
0001
1001
0000
0001
1000
1010
0000
,
1000
0010
0001
0010
1000
0100
0001
0100
,
1000
0000
0001
0000
0010
0000
1000
0000
0010
0000
0001
0000
1000
0001
1000
0001
,
1000
0000
0000
0100
1000
0000
0001
0000
0010
0000
0000
0001
0100
0000
0010
0000
,
1000
0000
0000
0001
0100
0000
0010
0000
1000
0000
0000
0001
0010
0000
0100
0000
,
1000
0000
0000
1000
0100
0000
0010
0000
0001
0000
0000
1000
0010
0000
0100
0000
,
0001
0000
0000
0100
0010
0000
1000
0000
0001
0000
0000
0010
0100
0000
1000
0000
,
0001
0000
0000
0100
0010
0000
1000
0000
0001
0000
0000
1000
0100
0000
1000
0000
,
0001
0000
0000
0001
0010
0000
0001
0000
1000
0000
0000
1000
0010
0000
0100
0000
,
0001
0000
0000
0001
0100
0000
0010
0000
1000
0000
0000
0100
0010
0000
0001
0000
,
1000
0000
0001
0000
1000
0000
0001
0000
0100
0000
0010
0000
1000
0001
0100
0010
,
1000
0000
0100
1000
0001
0000
0010
0000
0100
0000
1000
0000
0001
0000
0100
0000
,
0010
0000
0100
0001
1000
0000
0001
0000
0100
0000
0010
0000
1000
0000
0001
0000
,
0010
0000
0100
0010
0001
0000
0010
0000
0100
0000
1000
0000
0001
0000
0100
0000
,
0010
0000
0100
0010
1000
0000
0010
0000
0100
0000
0001
0000
1000
0000
0100
0000
,
0010
0000
0001
0010
0100
0000
0010
0000
0001
0000
1000
0100
0010
0000
0100
0000
,
1000
0000
0001
0100
0010
0000
0100
0000
0001
0000
1000
0010
0100
0000
0010
0000
,
2000
3000
0002
0003
,
0200
0300
0020
0030
,
0100
0000
0000
0001
0000
0000
0010
0000
0000
0001
0000
0000
0100
0000
0010
0000
,
0100
0000
0000
0010
0000
0000
1000
0000
0000
0100
0000
0000
1000
0000
0001
0000
,
0010
0000
0000
0001
0000
0000
1000
0000
0000
0000
2200
0000
3300
0000
0000
0000
,
0002
0000
0000
0000
0200
0000
1000
0303
,
0101
0000
0000
0001
0000
0000
1000
0000
0000
0001
0000
0000
0100
0000
0010
0000
,
1000
0000
0000
0001
0000
0000
1000
0000
0000
0100
0000
0000
1000
0000
0001
0000
,
0010
0000
0000
0100
0000
0000
0010
0000
0000
0000
0000
0000
0000
0000
0000
0000
,
0001
0000
0000
0100
0000
0000
0010
0000
1000
0000
0000
0001
0000
0000
0010
0000
,
0100
0000
0000
1000
0000
0000
0010
0000
0000
1000
0000
0000
0100
0000
0010
0000
,
0001
0000
0000
0100
0000
0000
0001
0000
0000
0010
0000
0000
0001
0000
0100
0000
,
0010
0000
0000
0001
0000
0000
0010
0000
0000
1000
0000
0000
0010
0000
0100
0000
,
0001
0000
0000
1000
0000
0000
0001
0000
0010
0000
0000
0100
0000
0000
1000
0000
,
0010
0000
0000
1000
0000
0000
0100
0000
0000
0001
0000
0000
0100
0000
0010
0000
,
0001
0000
0000
1000
0000
0000
0010
0000
0000
0100
0000
0000
0001
0000
1000
0000
,
0010
0000
0000
1000
0000
0000
0001
0000
0100
0000
0000
0000
0101
0000
0000
0000
,
0001
0000
0000
0001
0010
0000
0100
0000
1000
0000
0000
1000
0010
0000
0100
0000
,
0001
0000
0000
1000
0000
0000
0001
0000
0000
0100
0000
0000
0010
0000
1000
0100
,
1000
0000
0000
0001
0000
0000
0010
0000
0000
0100
0000
0000
0010
0000
0001
0100
,
0001
0000
0000
1000
0000
0000
0100
0000
0000
1000
0000
0000
0010
0000
0100
0000
,
0001
1000
0001
0000
1000
0100
1000
0000
0001
0100
0001
0000
0020
0000
0000
0000
,
0230
0000
0000
0000
,
0320
0000
0000
0000
,
0032
0000
0000
0000
,
2003
0000
0200
0000
,
3300
0000
0000
0000
;

//---------------dance-single - K. Pearman----------------
#NOTEDATA:;
#CHARTNAME:K. Pearman;
#STEPSTYPE:dance-single;
#DESCRIPTION:K. Pearman;
#CHARTSTYLE:;
#DIFFICULTY:Medium;
#METER:7;
#RADARVALUES:0.344615,0.420103,0.041026,0.155897,0.086154,294.000000,289.000000,5.000000,19.000000,0.000000,0.000000,0.000000,0.000000,0.000000,0.344615,0.420103,0.041026,0.155897,0.086154,294.000000,289.000000,5.000000,19.000000,0.000000,0.000000,0.000000,0.000000,0.000000;
#CREDIT:K. Pearman;
#NOTES:
0000
0000
0000
0000
,
0000
0000
0000
0000
,
0000
0000
0000
0000
,
0000
0000
0000
0000
,
1000
0100
1000
0000
0001
0000
1000
0000
,
0001
0100
0001
0000
1000
0000
0001
0000
,
1000
0010
1000
0000
0001
0000
1000
0000
,
0001
0010
0001
0000
1000
0000
0001
0000
,
0100
0010
1000
0000
0001
0000
1000
0000
,
0100
0010
0001
0000
1000
0000
0001
0000
,
0010
0100
1000
0000
0001
0000
1000
0000
,
0010
0100
0001
0000
1000
0000
0001
0000
,
0100
0100
0010
0000
1000
0000
0001
0000
,
0010
0010
0100
0000
1000
0000
0001
0000
,
1000
1000
0001
0000
0100
0000
0010
0000
,
2200
3300
0202
0303
,
1000
0000
0001
0000
0100
0010
1000
0000
,
0001
0000
1000
0000
0001
0010
0100
0000
,
1000
0000
0100
0000
1000
0100
0010
0000
,
0001
0000
0100
0000
0001
0100
0010
0000
,
1000
0100
1000
0000
0001
0010
0100
0000
,
1000
0010
1000
0000
0001
0100
0010
0000
,
0200
0000
0000
0000
,
0020
0000
0330
0000
,
0100
0001
0010
0001
0100
0001
0010
0000
,
0100
1000
0010
1000
0100
1000
0010
0000
,
0100
0001
1000
0001
0100
0001
1000
0000
,
0010
1000
0001
1000
0010
1000
0001
0000
,
0010
0100
0010
0100
1000
0001
1000
0000
,
0010
0100
0010
0100
0001
1000
0001
0000
,
1000
0100
1000
0001
1000
0100
0001
0100
,
1000
1000
0001
0001
1000
0001
1000
0000
,
0001
0100
0001
0010
0001
0100
1000
0100
,
0001
1000
0100
0000
1000
0001
0100
0000
,
0010
1000
0100
1000
0010
0001
0010
1000
,
0100
0010
0001
0000
0010
0100
1000
0000
,
0001
0100
0010
0100
0001
1000
0100
0000
,
1000
0100
0010
0100
1000
0001
0100
0000
,
0020
0000
0230
0000
,
0302
0000
2003
3100
,
0110
0000
0001
0000
1000
0000
0001
1000
,
0100
0000
1000
0000
0001
0000
1000
0001
,
0100
0000
0000
0010
0000
0000
1000
0000
0001
0000
0000
0000
0000
0000
0000
0000
,
2000
0000
0002
3003
,
1001
0000
0000
0001
0000
0000
0001
0000
0000
0000
0000
0000
0100
0000
0000
0000
,
0010
0000
0000
0010
0000
0000
0010
0000
0000
0000
0000
0000
0100
0000
0000
0000
,
1000
0000
0000
1000
0000
0000
1000
0000
0000
0000
0000
0000
0100
0000
0000
0000
,
0001
0000
1000
0100
1000
0000
0001
0100
,
0001
0000
0000
0001
0000
0000
0001
0000
0000
0000
0000
0000
0010
0000
0000
0000
,
0100
0000
0000
0100
0000
0000
0100
0000
0000
0000
0000
0000
0010
0000
0000
0000
,
1000
0000
0000
1000
0000
0000
1000
0000
0000
0010
0000
0000
0001
0000
0000
0000
,
1000
0000
0001
0100
0001
0000
1000
0100
,
1000
0000
0000
0001
0000
0000
1000
0000
0000
0001
0000
0000
1000
0000
0000
0000
,
0010
0000
0000
0100
0000
0000
0010
0000
0000
0100
0000
0000
0010
0000
0000
0000
,
0100
0000
0000
0001
0000
0000
0010
0000
0000
0000
0000
0000
0110
0000
0000
0000
,
0100
0000
0000
1000
0000
0000
0010
0000
1000
0000
0000
0100
0000
0000
0000
0000
,
0010
0000
0000
0001
0000
0000
1000
0000
0000
0001
0000
0000
0100
0000
0000
0000
,
0010
0000
0000
1000
0000
0000
0001
0000
0000
1000
0000
0000
0100
0000
0000
0000
,
0010
0000
0000
0001
0000
0000
0100
0000
0000
0001
0000
0000
0010
0000
0000
0000
,
0200
0000
2300
0000
,
3002
0000
0000
0000
,
0200
0000
0000
0003
,
0020
0000
0000
0300
,
2000
0030
0200
0000
,
3300
0000
0000
0000
;

//---------------dance-single - K. Pearman----------------
#NOTEDATA:;
#CHARTNAME:K. Pearman;
#STEPSTYPE:dance-single;
#DESCRIPTION:K. Pearman;
#CHARTSTYLE:;
#DIFFICULTY:Easy;
#METER:4;
#RADARVALUES:0.227399,0.236308,0.049231,0.073846,0.000000,194.000000,188.000000,6.000000,9.000000,0.000000,0.000000,0.000000,0.000000,0.000000,0.227399,0.236308,0.049231,0.073846,0.000000,194.000000,188.000000,6.000000,9.000000,0.000000,0.000000,0.000000,0.000000,0.000000;
#CREDIT:K. Pearman;
#NOTES:
0000
0000
0000
0000
,
0000
0000
0000
0000
,
0000
0000
0000
0000
,
0000
0000
0000
0000
,
0001
1000
0001
0001
,
1000
0001
1000
1000
,
0001
0010
0001
0001
,
1000
0010
0100
0001
,
1000
0100
1000
0100
,
0010
0001
0010
0001
,
1000
0010
1000
0010
,
0100
0001
0100
0001
,
1000
0100
0010
0000
,
0001
0100
0010
0000
,
1000
0010
0100
0000
,
0101
0000
1100
0000
,
1001
0001
0100
0000
,
1000
1000
0100
0000
,
1000
1000
0010
0000
,
0001
0001
0010
0000
,
0001
1001
0100
0000
,
1000
1001
0100
0000
,
0002
0000
0000
0000
,
2003
0000
0000
0000
,
3100
0010
0001
1000
,
0001
0010
0100
1000
,
0001
0100
0010
1000
,
0001
1000
0010
0100
,
0001
0100
0001
0000
,
1000
0100
1000
0000
,
0001
0010
0001
0000
,
1000
0010
0100
0001
,
1000
0010
1000
0100
,
0001
0100
1000
1000
,
0001
0100
0001
0010
,
0001
0100
0010
0010
,
1000
0001
0100
0100
,
0001
1000
0010
0010
,
2000
0000
3002
0000
,
0103
0000
0010
0000
,
1001
0001
0001
0000
,
1000
1000
1000
0000
,
0100
0100
0100
0000
,
0010
0000
0010
0000
,
0001
0100
0001
0100
,
1000
0100
1000
0100
,
0001
0010
1000
0000
,
0010
0000
0100
0000
,
1000
0010
1000
0010
,
0001
0010
0001
0010
,
1000
0100
0001
0000
,
0100
0000
0010
0000
,
0001
0100
0001
0100
,
0010
1000
0010
1000
,
0001
0100
0010
0000
,
1000
0000
0001
0000
,
1000
0100
1000
0100
,
0010
0001
0010
0001
,
1000
0100
0010
0000
,
0100
0000
0010
0000
,
0002
0000
0000
0000
,
2003
0000
0000
0000
,
3020
0000
0000
0000
,
0230
0000
0302
0000
,
0003
0000
0000
0000
;

//---------------dance-single - K. Pearman----------------
#NOTEDATA:;
#CHARTNAME:K. Pearman;
#STEPSTYPE:dance-single;
#DESCRIPTION:K. Pearman;
#CHARTSTYLE:;
#DIFFICULTY:Beginner;
#METER:1;
#RADARVALUES:0.110183,0.130256,0.000000,0.000000,0.000000,94.000000,94.000000,0.000000,0.000000,0.000000,0.000000,0.000000,0.000000,0.000000,0.110183,0.130256,0.000000,0.000000,0.000000,94.000000,94.000000,0.000000,0.000000,0.000000,0.000000,0.000000,0.000000,0.000000;
#CREDIT:K. Pearman;
#NOTES:
0000
0000
0000
0000
,
0000
0000
0000
0000
,
0000
0000
0000
0000
,
0000
0000
0000
0000
,
0010
0000
0000
0000
,
0001
0000
0000
0000
,
1000
0000
0000
0000
,
0010
0000
0000
0000
,
0100
0000
0000
0000
,
0001
0000
0000
0000
,
1000
0000
0000
0000
,
0100
0000
0000
0000
,
0010
0000
0000
0000
,
0001
0000
0000
0000
,
1000
0000
0000
0000
,
0010
0000
0100
0000
,
0001
0000
0001
0000
,
1000
0000
1000
0000
,
0010
0000
0010
0000
,
0100
0000
0100
0000
,
0010
0000
0010
0000
,
1000
0000
1000
0000
,
0001
0000
0000
0000
,
1000
0000
0000
0000
,
0100
0000
0100
0000
,
1000
0000
0000
0000
,
0100
0000
0100
0000
,
0001
0000
0000
0000
,
0010
0000
0010
0000
,
1000
0000
0000
0000
,
0010
0000
0010
0000
,
0001
0000
0000
0000
,
1000
0000
0100
0000
,
0100
0000
1000
0000
,
0001
0000
0100
0000
,
0100
0000
0001
0000
,
1000
0000
0010
0000
,
0010
0000
1000
0000
,
0001
0000
1000
0000
,
0001
0000
1000
0000
,
0100
0000
1000
0000
,
0100
0000
0100
0000
,
1000
0000
0001
0000
,
0100
0000
0100
0000
,
0010
0000
0100
0000
,
0001
0000
1000
0000
,
0001
0000
0100
0000
,
0010
0000
0100
0000
,
0001
0000
1000
0000
,
0100
0000
1000
0000
,
0001
0000
0010
0000
,
0100
0000
0100
0000
,
0010
0000
0000
0000
,
0001
0000
0000
0000
,
1000
0000
0000
0000
,
0010
0000
0010
0000
,
0100
0000
0000
0000
,
0001
0000
0000
0000
,
1000
0000
0000
0000
,
0100
0000
0100
0000
,
1000
0000
0000
0000
,
0001
0000
0000
0000
,
0100
0000
0000
0000
,
0010
0000
0010
0000
;

//---------------dance-double - K. Pearman----------------
#NOTEDATA:;
#CHARTNAME:K. Pearman;
#STEPSTYPE:dance-double;
#DESCRIPTION:K. Pearman;
#CHARTSTYLE:;
#DIFFICULTY:Hard;
#METER:10;
#RADARVALUES:0.523956,0.551385,0.229744,0.106667,0.315897,447.000000,419.000000,28.000000,13.000000,0.000000,2.000000,0.000000,0.000000,0.000000,0.523956,0.551385,0.229744,0.106667,0.315897,447.000000,419.000000,28.000000,13.000000,0.000000,2.000000,0.000000,0.000000,0.000000;
#CREDIT:K. Pearman;
#NOTES:
00000000
00000000
00000000
00000000
,
00000000
00000000
00000000
00000000
,
00000000
00000000
00000000
00000000
,
00000000
00000000
00000000
00000000
,
00010000
01000000
00010000
00000000
00100000
00000000
00001000
00000000
00010000
00000000
00000100
00000000
00000010
00000000
00001000
00000000
,
00000010
00000001
00000010
00000000
00000001
00000000
00000100
00000000
00001000
00000000
00000100
00000000
00000010
00000000
00001000
00000000
,
00000100
00010000
00000100
00000000
00010000
00000000
00001000
00000000
01000000
00000000
00100000
00000000
01000000
00000000
00010000
00000000
,
10000000
01000000
10000000
00000000
01000000
00000000
00100000
00000000
00010000
00000000
00001000
00000000
00000100
00000000
00000010
00000000
,
00000001
00000000
00001000
00000001
00000100
00000000
00000010
00000000
00001000
00000000
00000001
00001000
00000010
00000000
00001000
00000000
,
00000100
00000000
00010000
00001000
01000000
00000000
00001000
00000000
00010000
00000000
00000100
00010000
00001000
00000000
01000000
00000000
,
00010000
00000000
00100000
00010000
10000000
00000000
01000000
00000000
00100000
00000000
00010000
10000000
00100000
00000000
01000000
00000000
,
00010000
00000000
10000000
01000000
00100000
00000000
00010000
00000000
01000000
00000000
00100000
10000000
00010000
00000000
10000000
00000000
,
01000000
00000000
10000000
01000000
00100000
00000000
00010000
00000000
00001000
00000000
00000100
00000000
00000010
00000000
00000001
00000000
,
00001000
00000000
00000001
00000100
00000010
00000000
00001000
00000000
00010000
00000000
01000000
00000000
00100000
00000000
10000000
00000000
,
00010000
00000000
01000000
00100000
10000000
00000000
00010000
00000000
01000000
00000000
00001000
00000000
00010000
00000000
00000100
00000000
,
00000022
00000033
00002200
00003300
,
00000001
00000100
00000001
00000100
00000001
00000000
00000000
00001000
00000000
00000100
00000000
00010000
00001000
00000000
00000000
00000000
,
01000000
00010000
01000000
00010000
01000000
00000000
00000000
00100000
00000000
10000000
00000000
00010000
10000000
00000000
00000000
00000000
,
01000000
10000000
00010000
10000000
01000000
00000000
00000000
00100000
00000000
00010000
00000000
01000000
00001000
00000000
00010000
00000000
,
00000100
00010000
00000100
00010000
00001000
00000000
00000000
00010000
00000000
00000100
00000000
00000010
00000001
00000000
00001000
00000000
,
00000010
00000000
00000100
00000001
00000010
00000000
00000100
00000000
00001000
00000000
00000010
00000000
00001010
00000000
00000000
00000000
,
00000100
00000000
00010000
00001000
01000000
00000000
00010000
00000000
00100000
00000000
01000000
00000000
11000000
00000000
00000000
00000000
,
10000000
00000000
00010000
01000000
00010000
00000000
10000000
00000000
01000000
00000000
00100000
00000000
00010000
00000000
01000000
00000000
,
00001000
00000000
00010000
00001000
00010000
00000000
00000100
00000000
00000010
00000000
00000001
00000000
00001000
00000000
00001000
00000000
,
00000001
00000100
00001000
00000100
00000001
00000010
00001000
00000010
,
00000001
00000100
00001000
00000100
00000001
00000010
00010000
00100000
,
10000000
00100000
00001000
00100000
10000000
00100000
00001000
00100000
,
01000000
10000000
01000000
00001000
01000000
10000000
01000000
00001000
,
00000100
00010000
00001000
00000100
00000010
00010000
00000010
00000100
,
00001000
00010000
00100000
00010000
00001000
00010000
00100000
00010000
,
00001000
00000100
00000010
00010000
00001000
00000010
00010000
00100000
,
01000000
00000000
00010000
00000000
00001000
00000000
00000100
00000000
00000010
00000000
00001000
00000000
00000001
00000010
00000100
00000000
,
00001000
00000001
00000100
00001000
00010000
01000000
00100000
10000000
,
00100000
00000000
01000000
00010000
00001000
00000000
00010000
00000000
00001000
00000000
00000100
00000000
00000010
00000000
00001000
00000000
,
00000001
00000000
00000100
00001000
00010000
00000000
00001000
00000000
00010000
00000000
01000000
00000000
00100000
00000000
01000000
00000000
,
00010000
00000000
01000000
00010000
00001000
00000000
00010000
00000000
00001000
00000000
00000100
00000000
00000010
00000000
00001000
00000000
,
00000001
00000000
00000010
00000100
00001000
00000000
00000001
00000000
00000100
00000000
00001000
00000000
00011000
00000000
00010000
00000000
,
00100000
00000000
01000000
00010000
10000000
00000000
01000000
00000000
00100000
00000000
00001000
00000000
00011000
00000000
00010000
00000000
,
00000200
00000000
00000310
00000001
00000101
00000000
00000100
00000010
,
00001100
00000000
00001001
00000000
,
00000101
00000000
00000000
00001001
00000000
00000000
00000101
00000000
00000000
00001001
00000000
00000000
00000001
00000000
00000100
00000000
,
00001000
00000000
00000000
00011000
00000000
00000000
00010000
00000000
00000000
00011000
00000000
00000000
00001000
00000000
01000000
00000000
,
01010000
00000000
00000000
10010000
00000000
00000000
11000000
00000000
01000000
00000000
10000000
00000000
00010000
00000000
00000000
00000000
,
00200000
00000000
02300000
03000000
,
10000000
00000000
00000000
11000000
00000000
00000000
00010000
00000000
00000000
01010000
00000000
00000000
00100000
00000000
01000000
00000000
,
10000000
00000000
00000000
10010000
00000000
00000000
00010000
00000000
00000000
10010000
00000000
00000000
10000000
00000000
00100000
00000000
,
00010000
00000000
00000000
00001000
00000000
00000000
00000010
00000000
00000001
00000000
00000000
00000000
00001000
00000000
00000000
00000000
,
00000001
00000000
00000000
00000100
00000000
00000000
00001000
00000000
00000100
00000000
00000000
00000010
00000000
00000000
00000100
00000000
,
00000001
00000000
00000000
00001000
00000000
00000000
00000100
00000000
00000000
00010000
00000000
00000000
00001000
00000000
01000000
00000000
,
00010000
00000000
00000000
10010000
00000000
00000000
10000000
00000000
00000000
10010000
00000000
00000000
00010000
00000000
01000000
00000000
,
00100000
00000000
00000000
10000000
00000000
00000000
01000000
00000000
00000000
00010000
00000000
00000000
00001000
00000000
00010000
00000000
,
00001000
00000000
00000000
00000100
00000000
00000000
00000001
00000000
00001000
00000000
00000000
00000001
00000000
00000000
00000100
00000000
,
00000010
00000000
00000000
00001010
00000000
00000000
00001000
00000000
00000000
00001100
00000000
00000000
00000100
00000000
00010000
00000000
,
00001000
00000000
00000000
00100000
00000000
00000000
01000000
00000000
00000000
00010000
00000000
00000000
00001000
00000000
01000000
00000000
,
00010000
00000000
00000000
10000000
00000000
00000000
00100000
00000000
00000000
00000000
00000000
00000000
00010000
00000000
00000000
00000000
,
00011000
00000000
00000000
00001000
00000000
00000000
00000010
00000000
00001100
00000000
00000000
00000000
00000100
00000000
00000000
00000000
,
00000010
00000000
00000000
00000001
00000000
00000000
00000100
00000000
00000000
00001000
00000000
00000000
00000100
00000000
00000010
00000000
,
00001000
00000000
00000000
00000100
00000000
00000000
00000010
00000000
00000000
00010000
00000000
00000000
00100000
00000000
00001000
00000000
,
00010000
00000000
00000000
00100000
00000000
00000000
01000000
00000000
00000000
00010000
00000000
00000000
10000000
00000000
00010000
00000000
,
01000000
00000000
00100000
00000000
10000000
00010000
02000000
00000000
,
00020000
03000000
00000000
00000000
00000000
00000000
00000000
00000000
00000000
00000000
00000000
00000000
00000000
00000000
00000000
00000000
,
20030000
00000000
00000000
00000000
,
02000000
00000000
00000000
00000000
,
00020000
00000000
00200000
00000000
,
33330000
00000000
00000000
00000000
;

//---------------dance-double - K. Pearman----------------
#NOTEDATA:;
#CHARTNAME:K. Pearman;
#STEPSTYPE:dance-double;
#DESCRIPTION:K. Pearman;
#CHARTSTYLE:;
#DIFFICULTY:Medium;
#METER:7;
#RADARVALUES:0.352820,0.420103,0.073846,0.114872,0.135385,301.000000,292.000000,9.000000,14.000000,0.000000,1.000000,0.000000,0.000000,0.000000,0.352820,0.420103,0.073846,0.114872,0.135385,301.000000,292.000000,9.000000,14.000000,0.000000,1.000000,0.000000,0.000000,0.000000;
#CREDIT:K. Pearman;
#NOTES:
// measure 0
00000000
00000000
00000000
00000000
,  // measure 1
00000000
00000000
00000000
00000000
,  // measure 2
00000000
00000000
00000000
00000000
,  // measure 3
00000000
00000000
00000000
00000000
,  // measure 4
00001000
00010000
00001000
00000000
00010000
00000000
00000100
00000000
,  // measure 5
00000010
00000001
00001000
00000000
00000001
00000000
00000100
00000000
,  // measure 6
00000010
00001000
00000001
00000000
00001000
00000000
00000100
00000000
,  // measure 7
00010000
00001000
00010000
00000000
00001000
00000000
00100000
00000000
,  // measure 8
00010000
01000000
00010000
01000000
00100000
00000000
10000000
00000000
,  // measure 9
00010000
10000000
00010000
10000000
01000000
00000000
00100000
00000000
,  // measure 10
00001000
00010000
00001000
00010000
00000100
00000000
00000010
00000000
,  // measure 11
00000001
00000100
00000001
00000100
00001000
00000000
00000100
00000000
,  // measure 12
00000010
00001000
00000100
00001000
00000010
00000000
00010000
00000000
,  // measure 13
00001000
00010000
00000100
00010000
00001000
00000000
01000000
00000000
,  // measure 14
00010000
01000000
00100000
01000000
00010000
00000000
00100000
00000000
,  // measure 15
21000000
30000000
01020000
00030000
,  // measure 16
00100000
00010000
00001000
00010000
00100000
00000000
00001000
00000000
,  // measure 17
00010000
00000100
00010000
00001000
00010000
00000000
00000100
00000000
,  // measure 18
00000010
00001000
00010000
00001000
00000010
00000000
00000100
00000000
,  // measure 19
00001000
00000001
00000100
00000001
00001000
00000000
00000010
00000000
,  // measure 20
00000100
00000000
00001001
00000000
00000100
00001000
00001010
00000000
,  // measure 21
00000100
00000000
00001001
00000000
00000100
00000001
00000011
00000000
,  // measure 22
00000001
00000100
00001000
00000000
00010000
00000000
00001000
00000000
,  // measure 23
00010000
01000000
10000000
00000000
00010000
00000000
10000000
00000000
,  // measure 24
00100000
10000000
01000000
00000000
00100000
00000000
01000000
00000000
,  // measure 25
00100000
00010000
01000000
00000000
00100000
00000000
01000000
00000000
,  // measure 26
00100000
00010000
00001000
00000000
00010000
00000000
00100000
00000000
,  // measure 27
00010000
00001000
00000010
00000000
00001000
00000000
00010000
00000000
,  // measure 28
00001000
00000010
00000001
00000000
00000010
00000000
00000100
00000000
,  // measure 29
00001000
00000100
00000001
00000000
00000100
00000000
00000010
00000000
,  // measure 30
00000001
00000100
00000010
00000000
00001000
00000000
00000001
00000000
,  // measure 31
00001000
00000100
00001000
00000100
00001000
00000100
00001000
00000000
,  // measure 32
00000010
00010000
00001000
00000000
00010000
00000000
00001000
00000000
,  // measure 33
00100000
00001000
00010000
00000000
00001000
00000000
00010000
00000000
,  // measure 34
00000100
00010000
00001000
00000000
00010000
00000000
00001000
00000000
,  // measure 35
01000000
00001000
00010000
00000000
00001000
00000000
00010000
00000000
,  // measure 36
00100000
01000000
00010000
00000000
10000000
00000000
00010000
00000000
,  // measure 37
00100000
01000000
10000000
00000000
00010000
00000000
10000000
00000000
,  // measure 38
02000000
00000000
03200000
00000000
,  // measure 39
00320000
00000000
20030000
00000000
,  // measure 40
30100000
00000000
00000000
00100000
00000000
00000000
00100000
00000000
00000000
00100000
00000000
00000000
01000000
00000000
00000000
00000000
,  // measure 41
00010000
00000000
00000000
00010000
00000000
00000000
00010000
00000000
00000000
00010000
00000000
00000000
10000000
00000000
00000000
00000000
,  // measure 42
01000000
00000000
00000000
00010000
00000000
00000000
00001000
00000000
00000000
00000000
00000000
00000000
00000100
00000000
00000000
00000000
,  // measure 43
00000001
00000000
00001000
00001001
,  // measure 44
00000001
00000000
00000000
00000010
00000000
00000000
00001000
00000000
00000000
00010000
00000000
00000000
00100000
00000000
00000000
00000000
,  // measure 45
10000000
00000000
00000000
01000000
00000000
00000000
00010000
00000000
00000000
00001000
00000000
00000000
00000100
00000000
00000000
00000000
,  // measure 46
00000010
00000000
00000000
00000100
00000000
00000000
00000001
00000000
00001000
00000000
00000000
00000000
00002001
00000000
00000000
00000000
,  // measure 47
00003100
00000000
00000000
00010000
00000000
00000000
00000100
00000000
00010000
00000000
00000000
00001000
00000000
00000000
00010000
00000000
,  // measure 48
00001000
00000000
00000000
01000000
00000000
00000000
00010000
00000000
00000000
10000000
00000000
00000000
01000000
00000000
00000000
00000000
,  // measure 49
00100000
00000000
00000000
00001000
00000000
00000000
00010000
00000000
00000000
00000010
00000000
00000000
00000100
00000000
00000000
00000000
,  // measure 50
00000010
00000000
00000000
00001000
00000000
00000000
00000001
00000000
00000000
00000100
00000000
00000000
00000001
00000000
00001000
00000000
,  // measure 51
00000100
00000000
00000000
00010000
00000000
00000000
00001000
00000000
01000000
00000000
00000000
00010000
00000000
00000000
10000000
00000000
,  // measure 52
01000000
00000000
00000000
00100000
00000000
00000000
00001000
00000000
00000000
00010000
00000000
00000000
00100000
00000000
10000000
00000000
,  // measure 53
00010000
00000000
00000000
01000000
00000000
00000000
00001000
00000000
00000000
00010000
00000000
00000000
00000100
00000000
00000010
00000000
,  // measure 54
00001000
00000000
00000000
00000010
00000000
00000000
00000001
00000000
00000100
00000000
00000000
00000000
00000201
00000000
00000000
00000000
,  // measure 55
00000310
00000000
00000000
00001000
00000000
00000000
00001000
00000000
00000100
00000000
00000000
00001000
00000000
00000000
00001000
00000000
,  // measure 56
00000010
00000000
00000000
00010000
00000000
00000000
00001000
00000000
00000000
00100000
00000000
00000000
00001000
00000000
00010000
00000000
,  // measure 57
00000100
00000000
00000000
00010000
00000000
00000000
00001000
00000000
00000000
01000000
00000000
00000000
00001000
00000000
00010000
00000000
,  // measure 58
00100000
00000000
00000000
10000000
00000000
00000000
01000000
00000000
00000000
00010000
00000000
00000000
00001000
00000000
00010000
00000000
,  // measure 59
00002000
00000000
00023000
00000000
,  // measure 60
00030200
00000000
00000000
00000000
,  // measure 61
00020300
00000000
00000000
00000000
,  // measure 62
00032000
00000000
00000000
00000000
,  // measure 63
02000000
00000000
00010000
00000000
,  // measure 64
03003000
00000000
00000000
00000000
;

//---------------dance-double - K. Pearman----------------
#NOTEDATA:;
#CHARTNAME:K. Pearman;
#STEPSTYPE:dance-double;
#DESCRIPTION:K. Pearman;
#CHARTSTYLE:;
#DIFFICULTY:Easy;
#METER:4;
#RADARVALUES:0.248498,0.341333,0.057436,0.032821,0.000000,212.000000,205.000000,7.000000,4.000000,0.000000,0.000000,0.000000,0.000000,0.000000,0.248498,0.341333,0.057436,0.032821,0.000000,212.000000,205.000000,7.000000,4.000000,0.000000,0.000000,0.000000,0.000000,0.000000;
#CREDIT:K. Pearman;
#NOTES:
00000000
00000000
00000000
00000000
,
00000000
00000000
00000000
00000000
,
00000000
00000000
00000000
00000000
,
00000000
00000000
00000000
00000000
,
10000000
01000000
10000000
00000000
,
00010000
01000000
00010000
00000000
,
10000000
00010000
10000000
00000000
,
00010000
01000000
00001000
00000000
,
00010000
00001000
00000010
00000001
,
00000100
00001000
00010000
00000000
,
00001000
00010000
00100000
10000000
,
01000000
00010000
00001000
00000000
,
00000010
00000100
00001000
00000100
,
00000001
00000100
00000010
00000000
,
00000001
00000100
00001000
00010000
,
00100000
00000000
01000000
00000000
,
10010000
00010000
01000000
00010000
,
01000000
00001000
00010000
00001000
,
00010000
00000100
00001000
00000100
,
00001000
00000001
00001000
00000001
,
00000100
00001001
00000010
00001001
,
00000001
00000101
00001000
00001100
,
00000010
00000000
00000000
00000000
,
00000100
00000000
00000000
00000000
,
00000001
00000100
00000001
00000100
,
00001000
00010000
00001000
00010000
,
01000000
10000000
01000000
10000000
,
00100000
00010000
00001000
00010000
,
00001000
00000010
00001000
00000010
,
00000001
00001000
00000001
00001000
,
00000100
00001000
00000100
00001000
,
00000010
00000010
00000100
00000100
,
00000001
00000100
00000001
00000100
,
00001000
00010000
00001000
00010000
,
00100000
10000000
00100000
10000000
,
01000000
00010000
00001000
00100000
,
01000000
10000000
01000000
10000000
,
00010000
01000000
00010000
01000000
,
00001000
00000000
00010000
00000000
,
00001000
00000000
00010000
00000000
,
00011000
00001000
00010000
00100000
,
01000000
00010000
10000000
01000000
,
00010000
00001000
00000100
00000000
,
00000001
00000000
00001000
00000000
,
00000001
00000010
00000100
00000001
,
00001000
00000010
00000001
00001000
,
00000010
00000100
00001000
00000100
,
00010000
00000100
00000010
00001000
,
00000010
00010000
00001000
00100000
,
01000000
00100000
00010000
00100000
,
10000000
00010000
00001000
00010000
,
01000000
00100000
00001000
00010000
,
00001000
00000100
00001000
00010000
,
01000000
00010000
00001000
00000010
,
00001000
00010000
00100000
00010000
,
00001000
01000000
00010000
10000000
,
01000000
10000000
00100000
00010000
,
00001000
00000010
00000001
00000100
,
00001000
00010000
00000100
00010000
,
00001000
00000000
00010000
00000000
,
00011000
00000000
00000000
00000000
,
02000000
00000000
00000000
00000000
,
03200000
00000000
00000000
00000000
,
20300000
00000000
00020000
00000000
,
30030000
00000000
00000000
00000000
;
