#TITLE:Stache;
#SUBTITLE:(Full Version);
#ARTIST:Zedd;
#TITLETRANSLIT:;
#SUBTITLETRANSLIT:;
#ARTISTTRANSLIT:;
#GENRE:;
#CREDIT:;
#BANNER:Stache (Full Version).png;
#BACKGROUND:Stache (Full Version)-BG.png;
#LYRICSPATH:;
#CDTITLE:;
#MUSIC:Zedd - Stache.ogg;
#OFFSET:-6.610;
#SAMPLESTART:46.939;
#SAMPLELENGTH:12.000;
#SELECTABLE:YES;
#BPMS:0.000=128.000;
#STOPS:;
#BGCHANGES:;
#KEYSOUNDS:;

//---------------dance-single - K. Pearman----------------
#NOTES:
     dance-single:
     K. Pearman:
     Challenge:
     12:
     0.889,0.880,0.073,0.203,1.000:
0000
0000
0000
0000
,
0000
0000
0000
0000
,
0000
0000
0000
0000
,
0000
0000
0000
0000
,
1000
0100
1000
0001
0010
0100
0010
0001
1000
0100
1000
0001
0010
0100
0010
0001
,
1000
0100
1000
0001
0010
0100
0010
0001
1000
0100
1000
0001
0010
0100
0010
0001
,
1000
0010
1000
0001
0100
0010
0100
0001
1000
0010
1000
0001
0100
0010
0100
0001
,
1000
0010
1000
0001
0100
0010
0100
0001
0000
1000
0100
0000
0010
0000
0100
0000
,
1000
0010
1000
0010
0100
0001
1000
0010
0100
0001
0100
0001
1000
0010
0100
0001
,
1000
0010
1000
0010
0100
0001
1000
0010
0100
0001
0100
0001
1000
0010
0100
0001
,
1000
0100
1000
0100
0010
0001
0100
0001
1000
0100
1000
0100
0010
0001
0100
0001
,
1000
0010
1000
0010
0100
0001
0010
0001
1000
0010
1000
0010
0100
0001
0010
0001
,
1000
0100
1000
0001
0010
0100
1000
0001
0100
0010
0100
0001
1000
0100
0010
0001
,
1000
0100
1000
0001
0010
0100
1000
0001
0100
0010
0100
0001
1000
0100
0010
0001
,
0100
0001
1000
0001
0010
0100
1000
0001
0010
0100
0010
0001
1000
0100
0010
0001
,
1000
0100
1000
0001
0010
0100
1000
0001
0200
0000
0000
0000
0000
0000
0300
0000
,
0110
0010
1000
0001
1000
0100
0010
0001
0100
0001
1000
0100
0010
0001
1000
0001
,
0100
0001
0010
0100
1000
0010
0100
0010
0100
0001
0010
0100
1000
0010
0100
0010
,
0100
0001
1000
0100
0010
0001
0100
0010
0100
0001
1000
0100
0010
0001
0100
0010
,
0100
0001
1000
0100
1000
0001
0010
0100
1000
0001
1000
0100
1000
0001
0010
0100
,
1000
0010
1000
0100
0010
0001
0100
0001
1000
0010
1000
0100
0010
0001
0100
0001
,
1000
0100
1000
0010
0100
0001
0010
0001
1000
0100
1000
0010
0100
0001
0010
0001
,
1000
0010
0100
0010
1000
0001
0100
0010
1000
0010
0100
0010
1000
0001
0100
0010
,
1000
0000
0000
0100
0000
0000
1000
0000
0000
0001
0000
0000
0010
0000
0000
0001
0000
0000
0100
0000
0000
0010
0000
0000
0100
0000
0000
0001
0000
0000
1000
0000
0000
0001
0000
0000
0100
0000
0010
0000
1000
0000
0001
0000
1000
0000
0010
0000
,
0100
0010
1000
0001
1000
0100
0010
0001
0100
0010
1000
0001
1000
0100
0010
0001
,
0100
0010
0100
0001
1000
0100
0010
0001
0100
0010
0100
0001
1000
0100
1000
0001
,
0010
0100
0010
0001
1000
0100
0010
0001
0010
0100
0010
0001
1000
0100
0010
0001
,
0010
0100
0010
0001
1000
0100
0010
0001
0100
0010
0100
0001
1000
0100
1000
0001
,
1001
1000
0100
0010
0001
0100
0010
0100
0001
0010
0100
1000
0100
1000
0010
0100
,
0001
0100
0010
0100
0001
0010
0100
1000
0100
1000
0010
0100
0001
0100
0010
0100
,
0102
0000
0013
0100
1001
0000
1000
0100
,
0022
0000
0000
0000
0000
0000
0000
0000
0000
0033
0000
0000
0000
0000
0000
0000
0000
0000
0000
0000
0000
0000
0000
0000
2200
0000
0000
0000
0000
0000
0000
0000
0000
3300
0000
0000
0100
0000
0010
0000
0001
0000
1000
0000
0010
0000
0100
0000
,
0001
0100
0001
0010
0100
1000
0010
1000
0100
0010
0001
0100
0010
0100
0001
0010
,
0100
0000
1000
0000
0010
0000
0100
0000
0010
0000
1000
0000
0100
0000
0010
0000
0001
0000
0100
0000
0010
0000
0100
0000
0001
0000
0010
0000
0100
0000
1000
0100
,
1000
0010
0100
0001
0010
0100
0010
0001
0100
0010
1000
0100
0010
0100
1000
0010
,
0100
0000
0001
0000
0010
0000
0100
0000
0010
0000
0001
0000
0100
0000
0010
0000
1000
0000
0100
0000
0010
0000
0100
0000
1000
0000
0010
0000
0100
0000
0001
0010
,
0001
0100
0010
0100
0001
1000
0100
0010
0001
0010
0100
0010
0001
1000
0010
0100
,
0001
0000
1000
0000
0100
0000
0010
0000
0100
0000
1000
0000
0010
0000
0100
0000
0001
0000
1000
0000
0100
0000
0010
0000
0100
0000
1000
0000
0001
0000
0010
0100
,
0010
0001
0100
0001
0010
0100
1000
0010
1000
0001
1000
0100
0010
0001
0100
0001
,
0010
0000
0100
0000
1000
0000
0010
0000
1000
0000
0001
0000
1000
0000
0100
0000
0010
0000
0001
0000
0100
0000
0001
0000
0010
0000
0100
0000
1000
0000
0001
0100
,
0001
0000
1000
0000
0010
0000
0100
0000
0010
0000
1000
0000
0001
0000
0100
0000
0010
0000
0100
0000
0001
0000
1000
0000
0100
0000
0010
0000
0001
0000
1000
0100
,
1000
0000
0010
0000
0100
0000
0001
0000
1000
0000
0100
0000
1000
0000
0001
0000
0010
0000
0100
0000
1000
0000
0001
0000
0010
0000
0001
0000
0100
0000
0001
0010
,
0001
0000
0100
0000
0010
0000
0100
0000
0001
0000
1000
0000
0010
0000
0100
0000
0010
0000
1000
0000
0001
0000
0100
0000
0010
0000
1000
0000
0001
0000
0100
0010
,
0100
0000
0010
0000
1000
0000
0001
0000
0100
0000
0001
0000
1000
0000
0010
0000
0100
0000
0010
0000
1000
0000
0001
0000
0100
0000
0010
0000
0100
0000
0001
1000
,
0100
0010
0001
1000
0010
0100
0001
1000
0100
1000
0001
0010
0001
1000
0010
1000
,
0001
0100
0001
1000
0100
0010
0100
1000
0001
0010
0001
0100
0010
1000
0001
0000
,
1000
0000
0000
0000
0000
0000
0100
0000
0000
0000
0000
0000
1000
0000
0000
0000
0000
0000
0000
0000
0000
0000
0000
0000
0100
0000
0000
0000
0000
0000
0000
0000
0000
0000
0000
0000
0010
0000
0000
0000
0000
0000
0001
0000
0000
0000
0000
0000
0010
0000
0000
0000
0000
0000
0000
0000
0000
0000
0000
0000
0001
0000
0000
0000
0000
0000
0000
0000
0000
0000
0000
0000
0100
0000
0000
0000
0000
0000
0010
0000
0000
0000
0000
0000
0100
0000
0000
0000
0000
0000
0000
0000
0000
0000
0000
0000
0010
0000
0000
0000
0000
0000
0000
0000
0000
0000
0000
0000
1000
0000
0000
0000
0000
0000
0000
0000
0000
0000
0000
0000
0001
0000
0000
0000
0100
0000
0000
0000
0010
0000
0000
0000
1000
0000
0000
0000
0000
0000
0000
0000
0000
0000
0000
0000
0001
0000
0000
0000
0000
0000
0000
0000
0000
0000
0000
0000
0100
0000
0000
0000
0000
0000
0000
0000
0000
0000
0000
0000
0001
0000
0000
0000
0000
0000
0000
0000
0000
0000
0000
0000
0100
0000
0000
0000
0000
0000
0000
0000
0000
0000
0000
0000
,
0200
0000
0000
0000
0000
0000
0000
0300
,
0100
0010
1000
0010
0100
0000
0001
1000
0000
1000
0000
0001
1000
0000
0100
0000
,
0010
0100
0010
0001
0010
0000
0100
0010
0000
0010
0000
0100
0010
0000
0001
0000
,
1000
0010
0100
0010
1000
0000
0001
0100
0000
0100
0000
0001
0100
0000
0010
0000
,
1000
0001
0010
0100
1000
0000
1000
0100
0000
0100
0000
0100
1000
0001
0010
0100
,
1000
0001
0100
0010
0100
0000
0001
0100
0000
0010
0000
0010
0100
0001
1000
0000
,
0010
1000
0001
1000
0100
0000
0010
0100
0000
0100
0000
1000
0100
0010
0001
0000
,
2000
3200
0302
0203
2300
3020
0032
0023
,
2030
0000
0000
3002
0000
0000
0203
0000
0000
0320
0000
0000
2030
0000
0000
3200
0000
0000
0310
0001
1000
0010
0100
0001
,
1000
0100
0010
0100
1000
0001
1000
0100
0010
0100
1000
0001
1000
0100
0010
0001
,
1000
0010
0100
0001
1000
0001
0100
0010
1000
0001
0100
0001
1000
0010
0100
0001
,
0010
0100
1000
0001
1000
0100
0010
0100
1000
0001
1000
0100
0010
0100
1000
0001
,
0100
0010
1000
0001
0100
0001
1000
0001
0100
0010
1000
0001
0100
0010
1000
0001
,
0010
0100
1000
0100
0010
0001
0100
0010
0100
0001
0010
0100
1000
0010
0100
0010
,
1000
0100
0010
0001
0100
0010
0100
0001
0010
0100
1000
0010
0100
0010
1000
0001
,
0010
0100
0010
0100
1000
0001
0100
0010
1000
0001
0100
0010
1000
0001
0010
0100
,
0010
0000
0000
0000
1100
0000
0000
0000
0010
0000
0000
0000
0101
0000
0000
0000
0100
0000
0000
0000
0001
0000
1000
0001
0100
0000
0001
0000
1000
0000
0010
0000
,
1000
0100
0010
0100
1000
0001
0100
0010
1000
0001
0100
0010
1000
0001
0100
0010
,
1000
0100
0010
0100
1000
0001
0100
0010
1000
0001
0100
0010
1000
0001
0100
0010
,
1000
0010
0100
0010
1000
0001
0010
0100
1000
0001
0010
0100
1000
0001
0010
0100
,
1000
0010
0100
0010
1000
0001
0010
0100
1000
0001
0010
0100
1000
0001
0010
0100
,
1000
0001
0100
0010
0100
0001
0010
0100
0010
0001
0100
0010
0100
0001
0010
0100
,
1000
0010
0100
0010
1000
0100
0010
0100
1000
0010
0100
0010
1000
0100
0010
0100
,
2100
0000
3010
0100
1001
0000
0010
0001
,
0022
0000
0000
0000
0000
0000
0000
0000
0000
0033
0000
0000
0000
0000
0000
0000
0000
0000
0000
0000
0000
0000
0000
0000
2020
0000
0000
0000
0000
0000
0000
0000
0000
3030
0000
0000
0001
0000
0010
0000
0100
0000
1000
0000
0001
0000
1000
0000
,
0001
0000
0000
0000
,
0000
0000
0000
0000
,
0000
0000
0000
0000
,
0000
0000
0000
0000
,
2200
0000
0000
3300
,
0202
0000
0000
0303
,
2002
0000
0000
3003
,
0020
0000
0200
0330
,
1001
0000
0000
0010
0000
0000
0001
0000
0000
0000
0000
0000
0000
0000
1000
0000
,
0100
0000
0000
0010
0000
0000
0100
0000
0000
0000
0000
0000
0000
0000
0000
0000
,
0010
0000
0000
0100
0000
0000
1000
0000
0000
0000
0000
0000
0000
0000
0000
0000
,
0100
0000
0000
0100
0000
0000
0100
0000
0010
0000
0000
0010
0000
0000
0010
0000
,
1000
0000
0000
0000
0000
0000
0000
0010
,
0010
0000
0000
1000
0000
0000
0001
0000
0000
0000
0000
0000
0000
0000
0000
0000
,
0100
0000
0000
0001
0000
0000
1000
0000
0000
0000
0000
0000
0000
0000
0010
0000
,
0001
0000
0000
0001
0000
0000
0001
0000
1000
0000
0000
1000
0000
0000
1000
0000
,
0001
0100
0001
0010
0100
1000
0010
1000
0100
0010
0001
0100
0010
0100
0001
0010
,
0100
0000
1000
0000
0010
0000
0100
0000
0010
0000
1000
0000
0100
0000
0010
0000
0001
0000
0100
0000
0010
0000
0100
0000
0001
0000
0010
0000
0100
0000
1000
0100
,
1000
0010
0100
0001
0010
0100
0010
0001
0100
0010
1000
0100
0010
0100
1000
0010
,
0100
0000
0001
0000
0010
0000
0100
0000
0010
0000
0001
0000
0100
0000
0010
0000
1000
0000
0100
0000
0010
0000
0100
0000
1000
0000
0010
0000
0100
0000
0001
0010
,
0001
0100
0010
0100
0001
1000
0100
0010
0001
0010
0100
0010
0001
1000
0010
0100
,
0001
0000
1000
0000
0100
0000
0010
0000
0100
0000
1000
0000
0010
0000
0100
0000
0001
0000
1000
0000
0100
0000
0010
0000
0100
0000
1000
0000
0001
0000
0010
0100
,
0010
0001
0100
0001
0010
0100
1000
0010
1000
0001
1000
0100
0010
0001
0100
0001
,
0010
0000
0100
0000
1000
0000
0010
0000
1000
0000
0001
0000
1000
0000
0100
0000
0010
0000
0001
0000
0100
0000
0001
0000
0010
0000
0100
0000
1000
0000
0001
0100
,
0001
0000
1000
0000
0010
0000
0100
0000
0010
0000
1000
0000
0001
0000
0100
0000
0010
0000
0100
0000
0001
0000
1000
0000
0100
0000
0010
0000
0001
0000
1000
0100
,
1000
0000
0010
0000
0100
0000
0001
0000
1000
0000
0100
0000
1000
0000
0001
0000
0010
0000
0100
0000
1000
0000
0001
0000
0010
0000
0001
0000
0100
0000
0001
0010
,
0001
0000
0100
0000
0010
0000
0100
0000
0001
0000
1000
0000
0010
0000
0100
0000
0010
0000
1000
0000
0001
0000
0100
0000
0010
0000
1000
0000
0001
0000
0100
0010
,
0100
0000
0010
0000
1000
0000
0001
0000
0100
0000
0001
0000
1000
0000
0010
0000
0100
0000
0010
0000
1000
0000
0001
0000
0100
0000
0010
0000
0100
0000
0001
1000
,
0100
0010
0001
1000
0010
0100
0001
1000
0100
1000
0001
0010
0001
1000
0010
1000
,
0001
0100
0001
1000
0100
0010
0100
1000
0001
0010
0001
0100
0010
1000
0001
1000
,
0100
0000
0000
0000
0000
0000
1000
0000
0000
0000
0000
0000
0100
0000
0000
0000
0000
0000
0000
0000
0000
0000
0000
0000
0010
0000
0000
0000
0000
0000
0000
0000
0000
0000
0000
0000
0001
0000
0000
0000
0000
0000
0010
0000
0000
0000
0000
0000
0001
0000
0000
0000
0000
0000
0000
0000
0000
0000
0000
0000
0100
0000
0000
0000
0000
0000
0000
0000
0000
0000
0000
0000
0010
0000
0000
0000
0000
0000
0100
0000
0000
0000
0000
0000
0010
0000
0000
0000
0000
0000
0000
0000
0000
0000
0000
0000
1000
0000
0000
0000
0000
0000
0000
0000
0000
0000
0000
0000
0001
0000
0000
0000
0000
0000
0000
0000
0000
0000
0000
0000
0001
0000
0000
0000
0000
0000
0000
0000
0100
0000
0000
0000
0000
0000
0000
0000
0010
0000
0000
0000
0000
0000
0000
0000
1000
0000
0000
0000
0000
0000
0000
0000
0000
0000
0000
0000
0001
0000
0000
0000
0000
0000
0000
0000
0000
0000
0000
0000
0100
0000
0000
0000
0000
0000
0000
0000
0000
0000
0000
0000
0001
0000
0000
0000
0000
0000
0000
0000
0000
0000
0000
0000
,
0200
0000
0020
0330
,
1000
0000
0001
0100
0000
0001
1000
0000
0001
0100
0000
0001
1000
0001
0100
0010
,
1000
0000
0001
1000
0000
0010
1000
0000
0001
1000
0000
0010
1000
0001
0010
0100
,
1000
0000
0100
0010
0000
0100
1000
0000
2200
0000
0000
0000
3300
0000
0000
0000
,
1000
0000
0100
0010
0000
0100
1000
0000
0001
0000
0010
0100
0000
0010
0001
0000
,
1000
0000
0010
1000
0000
0001
0100
0000
0010
1000
0000
0001
0100
0010
1000
0001
,
0010
0000
0100
1000
0000
0100
0010
0000
0100
1000
0000
0001
0010
0100
1000
0001
,
0100
0000
0001
1000
0000
0001
0100
0000
0010
1000
0000
0001
0100
0000
0010
0000
,
0100
0000
0001
1000
0000
0001
0010
0000
0100
0000
1000
0100
0000
1000
0001
0000
,
1000
0100
0010
0001
0100
0000
0010
0100
0001
1000
0010
0000
1000
0000
0100
0000
,
1000
0000
0001
0100
0000
0001
1000
0000
0001
0100
0000
0001
1000
0000
0010
0000
,
0100
0000
0010
1000
0001
0000
0100
0000
0220
0000
0000
0000
0330
0000
0000
0000
,
0010
0000
1000
0001
0100
0000
0010
0000
0100
0000
0010
1000
0001
0000
0100
0000
,
0010
0000
1000
0100
0000
1000
0001
0000
1000
0100
0000
1000
0001
0010
0100
0000
,
1000
0000
0001
0100
0000
0010
1000
0000
0001
0100
0000
0010
0100
0001
1000
0000
,
0001
0000
0100
0001
0000
1000
0010
0000
1000
0001
0000
0100
0010
0000
1000
0000
,
0100
0000
0010
0000
0001
0000
0010
0000
0100
0000
1000
0000
0001
0000
0100
0000
0010
0000
1000
0000
0010
0000
0100
0001
1000
0000
0000
0000
0000
0000
0000
0000
,
0002
0003
0000
0000
,
2000
3000
0000
0000
,
0020
0030
0000
0000
,
0200
0300
0020
0030
,
2000
3000
0000
0000
,
0002
0003
0000
0000
,
0200
0300
0000
0000
,
0020
0030
2000
3000
;

//---------------dance-double - K. Pearman----------------
#NOTES:
     dance-double:
     K. Pearman:
     Challenge:
     13:
     0.747,0.830,0.041,0.053,0.963:
00000000
00000000
00000000
00000000
,
00000000
00000000
00000000
00000000
,
00000000
00000000
00000000
00000000
,
00000000
00000000
00000000
00000000
,
10000000
01000000
00100000
00010000
01000000
00100000
01000000
00010000
00100000
00000000
00001000
00010000
00000100
00010000
00001000
00010000
,
00000010
00000000
00001000
00000100
00000010
00000001
00000100
00000010
00000100
00000000
00000001
00000010
00000100
00001000
00000010
00000100
,
00000010
00000000
00000100
00001000
00000100
00000010
00001000
00000001
00000010
00000000
00000100
00000010
00001000
00000010
00000100
00000010
,
00000001
00000000
00001000
00000010
00000100
00000001
00001000
00000100
00010000
00000000
00001000
00010000
00001000
01000000
00010000
01000000
,
00001000
00000000
00100000
00010000
10000000
00010000
01000000
00010000
10000000
00000000
00100000
10000000
00010000
10000000
01000000
10000000
,
00010000
00000000
00100000
00010000
01000000
00010000
00100000
00010000
01000000
00000000
00001000
00010000
00000100
00010000
00001000
00010000
,
00000100
00000000
00000010
00000100
00001000
00000100
00000010
00000100
00001000
00000000
00000001
00000100
00000010
00000100
00000001
00000100
,
00000010
00000000
00000100
00000001
00000010
00000100
00000010
00000001
00000010
00000000
00000100
00000010
00000100
00001000
00000100
00000010
,
00000100
00000000
00001000
00000010
00001000
00000100
00000010
00000100
00001000
00000000
00000010
00010000
00001000
00000010
00001000
00010000
,
00000010
00000000
00010000
00001000
00010000
00100000
00010000
00001000
00010000
00000000
00001000
00010000
00001000
01000000
00010000
01000000
,
00001000
00000000
01000000
00010000
00100000
01000000
10000000
00010000
01000000
00000000
00100000
01000000
00010000
00100000
01000000
10000000
,
00010000
00000000
10000000
00100000
01000000
00010000
00100000
01000000
40000000
00000000
00000000
00000000
30000000
00000000
00000000
00000000
,
10000000
01000000
00100000
00010000
01000000
00100000
01000000
00010000
00100000
00001000
00010000
00000010
00010000
00001000
00010000
00000100
,
00010000
00001000
00010000
00000010
00001000
00000100
00000010
00000001
00000100
00000010
00000100
00000001
00000010
00000001
00001000
00000001
,
00000010
00000100
00000010
00000001
00001000
00000010
00000100
00000001
00000010
00000100
00001000
00000010
00010000
00001000
00010000
00000100
,
00010000
00001000
01000000
00010000
01000000
00001000
00100000
00010000
01000000
00100000
10000000
01000000
00100000
00010000
01000000
00100000
,
01000000
00010000
10000000
01000000
00100000
10000000
00100000
01000000
00100000
00010000
10000000
00100000
01000000
00010000
10000000
01000000
,
00100000
00010000
01000000
00100000
00010000
00100000
01000000
00010000
00100000
01000000
10000000
00010000
01000000
00100000
10000000
00010000
,
10000000
01000000
10000000
00100000
01000000
00010000
00100000
00001000
01000000
00001000
00010000
00001000
01000000
00010000
01000000
00001000
,
00040000
00030000
00004000
00003000
,
00010000
00001000
00010000
00001000
00100000
00001000
00010000
00001000
00010000
00000000
00001000
00010000
00000100
00010000
00001000
00010000
,
00000100
00000000
00000010
00000100
00001000
00000100
00000010
00000100
00001000
00000000
00000001
00000100
00000010
00000100
00000001
00000100
,
00000010
00000000
00001000
00000010
00000100
00000010
00001000
00000010
00000100
00000000
00000001
00000010
00000100
00000010
00000001
00000010
,
00000100
00000000
00001000
00000100
00010000
00000100
00001000
00000100
00010000
00000000
00001000
00010000
00000100
00010000
00001000
00010000
,
00001000
00000000
01000000
00010000
01000000
00100000
01000000
00010000
00100000
00000000
01000000
00100000
01000000
10000000
00100000
01000000
,
00100000
00000000
10000000
01000000
00100000
01000000
10000000
00100000
01000000
00000000
00010000
00100000
10000000
00100000
00010000
01000000
,
00100000
00000000
01000000
00010000
10010000
00000000
10000000
01000000
,
11000000
00000000
10000000
01000000
00010000
00001000
00000100
00000001
,
00000011
00000000
00000000
00000001
00000100
00000000
00000000
00000100
00001000
00000000
00000000
00001000
00010000
00000000
00000000
00010000
,
01000000
00000000
00000000
01000000
10000000
00000000
00000000
10000000
00100000
00000000
00000000
00100000
01000000
00000000
00010000
00000000
,
10000000
00000000
00000000
10000000
01000000
00000000
00000000
01000000
00010000
00000000
00000000
00010000
00001000
00000000
00000000
00001000
,
00000100
00000000
00000000
00000100
00000001
00000000
00000000
00000001
00000010
00000000
00000000
00000010
00000100
00000000
00001000
00000000
,
00000001
00000000
00000000
00000001
00000100
00000000
00000000
00001000
00010000
00000000
00000000
01000000
10000000
00000000
00000000
00100000
,
00010000
00000000
00000000
00001000
00000010
00000000
00000000
00000001
00000100
00000000
00000000
00000010
00000100
00000000
00000001
00000000
,
00001000
00000000
00000000
00000100
00010000
00000000
00000000
00001000
01000000
00000000
00000000
00001000
00010000
00000000
00000000
00010000
,
00000010
00000000
00000000
00000010
00100000
00000000
00000000
00100000
00001000
00000000
00000000
00001000
00010000
00000000
00100000
00000000
,
01000000
00000000
00010000
00000000
10000000
01000000
00000000
00000000
00100000
00000000
00000000
00010000
01000000
00000000
00001000
00000000
,
00010000
00000000
00000100
00000000
00001000
00000001
00000000
00000000
00000100
00000000
00000000
00000010
00001000
00000000
00000001
00000000
,
00000010
00000000
00000100
00000000
00001000
00000001
00000000
00000000
00000100
00000000
00000000
00001000
00010000
00000000
01000000
00000000
,
10000000
00000000
00010000
00000000
01000000
00100000
00000000
00000000
10000000
00000000
00000000
00010000
00100000
00000000
01000000
00000000
,
10000000
00000000
00010000
00000000
01000000
00001000
00000000
00000000
00010000
00000000
00000100
00000000
00001000
00000001
00000000
00000000
,
00000010
00000000
00000100
00000000
00010000
00001000
00000000
00000000
01000000
00000000
00010000
00000000
10000000
00010000
00000000
00000000
,
00100000
00000000
00000000
00010000
00000000
00000000
01000000
00000000
00000000
10000000
00000000
00000000
01000000
00000000
00010000
00000000
,
00200000
00000000
00000000
00300000
,
01000000
10000000
00010000
10000000
01000000
00000000
00100000
00010000
00000000
01000000
00000000
00001000
00010000
00000000
00000100
00000000
,
00000010
00000001
00001000
00000001
00000010
00000000
00000001
00000100
00000000
00000010
00000000
00001000
00000100
00000000
00010000
00000000
,
00001000
00010000
00000100
00010000
00001000
00000000
01000000
00010000
00000000
00100000
00000000
01000000
10000000
00000000
00010000
00000000
,
01000000
00100000
01000000
00010000
01000000
00000000
00100000
10000000
00000000
00100000
00000000
00010000
00100000
00000000
01000000
00000000
,
00010000
01000000
00100000
01000000
00010000
00000000
10000000
01000000
00010000
00000000
01000000
00000000
00100000
00000000
00001000
00000000
,
00010000
00000100
00001000
00000100
00010000
00000000
00000100
00000010
00001000
00000000
00000010
00000000
00000001
00000000
00000100
00000000
,
00000010
00000001
00001000
00000100
00000001
00000010
00001000
00000001
,
00000100
00000000
00001000
00000000
00000010
00000000
00000100
00000000
00001000
00000000
00010000
00000000
00100000
01000000
00010000
00000000
,
10000000
01000000
00100000
00010000
01000000
00100000
01000000
00010000
00100000
00001000
00010000
00000100
00001000
00000010
00001000
00000100
,
00000010
00000001
00000100
00000010
00000100
00000001
00000010
00000100
00001000
00000001
00000100
00000010
00001000
00000100
00000010
00000000
,
00000001
00000100
00000001
00000100
00000001
00000010
00000100
00001000
00000010
00001000
00000100
00000010
00001000
00010000
00000010
00010000
,
00001000
00100000
00001000
00010000
00100000
00010000
00001000
00100000
00010000
01000000
10000000
01000000
00010000
00100000
10000000
00100000
,
01000000
10000000
00100000
01000000
00010000
10000000
01000000
00100000
00010000
01000000
00100000
01000000
00010000
00100000
00001000
00010000
,
00000010
00001000
00000100
00000010
00000100
00001000
00000010
00000100
00000001
00000100
00000010
00001000
00000001
00000010
00000100
00001000
,
00000010
00010000
00001000
00000010
00000100
00000010
00001000
00010000
00000100
00001000
00000010
00000100
00001000
00000100
00000010
00001000
,
00000001
00000010
00000100
00010000
00001000
01000000
00100000
10000000
,
00010000
01000000
10000000
01000000
00010000
10000000
01000000
00100000
00010000
10000000
00100000
01000000
00010000
00100000
10000000
00100000
,
00010000
01000000
00001000
00010000
00000100
00001000
00000010
00000100
00000001
00000010
00000100
00001000
00000010
00000001
00000010
00001000
,
00000001
00000010
00000100
00001000
00000010
00000100
00000001
00000010
00000100
00001000
00000010
00000100
00000001
00000100
00001000
00000100
,
00000001
00000010
00000100
00001000
00000010
00010000
00001000
00100000
00010000
01000000
00001000
00010000
00001000
01000000
00010000
00100000
,
01000000
10000000
00010000
10000000
01000000
00100000
01000000
10000000
00010000
01000000
00001000
01000000
00010000
00100000
01000000
00010000
,
01000000
00100000
00001000
00010000
00000100
00000010
00000001
00000100
00000010
00000100
00001000
00000100
00000001
00001000
00000100
00000010
,
00000011
00000000
00000001
00000100
00000101
00000000
00000001
00000100
,
00001100
00000000
00001000
00010000
00011000
00000000
00001000
00010000
,
00001000
00000000
01000000
00010000
00000000
00000000
01000000
00010000
00000000
00000000
10000000
01000000
00000000
00000000
10000000
01000000
,
00000000
00000000
00100000
00010000
00000000
00000000
00100000
00010000
00000000
00000000
10000000
00100000
00000000
00000000
10000000
00100000
,
00000000
00000000
01000000
10000000
00000000
00000000
01000000
00010000
00000000
00000000
00100000
10000000
00000000
00000000
00100000
00010000
,
00000000
00000000
01000000
00001000
00000000
00000000
00010000
00000100
00000000
00000000
00100000
00001000
00000000
00000000
00010000
00000010
,
00000000
00000000
00001000
00000010
00000000
00000000
00000001
00000010
00000000
00000000
00001000
00000100
00000000
00000000
00000001
00000100
,
00000000
00000000
00000010
00000001
00000000
00000000
00000100
00001000
00000000
00000000
00000100
00000010
00000000
00000000
00001000
00000001
,
00000000
00000000
00000100
00000010
00000000
00000000
00000010
00001000
00000000
00000000
00100000
00010000
00000000
00000000
00010000
00001000
,
00000000
00000000
00100000
00010000
00000000
00000000
01000000
00100000
00000000
00000000
10000000
01000000
00000000
00000000
00100000
00010000
,
01000000
00000000
00000000
10000000
00000000
00000000
01000000
00000000
00000000
00000000
00010000
00000000
10000000
00000000
01000000
00000000
,
00100000
00000000
00000000
00001000
00000000
00000000
00010000
00000000
00000000
00000000
00000100
00000000
00010000
00000000
00001000
00000000
,
00000100
00000000
00000000
00000001
00000000
00000000
00000010
00000000
00000000
00000000
00001000
00000000
00000010
00000000
00010000
00000000
,
00000010
00000000
00000000
00000100
00000000
00000000
00001000
00000000
00000010
00000000
00000000
00000001
00000000
00000000
00000010
00000000
,
00000100
00001000
00010000
00100000
01000000
00000000
00010000
10000000
,
01000000
00100000
00010000
00001000
00000100
00000000
00000010
00000001
,
00000100
00000000
00000000
00000001
00000000
00000000
00001000
00000000
00000000
00000000
00000001
00000000
00001000
00000000
00000100
00000000
,
00010000
00000000
00000000
00001000
00000000
00000000
01000000
00000000
00010000
00000000
00000000
10000000
00000000
00000000
00100000
00000000
,
10000000
01000000
00010000
00001000
00000100
00000010
00001000
00000001
,
00000010
00001000
00010000
00100000
10000000
00010000
00100000
10000000
,
00100000
01000000
10000000
00100000
00010000
01000000
00010000
00100000
,
00010000
00001000
00010000
00000010
00010000
00000100
00010000
00001000
,
00000010
00000100
00000001
00000100
00001000
00000100
00010000
00000100
,
00000010
00010000
00000010
00001000
00000010
00000100
00000010
00000001
,
00000100
00000010
00000100
00001000
00010000
00100000
01000000
00010000
,
10000000
01000000
00010000
00001000
00010000
01000000
10000000
00100000
,
10000000
01000000
00100000
00010000
01000000
00001000
00010000
00001000
00010000
00000100
00001000
00000010
00000100
00000001
00000010
00000100
,
00001000
00000001
00001000
00000001
00000010
00001000
00000010
00000001
00000100
00000010
00001000
00000100
00000010
00000001
00000010
00001000
,
00000010
00000001
00000100
00001000
00000100
00000010
00000100
00000001
00001000
00000100
00000010
00000001
00000100
00001000
00000100
00000010
,
00000100
00000001
00001000
00000100
00010000
00001000
00010000
00100000
00010000
00001000
00010000
00001000
00000010
00001000
00010000
00001000
,
01000000
00010000
00100000
00010000
00100000
01000000
10000000
00010000
01000000
00100000
01000000
00010000
10000000
01000000
00010000
01000000
,
10000000
00100000
01000000
00010000
00100000
01000000
00100000
00010000
01000000
00001000
00010000
00001000
00010000
00000010
00001000
00000100
,
00000010
00000001
00000100
00001000
00000100
00000010
00000100
00000001
00000010
00000100
00001000
00000010
00010000
00001000
00000010
00001000
,
00020000
00000000
00230000
00300000
,
10000000
00000000
10000000
01000000
00000000
01000000
00010000
00000000
00010000
00001000
00000000
00001000
00000100
00000000
00000001
00000000
,
00000010
00000000
00000010
00001000
00000000
00001000
00010000
00000000
00010000
00100000
00000000
00100000
10000000
00000000
00010000
00000000
,
01000000
00000000
00100000
10000000
01000000
00000000
00100000
00000000
11000000
00000000
00000000
00000000
00010000
00000000
00000000
00000000
,
10000000
00000000
01000000
00100000
00010000
00000000
01000000
00000000
00001000
00000000
00010000
00000100
00001000
00000000
00000010
00000000
,
00000100
00000000
00000001
00000010
00000000
00000010
00001000
00000000
00010000
00001000
00000000
00001000
00010000
00000000
00001000
00000000
,
00100000
00000000
00010000
01000000
00000000
01000000
00100000
00000000
00100000
10000000
00000000
10000000
01000000
00000000
00100000
00000000
,
00010000
00000000
01000000
00010000
00100000
00000000
01000000
00000000
11000000
00000000
00000000
00000000
10000000
00000000
00010000
00000000
,
01000000
00000000
00001000
01000000
00001000
00000000
01000000
00000000
00000100
00000000
00010000
00000100
00010000
00000000
00001000
00000000
,
01000000
00000000
00010000
00100000
01000000
00000000
10000000
00010000
01000000
00000000
00100000
10000000
00010000
00000000
00100000
00000000
,
00001000
00000000
01000000
00001000
00010000
00000000
00000100
00010000
00001000
00000000
00000010
00000100
00001000
00000000
00000001
00000000
,
00000100
00000000
00000010
00001000
00000001
00000000
00000100
00000000
00000101
00000000
00000001
00000000
00000010
00000000
00000100
00000000
,
00001000
00000000
00000001
00000010
00000100
00000000
00001000
00000000
00000010
00000000
00010000
00001000
00100000
00000000
00001000
00000000
,
00010000
00000000
00100000
01000000
00010000
00000000
10000000
01000000
00100000
00000000
00010000
01000000
10000000
00000000
01000000
00000000
,
00010000
00000000
00100000
00000010
00010000
00000000
00001000
00010000
00000100
00000000
00010000
00001000
01000000
00000000
00000100
00000000
,
00010000
00000000
00001000
00000010
00000100
00000000
00001000
00000000
00000001
00000000
00000100
00000000
00000010
00000000
00001000
00000000
,
00000001
00000010
00001000
00010000
00100000
10000000
01000000
00010000
00001000
00000010
00000001
00000100
00000001
00000000
00000000
00000000
,
00002000
00000000
00000000
00000000
,
00023000
00000000
00000000
00000000
,
00032000
00000000
00000000
00000000
,
00023000
00000000
02030000
00000000
,
23000000
00000000
00000000
00000000
,
30200000
00000000
00000000
00000000
,
00320000
00000000
00000000
00000000
,
00032000
00000000
00023000
00000000
,
00030000
00000000
00000000
00000000
;
